#VERSION:0.83;
#TITLE:Foolish;
#SUBTITLE:;
#ARTIST:박수진;
#TITLETRANSLIT:;
#SUBTITLETRANSLIT:;
#ARTISTTRANSLIT:Soojin Park;
#GENRE:R&B;
#ORIGIN:;
#CREDIT:;
#BANNER:Foolish-bn.png;
#BACKGROUND:Foolish-bg.png;
#PREVIEWVID:;
#JACKET:Foolish-jacket.png;
#CDIMAGE:;
#DISCIMAGE:;
#LYRICSPATH:;
#CDTITLE:cdtitle.png;
#MUSIC:Foolish.ogg;
#OFFSET:-0.031000;
#SAMPLESTART:22.448999;
#SAMPLELENGTH:21.099001;
#SELECTABLE:YES;
#BPMS:0.000=91.000;
#STOPS:;
#DELAYS:;
#WARPS:;
#TIMESIGNATURES:0.000=4=4;
#TICKCOUNTS:0.000=4;
#COMBOS:0.000=1;
#SPEEDS:0.000=1.000=0.000=0;
#SCROLLS:0.000=1.000;
#FAKES:;
#LABELS:0.000=Song Start;
#BGCHANGES:0.000=Foolish.avi=1.000=1=0=0=StretchNoLoop==CrossFade==,
99999=-nosongbg-=1.000=0=0=0 // don't automatically add -songbackground-
;
#KEYSOUNDS:;
#ATTACKS:
;

//---------------dance-single - ----------------
#NOTEDATA:;
#CHARTNAME:X-Scale 10;
#STEPSTYPE:dance-single;
#DESCRIPTION:;
#CHARTSTYLE:;
#DIFFICULTY:Hard;
#METER:7;
#RADARVALUES:0.367509,0.408854,0.083525,0.183754,0.292337,308.000000,298.000000,10.000000,22.000000,0.000000,0.000000,0.000000,0.000000,0.000000,0.367509,0.408854,0.083525,0.183754,0.292337,308.000000,298.000000,10.000000,22.000000,0.000000,0.000000,0.000000,0.000000,0.000000;
#CREDIT:iamthek3n;
#NOTES:
0000
0000
0000
0000
,
0000
0000
0000
0000
,
0000
0000
0000
0000
,
0000
0000
0000
0000
,
0000
0000
0000
0000
0000
0000
0000
0000
0000
0000
0000
0000
0000
0000
0000
0000
0000
0000
0000
0000
0000
0000
0000
0000
1000
0000
0000
0000
0000
0001
0000
0000
0000
0000
0000
0000
2000
0000
0000
0000
0000
0000
0000
0000
0000
0000
0000
0000
,
3000
0200
0020
0300
,
0030
0000
0000
0000
0001
1000
0000
0020
0000
0030
2000
0000
0000
0000
3000
0000
,
0000
0000
0000
0000
0000
0000
0000
0000
0000
0100
0000
0000
1000
0000
0000
0001
0000
0000
0000
0000
0000
0200
0000
0000
0000
0000
0000
0300
0020
0000
0000
0000
0000
0000
0000
0000
0000
0000
0000
0000
0000
0000
0000
0000
0000
0000
0000
0000
,
0030
0000
1000
0001
1000
0000
0000
0000
1100
0000
0000
0000
1000
0000
0100
0000
,
0000
0000
0100
0000
0001
1000
0000
0000
0010
1000
0000
1000
0000
0000
0100
0000
,
1000
0000
0001
0000
1000
0000
0000
0000
1000
0000
0001
0000
0000
0000
0010
0000
0000
0000
0001
0000
0000
0000
0000
0000
0100
0000
0000
0010
0000
0000
1000
0000
,
0000
0000
0001
0000
0000
0000
0000
0000
0010
0000
0000
0100
0000
0000
2000
0000
0001
0000
0000
0000
0000
0000
0010
0000
0000
0000
0000
0000
3010
0000
0000
0000
,
0000
0000
1000
0000
0010
1000
0001
0000
0101
0000
0000
0000
0001
0000
0100
0000
,
0001
1000
0000
0000
1100
0000
0100
0000
0010
0000
0000
0010
0001
0000
0100
0000
,
0000
0000
0100
0000
1000
0000
0001
0000
1000
0000
0100
1000
0100
0000
0010
0000
,
0000
0001
1000
0001
0100
1000
0100
0010
,
0100
0000
0001
0000
0010
0100
0000
0000
1000
0000
0010
0000
0100
0000
0001
0000
,
0010
0100
1000
0100
0001
0100
1000
0100
,
0010
0000
0101
0002
1000
0000
0103
0001
,
0000
0001
0000
0000
0011
0000
0010
0000
0100
0000
0000
0100
0000
0000
0100
0000
,
0000
0100
0000
0000
1100
0000
0000
0000
1001
0000
1000
0100
0010
0000
0002
0000
,
0000
1000
0000
0000
1003
0000
0000
0000
0100
0000
1000
0000
0001
0000
0200
0000
,
0000
0010
0000
0000
0310
0000
0100
0000
1010
0000
1000
0000
0100
0000
0010
0100
,
1000
0000
0010
0000
0100
0000
0001
0000
0010
0000
0001
1000
1001
0000
2000
0000
,
0000
0000
3000
0000
0010
1000
0001
0000
,
0000
0000
0010
0100
0010
0100
0010
0200
0000
0000
0000
0000
2300
0000
0000
0000
,
0000
0002
3003
0002
0013
0100
1000
0000
,
0000
0000
0010
0100
0010
0100
0010
0200
0000
0000
0000
0000
0302
0000
0020
0000
,
0033
0000
0000
0000
0000
0000
0000
0000
0000
0000
0000
0000
0000
0000
0000
0000
0000
0000
0000
0000
0000
0001
0000
0000
1000
0000
0000
0001
0000
0000
0000
0000
0000
0010
0000
0000
0100
0000
0000
0000
0000
0000
1000
0000
0000
0000
0010
0000
,
0000
0000
0000
0000
0000
0000
0100
0000
0000
0000
0000
0000
0001
0000
0000
0000
0000
0000
1000
0000
0000
0100
0000
0000
0010
0000
0000
0000
0100
0000
0000
0000
0000
0000
0000
0000
1000
0000
0000
0000
0000
0000
0001
0000
0000
0000
0000
0000
,
0100
0000
0000
0000
0001
0000
0000
0000
0000
0000
0000
0000
0010
0000
0000
0000
0000
0000
0001
0000
0000
0100
0000
0000
1000
0000
0000
0000
0000
0000
0001
0000
0000
0010
0000
0000
1000
0000
0000
0000
0000
0000
0100
0000
0000
0010
0000
0000
,
0001
1000
0000
0100
0010
0000
0001
0000
0100
0000
0001
0010
0100
0000
1000
0000
,
0000
0010
0000
0010
0000
0000
0001
0000
0010
0000
1000
0000
0010
0000
0001
0000
,
0100
0010
1000
0001
0100
0001
1000
0200
,
0000
0310
0100
1000
0001
0010
1000
0010
,
0001
0000
0100
0000
0001
0000
0010
0000
0100
0000
1000
0100
1000
0000
0001
1000
,
0010
0000
1000
0100
0010
0000
0001
0000
0101
0000
0100
0000
0001
0000
0010
0000
,
1000
0000
0010
0000
0100
1000
0000
0000
0001
0000
1000
0000
0010
0000
0100
0000
,
0001
0000
0010
0000
0001
0000
1000
0000
1000
0000
0010
1000
0001
0000
0010
0000
,
0100
0000
0010
0000
0001
0000
1000
0000
0010
0000
1000
0100
1000
0000
0010
0000
,
0001
0000
0010
0000
1000
0100
1000
0000
0001
0000
0000
0100
0001
0000
1000
0100
,
0000
0100
0010
0000
0100
0000
1000
0000
0001
0000
0000
0100
0001
0000
1000
0001
,
0000
0001
0100
0000
0010
0000
1000
0000
0001
0000
0010
0000
1000
0000
0010
0100
,
1000
0001
0100
0001
1000
0010
0001
0010
,
0100
0000
0001
0000
0020
0002
0000
0000
0033
0000
0000
0000
0000
0000
0000
0000
;

//---------------dance-single - ----------------
#NOTEDATA:;
#CHARTNAME:X-Scale 7;
#STEPSTYPE:dance-single;
#DESCRIPTION:;
#CHARTSTYLE:;
#DIFFICULTY:Medium;
#METER:5;
#RADARVALUES:0.315008,0.334517,0.108582,0.233869,0.167049,264.000000,251.000000,13.000000,28.000000,0.000000,0.000000,0.000000,0.000000,0.000000,0.315008,0.334517,0.108582,0.233869,0.167049,264.000000,251.000000,13.000000,28.000000,0.000000,0.000000,0.000000,0.000000,0.000000;
#CREDIT:iamthek3n;
#NOTES:
0000
0000
0000
0000
,
0000
0000
0000
0000
,
0000
0000
0000
0000
,
0000
0000
0000
0000
,
0000
0000
0001
2000
,
3000
0000
0100
0020
0002
0000
0030
0000
,
0000
0000
0000
0000
0013
0001
0000
1000
0000
0000
0020
0000
0000
0000
0030
0000
,
0000
0000
0000
0000
0000
0000
1000
0000
0010
0000
1000
0000
0000
0000
0001
0000
0000
0000
0000
0020
0000
0000
0000
0000
0000
0000
0000
0000
0000
0000
0000
0000
,
0230
0000
0000
0000
2000
0000
0000
3300
1100
0000
1000
0000
0010
0000
0100
0000
,
0001
0000
0010
0100
1000
0001
0100
0001
,
1000
0000
0000
0000
0100
1000
0000
0001
0000
1000
0000
0000
0100
0010
0000
0001
,
0000
1000
0000
0000
0001
0100
0000
0002
0000
0000
0000
0000
0013
0000
0100
0000
,
1000
0000
0001
0000
0100
0000
0001
0000
1000
0100
0000
1000
0000
0001
0000
0010
,
0000
0000
0100
0000
0010
0000
0001
0000
1000
0010
0000
0100
0000
0001
0000
0010
,
0000
0100
1000
0001
0100
1000
0100
0010
,
0100
0001
0010
0200
0000
0301
0100
2000
,
0000
0001
3001
0000
0010
0000
0011
0001
,
0000
1000
0000
0000
1001
0000
1000
0000
0010
0000
0000
0000
0110
0000
0010
0000
,
0000
0100
0000
0000
0101
0000
0001
0000
0010
0000
0000
0000
0110
0000
0100
0000
,
0000
1000
0000
0000
1010
0000
0001
0000
1000
0000
0000
0000
0110
0000
0010
0000
,
0000
0001
0000
0000
1001
0000
0000
0000
1100
0000
0100
0000
1000
0000
0020
0000
,
0000
0100
0000
0000
0130
0000
0000
0000
0001
0000
0010
0000
0100
0000
2000
0000
,
0000
0010
0000
0000
3010
0000
1000
0000
0001
0000
0010
0000
0001
0000
1000
0000
,
0100
0010
0001
1000
0001
0010
0100
2000
,
0000
0000
3000
0000
1000
0010
2000
0000
,
0000
3000
0100
0020
,
0000
0031
0000
1000
0010
0100
0002
0000
,
0000
0023
0000
0000
0130
0000
0020
0002
,
0000
0000
0000
0033
0101
0000
0001
1000
,
0010
0000
1000
0000
0001
0000
0010
0000
0001
1000
0000
0010
0000
1000
0000
0100
,
0000
0010
0000
0001
0000
0000
1000
0000
0010
0000
0100
0010
0100
0000
0001
0000
,
0010
0001
0000
1000
0000
0000
0010
0000
1000
0000
0001
0000
0010
0000
0100
0000
,
0010
0002
0000
2003
0000
3010
1000
0001
,
0010
1000
0010
0001
1000
0010
1000
0200
,
0000
0310
0100
1000
0001
0100
1000
0100
,
0001
0010
0100
1000
0010
1000
0100
0010
,
0001
0000
1000
0001
1000
0000
0000
0000
1001
0000
0000
0000
0001
0000
0100
0000
,
0010
0001
0010
0100
0001
0000
1000
0001
,
1000
0100
0010
0010
0101
0000
0001
2000
,
0000
0000
0100
0000
3100
0000
1000
0000
0001
0000
0000
0010
0001
0000
0200
0000
,
0000
0010
0310
0100
0001
0010
0100
2000
,
0000
0000
3001
1000
0100
0001
0100
2000
,
0000
0000
0000
0000
3010
0000
1000
0000
0001
0000
0010
0000
0100
0000
0010
0100
,
1000
0001
1000
0010
0001
0010
1000
0002
,
0000
0100
0200
0000
0303
0000
0000
0000
;

//---------------dance-single - ----------------
#NOTEDATA:;
#CHARTNAME:X-Scale 5;
#STEPSTYPE:dance-single;
#DESCRIPTION:;
#CHARTSTYLE:;
#DIFFICULTY:Easy;
#METER:3;
#RADARVALUES:0.177788,0.260180,0.025057,0.175402,0.000000,149.000000,146.000000,3.000000,21.000000,0.000000,0.000000,0.000000,0.000000,0.000000,0.177788,0.260180,0.025057,0.175402,0.000000,149.000000,146.000000,3.000000,21.000000,0.000000,0.000000,0.000000,0.000000,0.000000;
#CREDIT:iamthek3n;
#NOTES:
// measure 0
0000
0000
0000
0000
,  // measure 1
0000
0000
0000
0000
,  // measure 2
0000
0000
0000
0000
,  // measure 3
0000
0000
0000
0000
,  // measure 4
0000
0000
1000
0000
,  // measure 5
0000
0000
0100
0000
,  // measure 6
0000
0000
0010
0000
,  // measure 7
0000
0100
1000
0000
,  // measure 8
0001
0000
0000
0000
1001
0000
0000
0100
,  // measure 9
0000
0000
1000
0000
0001
0000
0000
0100
,  // measure 10
0000
0000
0001
0000
0010
0000
0000
0100
,  // measure 11
0000
0000
1000
0000
0001
0000
0000
1000
,  // measure 12
0000
0000
0010
0000
0100
0000
0000
0001
,  // measure 13
0000
0000
1000
0000
0100
0000
0000
1000
,  // measure 14
0000
0000
0001
0000
0010
0000
0000
0200
,  // measure 15
0000
2300
0000
3002
0000
2003
0000
3200
,  // measure 16
0000
0310
0010
0000
,  // measure 17
0001
0000
1000
0000
,  // measure 18
0001
0000
0100
0000
,  // measure 19
0010
0000
1000
0000
,  // measure 20
0001
0000
0000
0000
1001
0000
1000
0200
,  // measure 21
0000
0000
0310
0000
0001
0000
1000
0020
,  // measure 22
0000
0000
0130
0000
0001
0000
0010
0100
,  // measure 23
0000
0100
1000
0000
0001
0000
0100
0010
,  // measure 24
0000
0000
1000
0000
,  // measure 25
0000
0000
0100
0000
,  // measure 26
0000
0000
0010
0000
,  // measure 27
0000
0000
0001
0000
,  // measure 28
0000
0000
0000
0000
0011
0000
0010
0100
,  // measure 29
1000
0000
0001
0000
1000
0000
0100
0010
,  // measure 30
0001
0000
1000
0000
0010
0000
0100
0001
,  // measure 31
0010
0000
0001
2000
0000
3020
0000
0230
,  // measure 32
0000
0302
0000
0023
0000
0130
0010
0001
,  // measure 33
1000
0001
0100
0020
0000
2030
0200
3000
,  // measure 34
0000
0310
0001
2000
0000
3010
1000
0002
,  // measure 35
0000
0013
0100
1000
0001
0000
1000
0100
,  // measure 36
1000
0000
0001
0100
0001
0020
0000
0100
,  // measure 37
0000
0100
0130
0010
0001
0000
1000
0001
,  // measure 38
0100
0000
0001
0010
0100
0000
1000
0100
,  // measure 39
0000
0100
0010
0000
0001
0000
0100
0010
,  // measure 40
0000
0010
1000
0000
0001
0010
0100
2000
,  // measure 41
0000
0000
3010
0000
1000
0001
0100
0020
,  // measure 42
0000
0000
1030
0000
0001
0010
0100
0000
,  // measure 43
1000
0001
0100
0000
0001
0010
0001
2000
,  // measure 44
0000
0010
3000
0000
;

//---------------dance-single - ----------------
#NOTEDATA:;
#CHARTNAME:X-Scale 1;
#STEPSTYPE:dance-single;
#DESCRIPTION:;
#CHARTSTYLE:;
#DIFFICULTY:Beginner;
#METER:1;
#RADARVALUES:0.072786,0.092399,0.000000,0.000000,0.000000,61.000000,61.000000,0.000000,0.000000,0.000000,0.000000,0.000000,0.000000,0.000000,0.072786,0.092399,0.000000,0.000000,0.000000,61.000000,61.000000,0.000000,0.000000,0.000000,0.000000,0.000000,0.000000,0.000000;
#CREDIT:iamthek3n;
#NOTES:
// measure 0
0000
0000
0000
0000
,  // measure 1
0000
0000
0000
0000
,  // measure 2
0000
0000
0000
0000
,  // measure 3
0000
0000
0000
0000
,  // measure 4
0000
0000
0001
0000
,  // measure 5
0000
0000
1000
0000
,  // measure 6
0000
0000
0001
0000
,  // measure 7
0000
0000
1000
0000
,  // measure 8
0000
0000
0001
0000
,  // measure 9
0000
0000
0010
0000
,  // measure 10
0000
0000
0100
0000
,  // measure 11
0000
0000
1000
0000
,  // measure 12
0000
0000
0001
0000
,  // measure 13
0000
0000
0100
0000
,  // measure 14
0000
0000
0001
0000
,  // measure 15
0000
0000
1000
0000
,  // measure 16
0000
0000
0000
0001
,  // measure 17
0000
1000
0000
0001
,  // measure 18
0000
1000
0000
0100
,  // measure 19
0000
0010
0000
0100
,  // measure 20
0000
0010
0000
0001
,  // measure 21
0000
1000
0000
0001
,  // measure 22
0000
0100
0000
0001
,  // measure 23
0000
1000
0000
0010
,  // measure 24
0000
0000
1000
0000
,  // measure 25
0000
0000
0100
0000
,  // measure 26
0000
0000
0010
0000
,  // measure 27
0000
0000
0001
0000
,  // measure 28
0000
0000
0000
1000
,  // measure 29
0000
0010
0000
1000
,  // measure 30
0000
0001
0000
0100
,  // measure 31
0000
0001
0000
0010
,  // measure 32
0000
0000
0000
0001
,  // measure 33
0000
1000
0000
0010
,  // measure 34
0000
1000
0000
0001
,  // measure 35
0000
1000
0000
0100
,  // measure 36
0000
0000
0000
1000
,  // measure 37
0000
0100
0000
0010
,  // measure 38
0000
0001
0000
1000
,  // measure 39
0000
0001
0000
0010
,  // measure 40
0000
0100
0000
1000
,  // measure 41
0000
0010
0000
0100
,  // measure 42
0000
0001
0000
0010
,  // measure 43
0000
0100
0000
0010
,  // measure 44
0000
0001
0000
0000
;
