#TITLE:Everyday I Need You feat. 진솔;
#SUBTITLE:(ViVi);
#ARTIST:이달의 소녀;
#TITLETRANSLIT:Everyday I Need You feat. 진솔;
#SUBTITLETRANSLIT:;
#ARTISTTRANSLIT:LOOΠΔ;
#GENRE:K-Pop;
#CREDIT:;
#BANNER:Everyday I Need You feat. JinSoul-bn.png;
#BACKGROUND:Everyday I Need You feat. JinSoul-bg.png;
#LYRICSPATH:;
#CDTITLE:cdtitle.png;
#MUSIC:Everyday I Need You.ogg;
#OFFSET:-0.006000;
#SAMPLESTART:39.594002;
#SAMPLELENGTH:19.794001;
#SELECTABLE:YES;
#BPMS:0.000000=97.000000
;
#STOPS:
;
#BGCHANGES:0.000=Everyday I Need You.avi=1.000=1=0=0=StretchNoLoop==CrossFade==,
99999=-nosongbg-=1.000=0=0=0 // don't automatically add -songbackground-
;
#KEYSOUNDS:;
#ATTACKS:;

//---------------dance-single - ----------------
#NOTES:
     dance-single:
     X-Scale 11:
     Hard:
     8:
     0.405215,0.626851,0.211562,0.164548,0.238987,362.000000,335.000000,27.000000,21.000000,0.000000,0.000000,0.405215,0.626851,0.211562,0.164548,0.238987,362.000000,335.000000,27.000000,21.000000,0.000000,0.000000:
// measure 0
0000
0000
0000
0000
,  // measure 1
0000
0000
0000
0000
,  // measure 2
0000
0000
0000
0000
,  // measure 3
0000
0000
0000
0000
,  // measure 4
1000
0000
0000
0000
0000
0000
0100
1000
0100
0000
1000
0000
0001
0000
0100
0000
,  // measure 5
0002
0000
0000
0000
0003
0000
0010
0100
0010
0000
0001
0000
1000
0000
0010
0000
,  // measure 6
2000
0000
3000
0002
0000
0003
0010
0100
,  // measure 7
1000
0002
0000
0203
0000
1300
0100
0001
,  // measure 8
0101
0000
0100
0000
0010
0100
0001
0000
,  // measure 9
0010
0000
0100
0000
1000
1000
1010
0000
,  // measure 10
0100
0000
1000
0000
0001
0010
1000
0010
,  // measure 11
0011
1010
0011
0110
,  // measure 12
1001
0000
0001
0000
1000
0010
1000
0000
,  // measure 13
0100
0000
0000
0000
0010
0000
0000
0000
0001
0010
0001
0000
0011
0000
0000
0000
,  // measure 14
0010
0000
0100
1000
0001
0000
0100
0001
,  // measure 15
2001
0000
3100
0020
0000
0130
0010
0001
,  // measure 16
0011
0000
0000
0000
0001
0000
1000
0100
1000
0000
0010
0000
1000
0000
0001
0000
,  // measure 17
0100
0000
0000
0000
0001
0000
0010
0000
1000
0000
0100
0000
0001
0000
1000
0010
,  // measure 18
1000
0000
0100
0010
0001
1000
0010
0000
,  // measure 19
1001
0000
0000
0000
0110
0000
0000
0000
1001
0000
0000
0000
0110
0000
0100
0010
,  // measure 20
0100
0000
0001
0000
0010
0000
0100
0000
0001
0000
0100
0000
1000
0000
0001
0100
,  // measure 21
0001
0000
0000
1000
0010
0000
1000
0000
0001
0000
0010
0000
0100
0000
0000
0000
,  // measure 22
1000
0000
0010
0000
0100
0000
0001
1000
0001
0000
0010
0000
0100
0000
0000
0000
,  // measure 23
1010
0000
0110
0000
0011
0001
2000
0000
,  // measure 24
3100
0000
1000
0000
0001
0000
0000
0100
0001
1000
0010
0100
0010
1000
0001
0010
,  // measure 25
0100
0000
0010
0000
0001
0000
0000
1000
0001
0100
0010
1000
0100
1000
0001
0100
,  // measure 26
0010
0000
1000
0000
0001
0000
0000
0010
0100
1000
0001
1000
0100
0010
0100
1000
,  // measure 27
0200
0000
0300
0010
0100
1000
1010
0000
,  // measure 28
0101
0000
0100
0001
0100
0010
1000
0001
0010
1000
0010
0100
1000
0010
0000
1000
,  // measure 29
0001
0000
0000
0000
0100
0000
0010
0000
0000
0000
0100
0000
0001
0000
0000
0100
0000
0000
0010
0000
0000
0100
0000
0000
0001
0000
0000
1000
0000
0000
0100
0000
0000
0010
0000
0000
0001
0000
0000
0100
0000
0000
0010
0000
0000
1000
0000
0000
,  // measure 30
0001
0000
0010
0000
1000
0000
0100
0000
0001
0000
1000
0001
0000
0000
0100
0010
,  // measure 31
1000
0001
0010
0100
0010
0001
1000
0010
1000
0001
0010
0100
1000
0000
0000
0000
,  // measure 32
1001
0000
1000
0000
0001
0000
0020
0000
0000
0000
0230
0000
0000
0300
0200
0000
,  // measure 33
1000
0300
0100
0020
0030
0001
1000
0020
,  // measure 34
0000
0030
0100
0002
0000
1003
0001
0200
,  // measure 35
0010
0300
0100
0000
0001
0020
0100
0000
,  // measure 36
0031
0000
0010
0000
0100
0000
0001
0000
0100
0000
0010
0000
0001
0000
1000
0001
,  // measure 37
0200
0000
1300
0100
0001
1000
0020
0100
,  // measure 38
0130
0000
0010
1000
0010
0000
0100
0000
0001
0000
1000
0000
0100
0000
0010
0000
,  // measure 39
0011
0000
0000
0001
0100
0000
0000
0010
1000
0000
0010
0000
0100
0000
0000
0000
,  // measure 40
1001
0000
0000
0000
0001
0000
1000
0100
1000
0000
0010
0000
1000
0000
0001
0000
,  // measure 41
0100
0000
0000
0100
0001
0000
0010
0000
0100
0000
1000
0000
0100
0000
1000
0001
,  // measure 42
1000
0000
1000
0001
0100
0000
0010
0000
0100
0000
0001
0000
1000
0000
0000
0000
,  // measure 43
1001
0000
0000
0000
0110
0000
0000
0000
1001
0000
0000
0000
0110
0000
0100
0010
,  // measure 44
0100
0000
0001
0000
0010
0000
0100
0000
0001
0000
0100
0000
1000
0000
0001
0100
,  // measure 45
0001
0000
0000
1000
0010
0000
1000
0000
0001
0000
0010
0000
0100
0000
0000
0000
,  // measure 46
1000
0000
0010
0000
0100
0000
0001
0010
0100
0000
0010
0000
1000
0000
0010
0000
,  // measure 47
0011
0000
0000
0001
1000
0000
0000
0100
0010
0000
0001
0000
2000
0000
0000
0000
,  // measure 48
0200
3000
0000
0000
,  // measure 49
0000
0000
0000
0000
,  // measure 50
0300
0000
0000
0000
;

//---------------dance-single - ----------------
#NOTES:
     dance-single:
     X-Scale 8:
     Medium:
     6:
     0.280964,0.430960,0.062685,0.250740,0.062685,251.000000,243.000000,8.000000,32.000000,0.000000,0.000000,0.280964,0.430960,0.062685,0.250740,0.062685,251.000000,243.000000,8.000000,32.000000,0.000000,0.000000:
0000
0000
0000
0000
,
0000
0000
0000
0000
,
0000
0000
0000
0000
,
0000
0000
0000
0000
,
0001
0000
0000
1000
0000
0000
0010
1000
,
0001
0000
0000
0000
0010
0000
0001
0100
,
0001
0000
0000
1000
0000
0000
0100
0010
,
0000
0001
0000
1000
0000
0010
1000
0002
,
0000
0000
0003
1000
0000
0100
0000
0020
,
0000
0000
0030
0001
0000
0100
0000
0020
,
0000
0000
0000
0030
0000
0100
0010
1000
,
0001
0100
0001
0100
,
0001
0000
0000
0010
0000
0100
0000
2000
,
0000
0000
3000
0001
0000
1000
0000
0020
,
0000
0000
0030
0100
,
2001
0000
0000
3001
,
1000
0000
0010
1000
0000
0001
0100
0001
,
1000
0000
0100
0010
0000
0001
1000
0001
,
0100
0000
0010
1000
0000
0001
0010
0100
,
1000
0100
0001
0010
,
1000
0000
0001
0200
0000
0302
0000
2003
,
0000
3000
0100
0020
0000
0032
0000
2003
,
0000
3020
0000
2030
0000
3000
0001
0100
,
0001
0000
1000
0000
0001
0010
0100
0000
,
1100
0000
0000
0000
1000
0000
0000
0001
0100
0000
0001
0000
1000
0100
0010
0001
,
1000
0000
0000
0010
0100
0000
0010
0000
1000
0000
0001
0000
0010
0001
1000
0010
,
0100
0000
0001
0000
1000
0000
0001
0000
0010
0000
0100
0000
0010
0001
1000
0001
,
0200
0000
0300
0001
0010
0100
1000
0000
,
1001
0000
1000
0000
0001
0000
0100
0000
0001
0000
0010
0000
0100
0010
0001
1000
,
0010
0000
1000
0000
0001
0000
0010
0000
1000
0000
0010
0000
0001
0010
0100
1000
,
0001
0000
0100
0000
1000
0000
0100
0000
0001
0000
0010
0100
1000
0000
0001
0000
,
2000
0000
3000
0100
0010
0001
0011
0000
,
1001
1000
0010
0200
0000
0302
0003
0001
,
2000
0000
3100
2000
0000
3010
0100
0001
,
0002
0000
0013
0200
0000
0301
0100
1000
,
0010
0000
1000
0000
0001
0010
0011
0000
,
1001
1000
0010
1000
0001
0010
0200
0000
,
0301
0100
1000
0001
0100
0001
0020
0000
,
0230
0001
0320
1000
,
0031
2000
0100
3001
,
1001
0000
1000
0010
0000
0100
0001
0010
,
0100
0000
0000
0000
1000
0000
0001
0000
0000
0000
0010
0000
0001
0000
0100
0020
,
0000
0000
0030
0000
0100
0000
0010
0000
1000
0000
0001
0000
0010
0000
0100
2000
,
0000
0000
3000
0000
0010
0000
1000
0000
0000
0000
0100
0000
1000
0000
0001
0020
,
0000
0030
0001
0100
1000
0100
0010
0100
,
0001
0000
1000
0100
0001
0100
0010
0100
,
1000
0000
0001
0010
0100
0000
0010
0000
,
0001
0000
1000
0000
0010
1000
0002
0000
,
0020
0003
0000
0000
,
0000
0000
0000
0000
,
0030
0000
0000
0000
;

//---------------dance-single - ----------------
#NOTES:
     dance-single:
     X-Scale 5:
     Easy:
     3:
     0.197010,0.283552,0.039178,0.117535,0.000000,176.000000,171.000000,5.000000,15.000000,0.000000,0.000000,0.197010,0.283552,0.039178,0.117535,0.000000,176.000000,171.000000,5.000000,15.000000,0.000000,0.000000:
0000
0000
0000
0000
,
0000
0000
0000
0000
,
0000
0000
0000
0000
,
0000
0000
0000
0000
,
1000
0000
0000
0010
0000
0000
1000
0000
,
0000
0001
0000
0000
0010
0000
0100
0000
,
1000
0000
0000
0001
0000
0000
0100
0000
,
0002
2000
0000
3003
,
1001
0000
1000
0000
,
0010
0000
0100
0000
,
0001
0000
0010
0000
,
0100
1000
0100
0000
,
1000
0000
0001
0000
,
0100
0000
0001
0000
,
1000
0000
0100
0000
,
0020
0000
0000
0030
,
1001
0001
1000
0100
,
1000
0001
0010
0100
,
0010
0001
1000
0100
,
1000
0001
0100
0010
,
1000
0100
0010
0100
,
1000
0001
0100
0001
,
1000
0100
0010
0001
,
0100
0010
0100
0000
,
1001
0000
1000
0000
0010
1000
0001
0000
,
0010
0000
0100
0000
1000
0100
0010
0000
,
0001
0000
0100
0000
0001
0010
0100
0000
,
1100
0000
0000
0000
0000
0000
0001
1000
,
0001
0000
0010
0100
1000
0001
0100
0001
,
1000
0000
0100
0010
0001
1000
0001
0100
,
0010
0000
1000
0001
0100
0010
0100
0001
,
0020
0000
0200
0330
,
1000
0000
0000
0002
0000
0203
0000
0302
,
0000
0003
0000
0020
0000
0130
0010
0002
,
0000
0003
0000
2000
0000
3010
1000
0002
,
0100
0003
0001
0000
1000
0000
0001
0000
,
0100
0000
0010
0000
1000
0100
0010
0000
,
0001
0000
1000
0000
0001
1000
0010
0000
,
0100
0010
1000
0001
,
2000
0100
0010
3001
,
1001
0000
0001
0000
1000
0000
0100
1000
,
0001
0000
0010
0000
0001
0000
0100
0001
,
1000
0000
0010
0000
0100
0000
0001
0010
,
0100
0010
0001
1000
,
0001
0000
0010
0100
0000
1000
0000
0001
,
0100
0000
0001
1000
0000
0100
0000
0010
,
0001
0000
1000
0010
1000
0000
0001
0000
,
0020
0100
0001
0230
,
0000
0300
0000
0000
;

//---------------dance-single - ----------------
#NOTES:
     dance-single:
     X-Scale 1:
     Beginner:
     1:
     0.086192,0.112833,0.023507,0.000000,0.000000,77.000000,74.000000,3.000000,0.000000,0.000000,0.000000,0.086192,0.112833,0.023507,0.000000,0.000000,77.000000,74.000000,3.000000,0.000000,0.000000,0.000000:
0000
0000
0000
0000
,
0000
0000
0000
0000
,
0000
0000
0000
0000
,
0000
0000
0000
0000
,
0001
0000
0000
0000
,
0010
0000
0000
0000
,
0100
0000
0000
0000
,
1000
0000
0000
0000
,
0001
0000
0100
0000
,
0010
0000
1000
0000
,
0100
0000
0010
0000
,
0001
0000
0000
0000
,
1000
0000
0001
0000
,
0100
0000
0001
0000
,
1000
0000
0010
0000
,
0100
0000
0000
0000
,
1001
0000
0001
0000
,
0100
0000
0001
0000
,
0010
0000
0100
0000
,
1000
0000
0001
0000
,
1000
0000
0010
0000
,
1000
0000
0001
0000
,
0010
0000
0100
0000
,
1000
0000
0000
0000
,
1001
0000
0001
0000
,
0100
0000
0001
0000
,
1000
0000
0010
0000
,
1000
0000
0000
0000
,
0001
0000
0010
0000
,
0100
0000
1000
0000
,
0010
0000
0100
0000
,
0001
0000
0000
0000
,
1000
0000
0000
0000
,
0100
0000
0000
0000
,
0010
0000
0000
0000
,
0001
0000
0000
0000
,
1000
0000
0001
0000
,
0100
0000
0001
0000
,
1000
0000
0010
0000
,
0100
0000
0000
0000
,
1001
0000
0001
0000
,
0010
0000
0100
0000
,
0010
0000
0001
0000
,
1000
0000
0001
0000
,
0010
0000
0100
0000
,
1000
0000
0001
0000
,
1000
0000
0010
0000
,
1000
0000
0000
0000
,
0001
0000
0000
0000
;
