#VERSION:0.83;
#TITLE:Embers feat. Jill Harris;
#SUBTITLE:;
#ARTIST:Dabin;
#TITLETRANSLIT:;
#SUBTITLETRANSLIT:;
#ARTISTTRANSLIT:;
#GENRE:Deep House;
#ORIGIN:;
#CREDIT:;
#BANNER:Embers feat. Jill Harris-bn.png;
#BACKGROUND:Embers feat. Jill Harris-bg.png;
#PREVIEWVID:;
#JACKET:Embers feat. Jill Harris-jacket.png;
#CDIMAGE:;
#DISCIMAGE:;
#LYRICSPATH:;
#CDTITLE:cdtitle.png;
#MUSIC:Embers feat. Jill Harris.ogg;
#OFFSET:-0.006000;
#SAMPLESTART:64.005997;
#SAMPLELENGTH:16.000000;
#SELECTABLE:YES;
#BPMS:0.000=120.000;
#STOPS:;
#DELAYS:;
#WARPS:;
#TIMESIGNATURES:0.000=4=4;
#TICKCOUNTS:0.000=4;
#COMBOS:0.000=1;
#SPEEDS:0.000=1.000=0.000=0;
#SCROLLS:0.000=1.000;
#FAKES:;
#LABELS:0.000=Song Start;
#BGCHANGES:;
#KEYSOUNDS:;
#ATTACKS:
;

//---------------dance-single - ----------------
#NOTEDATA:;
#CHARTNAME:X-Scale 10;
#STEPSTYPE:dance-single;
#DESCRIPTION:;
#CHARTSTYLE:;
#DIFFICULTY:Hard;
#METER:7;
#RADARVALUES:0.408545,0.459463,0.121495,0.532710,0.224299,306.000000,293.000000,13.000000,57.000000,0.000000,0.000000,0.000000,0.000000,0.000000,0.408545,0.459463,0.121495,0.532710,0.224299,306.000000,293.000000,13.000000,57.000000,0.000000,0.000000,0.000000,0.000000,0.000000;
#CREDIT:iamthek3n;
#NOTES:
// measure 0
0000
0000
0000
0000
,  // measure 1
0000
0000
0000
0000
,  // measure 2
0000
0000
0000
0000
,  // measure 3
0000
0000
0000
0000
,  // measure 4
1000
1010
0001
0011
,  // measure 5
0010
0000
0101
0000
0100
0010
0110
0000
,  // measure 6
1000
1010
0001
0011
,  // measure 7
0010
0100
1100
0000
1000
0001
1001
0000
,  // measure 8
2000
0000
3001
0100
0002
0000
0013
0000
,  // measure 9
0200
0000
0000
0000
1300
0000
0000
0000
0100
1000
0100
0010
0001
0010
0100
0010
,  // measure 10
0001
1000
0100
1000
0001
0000
0100
0001
,  // measure 11
0020
2030
3200
0302
,  // measure 12
2003
0000
3010
0200
0001
0300
0002
0000
,  // measure 13
0013
0000
0000
0000
0100
0000
0000
1000
0100
0010
0100
1000
0100
0010
0001
1000
,  // measure 14
0001
0000
0100
0001
1000
0000
0010
0000
,  // measure 15
1000
0000
0010
0000
1000
0001
0020
0000
,  // measure 16
0130
0010
0000
0000
0001
0000
0100
0001
0000
0000
0010
0000
0000
0100
0000
0000
,  // measure 17
1000
0000
0100
1000
0000
0001
0010
0000
0001
0000
1000
0000
0100
0000
1000
0000
,  // measure 18
0001
1000
0000
0000
0100
0000
1000
0001
0000
0010
0100
0000
0010
0000
0001
0000
,  // measure 19
0100
0000
0010
0100
0000
0001
0010
0000
0001
0000
1000
0000
0010
0000
1000
0000
,  // measure 20
0001
0010
0000
0000
0001
0000
1000
0010
0000
0100
0010
0000
0100
0000
0001
0000
,  // measure 21
0010
0000
0100
1000
0000
0001
0100
0000
0001
0000
1000
0000
0010
0000
1000
0000
,  // measure 22
0001
0100
0000
0000
0010
0000
1000
0100
0000
1000
0001
0000
0010
0000
0100
0000
,  // measure 23
2000
0000
3200
0000
0320
0000
0032
1000
,  // measure 24
2003
0000
3000
0200
0000
0300
0000
0000
0000
1000
0001
0000
0010
0000
0001
0000
,  // measure 25
0000
0000
0000
0000
0011
0000
0000
0000
0000
0010
0100
0000
2000
0000
0001
0000
,  // measure 26
3002
0000
0003
2000
0000
3000
0000
0000
0000
0010
0100
0000
0001
0000
0010
0000
,  // measure 27
0002
0000
0100
0000
2003
0000
0010
0010
,  // measure 28
3020
0000
0030
2000
0000
3000
0000
0000
0000
0100
0010
0000
0001
0000
0100
0000
,  // measure 29
0001
0000
0000
0000
0101
0000
0001
0000
0000
0010
0100
0000
2000
0000
0010
0000
,  // measure 30
3020
0000
0030
0200
0000
0300
0000
0000
0000
0010
0100
0000
0001
0000
1000
0000
,  // measure 31
0002
0023
0230
2300
,  // measure 32
3010
0000
0000
1000
0010
0000
1000
0000
0001
0000
0100
0000
1000
0000
0100
0000
,  // measure 33
0001
0000
0000
1000
0010
0000
1000
0000
0001
0010
0000
0000
0002
0000
0000
0000
,  // measure 34
1003
0000
0000
0010
0100
0000
0010
0000
1000
0000
0100
0000
0001
0000
0100
0000
,  // measure 35
1000
0000
0000
0010
0100
0000
0001
0000
0010
0001
0000
0000
2000
0000
0000
0000
,  // measure 36
3010
0000
0000
1000
0001
0000
0010
0000
1000
0000
0010
0000
0100
0000
0010
0000
,  // measure 37
0001
0000
0000
0100
0010
0000
0100
0000
0001
0010
0000
0000
0200
0000
0000
0000
,  // measure 38
1300
0000
0000
0010
0100
0000
0010
0000
0001
0000
0010
0000
1000
0000
0001
0000
,  // measure 39
2000
3200
0320
0032
,  // measure 40
0100
0000
2003
0000
3100
1000
0002
0000
,  // measure 41
0103
0000
0020
0000
1030
0010
0001
0100
,  // measure 42
1000
0000
0200
0000
0310
0100
2000
0000
,  // measure 43
3010
0000
0200
0000
0301
0100
0010
0100
,  // measure 44
1001
0000
2000
0000
3100
1000
0020
0000
,  // measure 45
0130
0000
0000
0000
0002
0000
0000
0000
0013
0000
0001
0000
1000
0001
1000
0000
,  // measure 46
0100
0020
0031
0200
,  // measure 47
0320
0032
0023
2030
,  // measure 48
3010
1000
0001
1001
1000
0100
1020
0000
,  // measure 49
0000
0001
0100
2000
,  // measure 50
0000
0000
0000
0000
0000
0000
0000
3000
,  // measure 51
0200
0000
0300
0200
0300
0000
0030
0000
;

//---------------dance-single - ----------------
#NOTEDATA:;
#CHARTNAME:X-Scale 7;
#STEPSTYPE:dance-single;
#DESCRIPTION:;
#CHARTSTYLE:;
#DIFFICULTY:Medium;
#METER:5;
#RADARVALUES:0.303071,0.338551,0.046729,0.485981,0.046729,227.000000,222.000000,5.000000,52.000000,0.000000,0.000000,0.000000,0.000000,0.000000,0.303071,0.338551,0.046729,0.485981,0.046729,227.000000,222.000000,5.000000,52.000000,0.000000,0.000000,0.000000,0.000000,0.000000;
#CREDIT:iamthek3n;
#NOTES:
// measure 0
0000
0000
0000
0000
,  // measure 1
0000
0000
0000
0000
,  // measure 2
0000
0000
0000
0000
,  // measure 3
0000
0000
0000
0000
,  // measure 4
1000
0002
0013
0200
,  // measure 5
1300
0000
0020
0000
1030
0010
2000
0000
,  // measure 6
3001
0000
0010
0001
0010
0000
0100
0000
,  // measure 7
1000
0100
1000
0000
0001
0000
0100
0000
,  // measure 8
2001
0000
0000
3200
0000
0000
0320
0000
,  // measure 9
1000
0031
0010
0100
,  // measure 10
1000
0010
0001
0010
2000
0000
3100
0010
,  // measure 11
0002
0023
2030
3200
,  // measure 12
0302
0000
0000
2003
0000
0000
3020
0000
,  // measure 13
0001
0130
0010
1000
,  // measure 14
0001
0100
0010
0100
0001
0000
1000
0000
,  // measure 15
0001
0000
1000
0000
0001
0010
0200
0000
,  // measure 16
2300
0000
0100
0000
0010
0000
3001
1000
,  // measure 17
0200
0320
0032
0203
,  // measure 18
1000
0000
0310
0100
0001
0000
1000
0100
,  // measure 19
0020
0000
0230
0000
2300
0000
3010
1000
,  // measure 20
0002
0010
0103
0002
,  // measure 21
0203
2300
3020
0032
,  // measure 22
0100
0000
1003
0000
0001
0000
0100
0010
,  // measure 23
2000
3200
0320
0032
,  // measure 24
0000
0000
0010
0000
0003
0001
1000
0001
,  // measure 25
0000
0000
0100
0000
0000
0010
2000
0000
,  // measure 26
3100
0000
0000
1000
0000
0000
0000
0000
0000
0000
0001
0000
0100
0000
0001
0000
,  // measure 27
2000
0100
3002
0010
,  // measure 28
0103
0000
0000
0001
0000
0000
0000
0000
0000
0000
1000
0000
0010
0000
1000
0000
,  // measure 29
0001
0000
0101
0000
0000
0100
0002
0000
,  // measure 30
1003
0000
0000
0001
0000
0000
0000
0000
0000
0000
0010
0000
0100
0000
1000
0000
,  // measure 31
0020
0032
0203
2300
,  // measure 32
3001
0000
1000
0000
0010
1000
0001
1000
,  // measure 33
0010
0000
0100
0000
1000
0100
0010
0100
,  // measure 34
0001
0000
1000
0000
0010
1000
0001
1000
,  // measure 35
0010
0000
0100
0000
0001
0010
1000
0010
,  // measure 36
0001
0000
0100
0000
0010
1000
0100
1000
,  // measure 37
0010
0000
1000
0000
0100
0010
0001
0010
,  // measure 38
0100
0000
0010
0000
1000
0010
0100
0010
,  // measure 39
0002
2003
3020
0230
,  // measure 40
0301
0000
0000
0100
0000
0000
0001
0000
0000
0000
1000
0000
0010
0000
1000
0000
,  // measure 41
0001
0000
0000
0010
0000
0000
0100
0000
0000
0000
1000
0000
0100
0000
1000
0000
,  // measure 42
0001
0000
0000
0100
0000
0000
0001
0000
0000
0000
1000
0000
0010
0000
1000
0000
,  // measure 43
0001
0000
0000
0010
0000
0000
0001
0000
0000
0000
0100
0000
0010
0000
0100
0000
,  // measure 44
1010
0000
0000
1000
0000
0000
0100
0000
0000
0000
0010
0000
0001
0000
1000
0000
,  // measure 45
0010
0000
0000
1000
0000
0000
0001
0000
0000
0000
0100
0000
0010
0000
0100
0000
,  // measure 46
0001
0000
0000
0010
0000
0000
0100
0000
0000
0000
1000
0000
0010
0000
1000
0000
,  // measure 47
0002
0203
0320
2030
,  // measure 48
3100
0000
0000
1001
0000
0000
0201
0000
,  // measure 49
0000
0000
0002
0000
,  // measure 50
0000
0000
0000
0000
,  // measure 51
0000
0000
0000
0303
;

//---------------dance-single - ----------------
#NOTEDATA:;
#CHARTNAME:X-Scale 5;
#STEPSTYPE:dance-single;
#DESCRIPTION:;
#CHARTSTYLE:;
#DIFFICULTY:Easy;
#METER:3;
#RADARVALUES:0.220294,0.273364,0.028037,0.224299,0.000000,165.000000,162.000000,3.000000,24.000000,0.000000,0.000000,0.000000,0.000000,0.000000,0.220294,0.273364,0.028037,0.224299,0.000000,165.000000,162.000000,3.000000,24.000000,0.000000,0.000000,0.000000,0.000000,0.000000;
#CREDIT:iamthek3n;
#NOTES:
// measure 0
0000
0000
0000
0000
,  // measure 1
0000
0000
0000
0000
,  // measure 2
0000
0000
0000
0000
,  // measure 3
0000
0000
0000
0000
,  // measure 4
1000
0010
0100
0010
,  // measure 5
1000
0010
0100
0010
,  // measure 6
1000
0001
0010
0001
,  // measure 7
1000
0001
0010
0001
,  // measure 8
1001
0000
1000
0010
,  // measure 9
1000
0000
0100
0010
,  // measure 10
0001
0000
1000
0000
,  // measure 11
0010
1000
0100
1000
,  // measure 12
0010
0000
0100
0001
,  // measure 13
0100
0000
0001
0100
,  // measure 14
0001
0000
1000
0000
,  // measure 15
0010
0000
0100
0000
,  // measure 16
0002
0100
0000
0100
,  // measure 17
0103
0001
1000
0001
,  // measure 18
0200
0010
0000
0010
,  // measure 19
0310
0100
0002
0000
,  // measure 20
2003
0010
0000
0010
,  // measure 21
3010
1000
0001
0010
,  // measure 22
0002
0100
0000
0100
,  // measure 23
0103
0010
1000
0001
,  // measure 24
0000
1000
0000
0010
,  // measure 25
0000
1000
0000
0100
,  // measure 26
0000
1000
0000
0010
,  // measure 27
0000
1000
0000
0001
,  // measure 28
0100
0001
0000
0010
,  // measure 29
0000
0100
0000
1000
,  // measure 30
0100
1000
0000
0001
,  // measure 31
0000
0100
0000
0000
,  // measure 32
1001
0000
0100
0000
1000
0000
0001
0100
,  // measure 33
0001
0000
0010
0000
0100
1000
0100
0000
,  // measure 34
0010
0000
0001
0000
1000
0000
0001
0100
,  // measure 35
0001
0000
0010
0000
0100
1000
0100
0000
,  // measure 36
0010
0000
0001
0000
1000
0000
0010
0100
,  // measure 37
0010
0000
1000
0000
0100
0010
0100
0000
,  // measure 38
1000
0000
0001
0000
0100
0000
0001
0100
,  // measure 39
0002
0023
0230
2300
,  // measure 40
0001
3020
0001
0230
,  // measure 41
1000
0000
0320
0000
0001
0000
0130
0010
,  // measure 42
2000
0001
3100
0020
,  // measure 43
0031
0000
2000
0000
3001
0000
0100
0001
,  // measure 44
0101
0002
1003
0200
,  // measure 45
1300
0000
0020
0000
1030
0000
0100
0010
,  // measure 46
0002
0010
1003
0200
,  // measure 47
2300
3002
0203
0302
,  // measure 48
1003
0001
0100
0000
0010
0100
0001
0000
;

//---------------dance-single - ----------------
#NOTEDATA:;
#CHARTNAME:X-Scale 1;
#STEPSTYPE:dance-single;
#DESCRIPTION:;
#CHARTSTYLE:;
#DIFFICULTY:Beginner;
#METER:1;
#RADARVALUES:0.102804,0.136682,0.028037,0.000000,0.000000,77.000000,74.000000,3.000000,0.000000,0.000000,0.000000,0.000000,0.000000,0.000000,0.102804,0.136682,0.028037,0.000000,0.000000,77.000000,74.000000,3.000000,0.000000,0.000000,0.000000,0.000000,0.000000,0.000000;
#CREDIT:iamthek3n;
#NOTES:
// measure 0
0000
0000
0000
0000
,  // measure 1
0000
0000
0000
0000
,  // measure 2
0000
0000
0000
0000
,  // measure 3
0000
0000
0000
0000
,  // measure 4
0001
0000
1000
0000
,  // measure 5
0001
0000
1000
0000
,  // measure 6
0100
0000
0010
0000
,  // measure 7
0100
0000
0010
0000
,  // measure 8
0001
0000
0000
0000
,  // measure 9
1000
0000
0010
0000
,  // measure 10
1000
0000
0000
0000
,  // measure 11
0100
0000
0010
0000
,  // measure 12
0001
0000
0000
0000
,  // measure 13
1000
0000
0001
0000
,  // measure 14
1000
0000
0000
0000
,  // measure 15
0010
0000
0100
0000
,  // measure 16
0001
0000
0000
0000
,  // measure 17
0010
0000
0100
0000
,  // measure 18
1000
0000
0000
0000
,  // measure 19
0001
0000
0100
0000
,  // measure 20
0001
0000
0000
0000
,  // measure 21
1000
0000
0010
0000
,  // measure 22
1000
0000
0000
0000
,  // measure 23
0001
0000
0010
0000
,  // measure 24
0100
0000
0000
0000
,  // measure 25
1000
0000
0000
0000
,  // measure 26
0001
0000
0000
0000
,  // measure 27
1000
0000
0000
0000
,  // measure 28
0100
0000
0000
0000
,  // measure 29
0010
0000
0000
0000
,  // measure 30
0001
0000
0000
0000
,  // measure 31
1000
0000
0000
0000
,  // measure 32
1001
0000
0001
0000
,  // measure 33
0100
0000
0001
0000
,  // measure 34
1000
0000
0100
0000
,  // measure 35
1000
0000
0010
0000
,  // measure 36
0100
0000
0010
0000
,  // measure 37
1000
0000
0001
0000
,  // measure 38
0010
0000
0100
0000
,  // measure 39
0010
0000
0001
0000
,  // measure 40
1000
0000
0001
0000
,  // measure 41
0100
0000
0001
0000
,  // measure 42
1000
0000
0100
0000
,  // measure 43
0010
0000
0100
0000
,  // measure 44
1000
0000
0001
0000
,  // measure 45
0010
0000
0001
0000
,  // measure 46
1000
0000
0010
0000
,  // measure 47
0100
0000
0001
0000
,  // measure 48
1001
0000
0000
0110
;
