#TITLE:Art of Love;
#SUBTITLE:;
#ARTIST:Guy Sebastian ft. Jordin Sparks;
#TITLETRANSLIT:;
#SUBTITLETRANSLIT:;
#ARTISTTRANSLIT:;
#GENRE:Pop-R&B;
#CREDIT:;
#BANNER:art of love-bn.png;
#BACKGROUND:art of love-bg.png;
#LYRICSPATH:;
#CDTITLE:cdtitle.png;
#MUSIC:art of love.ogg;
#OFFSET:-0.017000;
#SAMPLESTART:55.669998;
#SAMPLELENGTH:26.000000;
#SELECTABLE:YES;
#BPMS:0.000000=138.000000
;
#STOPS:
;
#BGCHANGES:0.000=art of love.avi=1.000=1=0=0=StretchNoLoop==CrossFade==,
99999=-nosongbg-=1.000=0=0=0 // don't automatically add -songbackground-
;
#KEYSOUNDS:;
#ATTACKS:;

//---------------dance-single - ----------------
#NOTES:
     dance-single:
     X-Scale 11:
     Hard:
     8:
     0.478513,0.503462,0.272879,0.470717,0.020466,491.000000,451.000000,40.000000,69.000000,0.000000,0.000000,0.478513,0.503462,0.272879,0.470717,0.020466,491.000000,451.000000,40.000000,69.000000,0.000000,0.000000:
0000
0000
0000
0000
,
0000
0000
0000
0000
,
0000
0000
0000
0000
,
0000
0000
0000
0000
,
1000
0100
0010
0001
0000
0100
0010
0110
,
0000
0000
1000
1000
0000
0001
0001
0000
,
1000
0100
0010
0001
0000
0001
0100
0101
,
0000
0000
1000
0001
1000
0000
0010
0100
,
0110
0010
0100
0001
2000
0000
3100
0001
,
0100
0020
0001
0000
0002
0000
0030
0000
,
0103
0001
0010
0001
2000
0000
3001
0100
,
0010
0100
0100
0000
0001
0100
0010
1000
,
0000
0010
0100
0020
0000
0000
1030
0010
,
0100
0001
0001
0000
1000
0100
0001
1000
,
0010
0001
0100
0020
0000
0030
1000
0001
,
0010
0001
0001
0010
0100
0000
0020
0000
,
0130
0010
0001
1000
0000
0100
0000
1000
,
0001
0200
1000
0000
0002
0000
0000
0300
,
1003
0000
0001
0010
1000
0010
0100
1000
,
0001
0100
0100
0000
0001
0100
0010
1000
,
0100
0010
0001
0200
0000
0310
0100
0001
,
1000
0001
0001
0000
1000
0010
0001
0010
,
0100
0010
1000
0020
0000
0130
0010
1000
,
0001
1000
1000
0100
0010
0100
1000
0020
,
0030
2000
3000
0020
0030
2000
3100
0020
,
0030
0200
0300
0020
0030
0200
1300
0200
,
0001
0000
0310
0002
0000
2003
0000
3020
,
0000
2030
3010
0000
1000
0100
0010
0002
,
0000
2003
0000
3002
0000
2003
0000
3020
,
0000
0100
0130
0020
0030
2000
3000
0002
,
1000
0000
0010
0000
1000
0000
0000
0100
,
0000
1000
1000
0000
0023
0000
0000
0030
,
0110
0000
1001
0000
0110
0100
0010
1000
,
0000
0001
0001
0000
1001
0000
0100
0000
,
1010
0000
0011
0000
1010
1000
0100
0020
,
0000
0032
1000
2003
0100
0000
3100
1000
,
0001
0010
1000
0001
0100
1000
0001
1000
,
0000
0100
0100
0000
0010
0000
0100
0010
,
0001
0000
1000
0001
1001
1000
0100
0010
,
0000
0001
1000
0001
1001
0000
0110
0000
,
1001
1000
0001
0010
0200
0000
1300
0200
,
0300
0010
0100
1000
0002
0000
0013
0200
,
0310
0100
1000
0001
0200
0000
0301
2000
,
3000
0200
0300
2000
3000
0002
0000
0000
,
0103
0000
0011
0000
1001
1000
0100
2000
,
3000
0002
0013
0020
0130
0200
0300
2000
,
0001
0000
0010
0000
3001
1000
0100
0010
,
0000
0001
0001
0000
1001
0000
0110
0000
,
2001
0000
0100
0000
3001
0000
0010
0100
,
1000
0000
0100
0010
0000
0000
0100
0000
1000
0000
0001
0000
0100
0000
0001
0000
,
2000
0000
0100
0000
0001
0000
3100
0010
,
0001
0000
0100
0001
0000
0000
1000
0000
0010
0000
0000
1000
0001
0000
0000
0010
,
0200
0000
0001
0000
0010
0000
1300
0100
,
0010
0000
0001
0010
0000
0000
0001
0000
1000
0000
0010
0000
0001
0000
0010
0000
,
2100
0000
0001
0000
0010
0000
0100
0100
,
3000
0000
1000
0000
1000
0000
0000
0000
1100
0000
0000
0100
0010
0000
0100
0000
,
1100
0000
1000
0001
1000
0000
0100
0010
,
0000
0010
0001
1000
0001
0010
0000
0100
,
0110
0000
0010
0000
0001
0010
0100
2000
,
3000
0002
0003
2000
3100
1000
0100
0000
,
1100
0000
0100
0000
0010
0001
1000
0001
,
0000
0010
0010
0000
0110
0000
0100
0000
,
1010
0000
1000
0001
0010
0100
1000
0010
,
0000
0010
0001
0000
0011
0000
0001
1000
,
1010
0010
1000
0001
0000
0010
0001
1000
,
0000
0010
1000
0100
2000
0000
3001
0010
,
0011
0001
1000
0010
2000
0000
3100
0010
,
0000
0010
0001
0000
0011
0000
0000
1000
,
0001
0000
0100
0001
1000
0000
0010
0100
,
0000
0001
0001
0010
0100
2000
0000
3000
,
1001
0000
0110
0000
1001
1000
0001
0100
,
0000
0100
1000
0010
1000
0000
0100
0010
,
0011
0000
1001
0000
1010
1000
0001
0100
,
0000
0100
0001
0000
0101
0000
0001
1000
,
0100
0000
2000
0000
3002
0000
0023
0100
,
0030
0100
0100
0000
1010
0000
1000
0001
,
0100
0000
0002
0000
0023
0000
0230
1000
,
0300
1000
1000
0000
1100
0000
1000
0001
,
0100
0000
0020
0000
0230
0000
0302
1000
,
0003
1000
1000
0000
1001
0000
1000
0010
,
1000
0000
0001
0100
0001
0000
0100
0010
,
0100
0000
0001
0010
0100
1000
0010
0100
,
0001
0000
0000
0000
;

//---------------dance-single - ----------------
#NOTES:
     dance-single:
     X-Scale 9:
     Medium:
     6:
     0.426861,0.475492,0.368387,0.525292,0.006822,438.000000,384.000000,54.000000,77.000000,0.000000,0.000000,0.426861,0.475492,0.368387,0.525292,0.006822,438.000000,384.000000,54.000000,77.000000,0.000000,0.000000:
0000
0000
0000
0000
,
0000
0000
0000
0000
,
0000
0000
0000
0000
,
0000
0000
0000
0000
,
0011
0000
0000
0010
0000
0001
0100
0002
,
0000
0000
1003
1000
0000
0100
0100
0000
,
1100
0000
0000
1000
0000
0001
0100
0002
,
0000
0000
0013
0010
0000
0000
0100
0100
,
1000
0000
0010
2000
0000
3002
0000
0023
,
0000
0130
0100
0000
0110
0000
0000
0000
,
0101
0000
0001
1000
0001
0000
0010
0100
,
0000
0100
1000
0000
1010
0000
0000
0000
,
1001
0000
0001
0200
0000
0302
0000
2003
,
0000
3010
0010
0000
1010
0000
0000
0000
,
0101
0000
0001
1000
0100
0000
1000
0010
,
0000
0100
0100
0000
0110
0000
0001
0000
,
0101
0000
0100
0002
0000
2003
0000
3020
,
0000
1030
1000
0000
1100
0000
0000
0000
,
0011
0000
0001
0010
0100
0000
0010
0001
,
0000
0001
1000
0000
1001
0000
0000
0000
,
0110
0000
0010
0200
0000
0302
0000
0023
,
0000
0130
0100
0000
1010
0000
0000
0000
,
0011
0000
0010
0001
1000
0000
0010
1000
,
0000
1000
0100
0000
0110
0010
0001
2000
,
0000
3002
0000
0003
0000
0100
0001
0020
,
0000
0230
0000
0300
0000
1000
0010
2000
,
0000
0000
3100
0020
0000
0032
0000
2003
,
0000
3002
0000
0003
0010
0100
1000
0002
,
0000
2003
0000
3000
1001
0000
0000
0002
,
0000
0000
0013
0200
0000
2300
0000
3002
,
0010
0000
0000
0000
0000
0000
0103
0000
0200
0000
0301
0000
0001
0100
0001
0200
,
0000
0001
0001
0000
0300
0000
0000
0001
,
0011
0000
1001
0000
1010
1000
0001
2000
,
0000
3200
0000
0320
0000
0030
0000
0000
,
0011
0000
1001
0000
1010
0010
1000
0002
,
0000
0203
0000
0320
0000
0000
1030
0010
,
1000
0000
0100
0010
0001
1000
0001
0200
,
0000
0302
0000
0003
0101
0000
0001
1000
,
0010
0000
1000
0100
0001
0100
0010
0001
,
0000
1000
0001
1000
0010
0100
0010
0000
,
1001
1000
0010
1000
0002
0000
0013
0100
,
0000
0100
1000
0000
1100
0000
0001
0100
,
0001
0010
1000
0010
0002
0000
0103
0001
,
0000
0001
1000
0000
0010
1000
0001
1000
,
1010
0000
1001
0000
0011
0010
0001
2000
,
0000
3020
0000
0032
0000
0023
0000
2030
,
0001
0000
0010
0000
3001
1000
0100
0010
,
0000
0010
0001
0000
0011
0000
0001
0000
,
1001
0000
1000
0000
0010
1000
0001
0100
,
0000
0100
0001
0000
1000
0000
0010
1000
,
0001
0000
0100
0000
0001
0010
0100
1000
,
0000
1000
0001
0000
0010
0000
0100
0010
,
0001
0000
1000
0000
0010
0100
0001
0010
,
0000
0010
0100
0000
1000
0000
0010
1000
,
0002
0000
0010
0000
1000
0000
0000
0100
,
0003
0100
0001
0000
0101
0000
0001
0000
,
1001
0000
1000
0100
2000
0000
0000
0010
,
0000
0001
3001
1000
0010
0100
0000
0001
,
0102
0000
0203
0000
0310
1000
0100
2000
,
0000
3002
0000
0203
0010
0300
0000
0000
,
1001
0000
1100
0000
0101
0001
0100
0002
,
0000
0023
0000
0230
0001
0000
1300
0100
,
1000
0000
0001
0010
1000
0010
0100
2000
,
0000
3002
0000
0003
1001
0000
1000
0010
,
1010
0000
0101
0000
0011
0010
0100
1000
,
0000
1000
0001
0100
0001
0010
0100
0000
,
1100
0000
1000
0001
0100
0000
0001
0010
,
0000
0010
0100
0000
0110
0000
0010
0000
,
0001
0000
0100
0001
1000
0000
0010
2000
,
0000
3002
0000
0023
0000
0032
0000
0003
,
0101
0000
0110
0000
1001
0001
1000
0200
,
0000
0302
0000
0203
0000
0320
0000
0032
,
1000
0000
0010
0000
0103
0001
0010
0200
,
0000
1000
1300
0000
1100
0000
1000
0001
,
0100
0002
0023
0230
,
0300
1000
0100
0000
1100
0000
1000
0000
,
1001
0002
0023
0230
,
0300
0010
0001
0000
0101
0000
0001
0000
,
1001
2000
3200
0320
,
0030
0001
0100
0000
0101
0000
0001
0000
,
1001
0000
1000
0100
0010
0000
0001
0010
,
0100
0000
1000
0100
0010
0000
0001
0100
,
0001
0000
0000
0000
;

//---------------dance-single - ----------------
#NOTES:
     dance-single:
     X-Scale 6:
     Easy:
     4:
     0.309913,0.391582,0.115974,0.375209,0.000000,318.000000,301.000000,17.000000,55.000000,0.000000,0.000000,0.309913,0.391582,0.115974,0.375209,0.000000,318.000000,301.000000,17.000000,55.000000,0.000000,0.000000:
// measure 0
0000
0000
0000
0000
,  // measure 1
0000
0000
0000
0000
,  // measure 2
0000
0000
0000
0000
,  // measure 3
0000
0000
0000
0000
,  // measure 4
1000
0000
0000
0000
0000
0000
0000
0001
,  // measure 5
0000
0000
0000
0000
,  // measure 6
0010
0000
0000
0000
0000
0000
0000
0100
,  // measure 7
0000
0000
0000
0000
,  // measure 8
1000
0000
0001
0000
1000
0000
0000
0100
,  // measure 9
0000
1000
0002
0000
,  // measure 10
0013
0000
0001
0000
0010
0000
0000
0100
,  // measure 11
0000
1000
0200
0000
,  // measure 12
0310
0000
0100
0000
1000
0000
0000
0001
,  // measure 13
0000
0100
0020
0000
,  // measure 14
1030
0000
0001
0000
0010
0000
0000
0001
,  // measure 15
0000
1000
0200
0000
,  // measure 16
1300
0100
1000
0002
0000
0020
0000
0000
,  // measure 17
0033
0001
1000
0000
2001
0000
0000
0000
,  // measure 18
3010
1000
0001
0200
0000
0002
0000
0000
,  // measure 19
0303
0001
0100
0000
0102
0000
0000
0000
,  // measure 20
0013
0100
1000
0020
0000
2000
0000
0000
,  // measure 21
3030
1000
0001
0000
0021
0000
0000
0000
,  // measure 22
0130
1000
0001
0200
0000
0002
0000
0000
,  // measure 23
0303
0001
1000
0000
2001
0000
0000
0000
,  // measure 24
3100
0000
0100
1000
0000
0001
0000
0100
,  // measure 25
0000
0100
0001
0010
0000
0001
1000
0000
,  // measure 26
0010
0000
0100
1000
0000
0001
0000
0100
,  // measure 27
0000
0001
0010
0000
0001
0000
0000
1000
,  // measure 28
0000
0010
0000
1000
0000
0010
0000
0200
,  // measure 29
0000
0000
0301
1000
0000
0100
0000
2000
,  // measure 30
0001
0000
0010
0000
0001
0000
0000
0010
,  // measure 31
0000
0010
0020
0000
3000
0000
0000
0030
,  // measure 32
0110
0000
0100
0000
0001
0000
0000
1000
,  // measure 33
0000
1000
0010
0000
1000
0000
0001
0000
,  // measure 34
0100
0000
0001
0000
0010
0000
0000
0100
,  // measure 35
0000
0100
1000
0000
0002
0000
0010
0000
,  // measure 36
1003
0000
0100
0000
0010
0000
0000
0001
,  // measure 37
0000
0001
1000
0000
0010
0000
1000
0200
,  // measure 38
0010
0000
1000
0000
0310
0100
1000
0001
,  // measure 39
0000
0001
0100
0000
0101
0000
0001
0000
,  // measure 40
1001
0000
1000
0010
1000
0000
0001
0010
,  // measure 41
0000
0010
0100
0000
0010
0000
0001
0000
,  // measure 42
1000
0000
0010
1000
0010
0000
0100
0001
,  // measure 43
0000
0001
1000
0000
0100
0000
1000
0000
,  // measure 44
0010
0000
0100
0000
0001
0000
0000
0010
,  // measure 45
0000
0001
0000
1000
0000
0001
0000
0200
,  // measure 46
0010
0000
0001
0000
0310
0100
0001
0010
,  // measure 47
0000
0010
0100
0000
1000
0000
0001
0000
,  // measure 48
1002
0010
1000
0013
,  // measure 49
0100
1000
0010
1000
,  // measure 50
0200
0010
1000
0010
,  // measure 51
1000
0310
0110
0001
,  // measure 52
0200
0010
0001
0310
,  // measure 53
0100
0001
1000
0100
,  // measure 54
2000
0000
0002
0003
,  // measure 55
3020
0030
2000
3000
,  // measure 56
0001
1000
0010
1000
,  // measure 57
0001
0000
0100
0001
0100
0001
0000
0000
,  // measure 58
1001
0000
0000
0000
,  // measure 59
0000
0000
0110
0000
,  // measure 60
1001
0000
1000
0000
0100
0000
1000
0001
,  // measure 61
0000
0001
0100
0000
0101
0000
0001
0000
,  // measure 62
0010
0000
0100
0000
0010
0000
0001
1000
,  // measure 63
0000
1000
0010
0000
1010
0000
1000
0000
,  // measure 64
0001
0010
0100
2000
0000
3100
0010
0002
,  // measure 65
0000
0013
0100
2000
0000
0000
0010
0000
,  // measure 66
3001
0000
1000
0000
0010
0000
1000
0100
,  // measure 67
0000
0100
0010
0000
0002
0000
0000
0013
,  // measure 68
0100
0000
0010
0000
0001
0000
0000
2000
,  // measure 69
0000
3020
0000
0230
0000
0302
0000
0000
,  // measure 70
0013
0000
0100
0000
1000
0000
0000
0002
,  // measure 71
0000
0203
0000
0320
0000
0000
0130
0200
,  // measure 72
0000
0000
0000
0310
0100
0001
0010
0100
,  // measure 73
2000
0000
3000
0010
2000
0000
3001
0020
,  // measure 74
0000
0230
0320
0032
,  // measure 75
0003
0000
0000
0000
1001
0000
1000
0020
,  // measure 76
0000
0230
0302
0023
,  // measure 77
0030
0000
0000
0000
0011
0000
0010
0200
,  // measure 78
1000
0320
0032
2003
,  // measure 79
3000
0000
0000
0000
1001
0000
1000
0010
,  // measure 80
1000
0000
0001
0010
0100
0000
1000
0100
,  // measure 81
0010
0000
0001
1000
0010
0100
0010
1000
,  // measure 82
0001
0000
0000
0000
;

//---------------dance-single - ----------------
#NOTES:
     dance-single:
     X-Scale 1:
     Beginner:
     1:
     0.100381,0.139851,0.020466,0.000000,0.000000,103.000000,100.000000,3.000000,0.000000,0.000000,0.000000,0.100381,0.139851,0.020466,0.000000,0.000000,103.000000,100.000000,3.000000,0.000000,0.000000,0.000000:
// measure 0
0000
0000
0000
0000
,  // measure 1
0000
0000
0000
0000
,  // measure 2
0000
0000
0000
0000
,  // measure 3
0000
0000
0000
0000
,  // measure 4
0001
0000
0000
0000
,  // measure 5
0000
0000
0000
0000
,  // measure 6
1000
0000
0000
0000
,  // measure 7
0000
0000
0000
0000
,  // measure 8
0000
0000
1000
0000
,  // measure 9
0000
0000
0001
0000
,  // measure 10
0000
0000
0100
0000
,  // measure 11
0000
0000
0001
0000
,  // measure 12
0000
0000
1000
0000
,  // measure 13
0000
0000
0100
0000
,  // measure 14
0000
0000
1000
0000
,  // measure 15
0000
0000
0001
0000
,  // measure 16
0000
0000
0010
0000
,  // measure 17
0000
0000
0001
0000
,  // measure 18
0000
0000
0100
0000
,  // measure 19
0000
0000
0010
0000
,  // measure 20
0000
0000
1000
0000
,  // measure 21
0000
0000
0100
0000
,  // measure 22
0000
0000
0010
0000
,  // measure 23
0000
0000
0001
0000
,  // measure 24
0000
0000
0100
0000
,  // measure 25
0000
0000
0001
0000
,  // measure 26
0000
0000
1000
0000
,  // measure 27
0000
0000
0010
0000
,  // measure 28
0000
0000
0100
0000
,  // measure 29
0000
0000
0001
0000
,  // measure 30
0000
0000
0010
0000
,  // measure 31
0000
0000
0000
0000
,  // measure 32
1001
0000
1000
0000
,  // measure 33
0000
0000
0001
0000
,  // measure 34
0100
0000
0001
0000
,  // measure 35
0000
0000
0010
0000
,  // measure 36
0100
0000
0010
0000
,  // measure 37
0000
0000
0001
0000
,  // measure 38
1000
0000
0001
0000
,  // measure 39
0000
0000
1000
0000
,  // measure 40
0100
0000
1000
0000
,  // measure 41
0000
0000
0001
0000
,  // measure 42
0100
0000
0001
0000
,  // measure 43
0000
0000
0010
0000
,  // measure 44
0100
0000
0010
0000
,  // measure 45
0000
0000
0001
0000
,  // measure 46
1000
0000
0001
0000
,  // measure 47
0000
0000
1000
0000
,  // measure 48
0100
0000
1000
0000
,  // measure 49
0000
0000
0001
0000
,  // measure 50
0100
0000
0001
0000
,  // measure 51
0000
0000
0010
0000
,  // measure 52
0100
0000
0010
0000
,  // measure 53
0000
0000
0001
0000
,  // measure 54
1000
0000
0010
0000
,  // measure 55
1000
0000
0100
0000
,  // measure 56
0010
0000
0001
0000
,  // measure 57
0000
0000
0000
0000
,  // measure 58
1001
0000
0000
0000
,  // measure 59
0000
0000
0000
0000
,  // measure 60
0110
0000
0010
0000
,  // measure 61
0000
0000
1000
0000
,  // measure 62
0010
0000
1000
0000
,  // measure 63
0000
0000
0001
0000
,  // measure 64
0010
0000
0001
0000
,  // measure 65
0000
0000
0100
0000
,  // measure 66
0010
0000
0100
0000
,  // measure 67
0000
0000
0001
0000
,  // measure 68
1000
0000
0001
0000
,  // measure 69
0000
0000
0100
0000
,  // measure 70
0010
0000
0100
0000
,  // measure 71
0000
0000
0001
0000
,  // measure 72
1000
0000
0001
0000
,  // measure 73
0000
0000
1000
0000
,  // measure 74
0100
0000
1000
0000
,  // measure 75
0000
0000
0001
0000
,  // measure 76
0100
0000
0001
0000
,  // measure 77
0000
0000
0100
0000
,  // measure 78
0010
0000
0100
0000
,  // measure 79
0000
0000
0001
0000
,  // measure 80
0010
0000
0001
0000
,  // measure 81
1000
0000
0001
0000
,  // measure 82
0100
0000
0000
0000
;
