#TITLE:All That I Need;
#SUBTITLE:feat. Kayliana & MC Riddle;
#ARTIST:S3RL;
#TITLETRANSLIT:;
#SUBTITLETRANSLIT:;
#ARTISTTRANSLIT:;
#GENRE:Happy Hardcore;
#CREDIT:;
#BANNER:all that i need-bn.png;
#BACKGROUND:all that i need-bg.png;
#LYRICSPATH:;
#CDTITLE:cdtitle.png;
#MUSIC:all that i need.ogg;
#OFFSET:-0.003000;
#SAMPLESTART:60.002998;
#SAMPLELENGTH:10.971000;
#SELECTABLE:YES;
#DISPLAYBPM:87.500000:175.000000;
#BPMS:0.000000=175.000000
,75.000000=87.500000
,77.000000=175.000000
,125.000000=87.500000
,133.000000=175.000000
,161.000000=87.500000
,163.000000=175.000000
,223.000000=87.500000
,224.000000=350.000000
,224.500000=175.000000
,224.750000=87.500000
,225.000000=350.000000
,225.500000=175.000000
,225.750000=87.500000
,226.000000=175.000000
,286.000000=87.500000
;
#STOPS:
;
#BGCHANGES:0.000=all that i need.avi=1.000=1=0=0=StretchNoLoop==CrossFade==,
99999=-nosongbg-=1.000=0=0=0 // don't automatically add -songbackground-
;
#KEYSOUNDS:;
#ATTACKS:;

//---------------dance-single - ----------------
#NOTES:
     dance-single:
     X-Scale 10:
     Medium:
     7:
     0.479115,0.690266,0.109661,0.429506,0.041123,367.000000,355.000000,12.000000,47.000000,0.000000,0.000000,0.479115,0.690266,0.109661,0.429506,0.041123,367.000000,355.000000,12.000000,47.000000,0.000000,0.000000:
// measure 0
0000
0000
0000
0000
,  // measure 1
0000
0000
0000
0000
,  // measure 2
0000
0000
0000
0000
,  // measure 3
0000
0000
0000
1002
,  // measure 4
0000
2003
3200
0320
,  // measure 5
0130
1000
0010
1000
,  // measure 6
0001
0200
0300
0001
1000
0000
0100
0000
,  // measure 7
0010
0002
0000
0003
0010
0000
0200
0000
,  // measure 8
0010
2300
3002
0203
,  // measure 9
0310
0100
0001
0010
,  // measure 10
0100
0020
0030
0001
1000
0000
0010
0000
,  // measure 11
1000
0200
0000
0300
1000
0000
1200
0000
,  // measure 12
0001
2300
3200
0320
,  // measure 13
0031
0000
0100
0010
0100
0000
0001
0000
,  // measure 14
1000
0000
0001
0100
0001
0000
1000
0000
,  // measure 15
0100
0000
1000
0001
1000
0000
0002
0000
,  // measure 16
0010
2003
3020
0230
,  // measure 17
0301
0000
1000
0100
1000
0000
0001
0000
,  // measure 18
0100
0000
0010
0100
0010
0000
0000
0000
,  // measure 19
0000
1000
1001
0000
0001
0000
1000
0000
,  // measure 20
0010
1000
0100
1000
,  // measure 21
0010
0100
0001
0010
,  // measure 22
0100
1000
0010
0100
,  // measure 23
0001
0001
0100
0000
0101
0000
0001
0000
,  // measure 24
1000
0000
0010
0100
0010
0100
0010
0100
,  // measure 25
0010
0000
0000
0000
1000
0000
0000
0000
0001
0000
1000
0000
0000
0000
0000
1000
,  // measure 26
0000
0010
0000
0000
0010
0000
0000
0000
0100
0000
0001
0000
0000
0001
0000
0100
,  // measure 27
0000
0100
0001
0100
,  // measure 28
1000
0000
0100
0010
0001
0010
0100
0000
,  // measure 29
0001
0001
1000
1000
0001
0000
1000
0000
,  // measure 30
0020
0000
1030
0100
0010
0001
1000
0000
,  // measure 31
0010
0000
1000
0000
1010
0000
1000
0000
1001
0001
0100
0000
0001
0000
0100
0000
,  // measure 32
0001
0000
0100
0000
0001
0000
0001
0100
0000
0010
1000
0000
2000
0000
3020
0000
,  // measure 33
0230
0302
0203
0000
0302
0000
0023
0000
,  // measure 34
0230
0320
0032
2003
,  // measure 35
3020
0230
0320
2030
,  // measure 36
3020
0230
0302
0023
,  // measure 37
0230
0000
0310
0001
0010
0000
0010
0100
,  // measure 38
0010
0000
0010
0001
0010
0000
0100
1000
,  // measure 39
0100
0000
0100
0010
0100
0000
0100
1000
,  // measure 40
0100
0000
2100
0000
0000
0100
3100
0000
,  // measure 41
1000
0100
0010
0100
1000
0100
0010
0000
,  // measure 42
0001
0010
0100
0010
0001
0010
0100
0000
,  // measure 43
0100
0000
0010
0001
0010
0100
1000
0000
,  // measure 44
1000
0000
0001
0100
0001
0100
0001
0000
,  // measure 45
0001
0010
0100
1000
0100
0010
0001
0000
,  // measure 46
1000
0100
0010
0001
0010
0100
1000
0000
,  // measure 47
0001
0000
1000
0100
1000
0010
1000
0000
,  // measure 48
1000
0000
0001
0010
0001
0010
0001
0000
,  // measure 49
1000
0100
0010
0100
0010
0100
1000
0000
,  // measure 50
0001
0010
0100
0010
0100
0010
0001
0000
,  // measure 51
0001
0000
1000
0010
0001
0010
1000
0000
,  // measure 52
1000
0000
0001
0100
1000
0100
0001
0000
,  // measure 53
1000
0001
1000
0100
0010
0100
1000
0000
,  // measure 54
0001
1000
0001
0010
0100
0010
0001
0000
,  // measure 55
1000
0000
0100
0010
0100
1000
0100
0000
,  // measure 56
1000
0100
1100
0010
,  // measure 57
1000
0001
1000
0100
,  // measure 58
0010
0000
0001
0010
0100
0000
0010
0100
,  // measure 59
0000
0100
1000
0100
0010
0000
0010
0001
,  // measure 60
0000
1000
2001
0000
,  // measure 61
3001
0000
1000
0000
0100
0000
0010
0100
,  // measure 62
0000
0100
0010
0000
0001
0000
0001
1000
,  // measure 63
0000
1000
0010
0000
0100
0000
0100
0001
,  // measure 64
0000
0001
1000
0000
1001
0000
1000
0000
,  // measure 65
0010
0100
0001
1000
,  // measure 66
0100
0000
1000
0000
0010
0000
0100
0001
,  // measure 67
0000
0001
1000
0000
0100
0000
1000
0100
,  // measure 68
0000
0100
0010
0000
2001
0000
0010
0000
,  // measure 69
3100
0000
1000
0000
0001
0000
1000
0001
,  // measure 70
0000
0001
0100
0000
0010
0000
0010
0100
,  // measure 71
0000
0000
0000
0000
0100
0000
0000
0000
0001
0000
0000
0000
0000
0000
0000
0000
0201
0000
0000
0000
0300
0000
0002
0000
0000
0000
0003
2000
0000
0000
3000
0000
;

//---------------dance-single - ----------------
#NOTES:
     dance-single:
     X-Scale 14:
     Hard:
     9:
     0.609664,0.845305,0.237599,0.118800,0.054831,467.000000,441.000000,26.000000,13.000000,0.000000,0.000000,0.609664,0.845305,0.237599,0.118800,0.054831,467.000000,441.000000,26.000000,13.000000,0.000000,0.000000:
// measure 0
0000
0000
0000
0000
,  // measure 1
0000
0000
0000
0000
,  // measure 2
0000
0000
0000
0000
,  // measure 3
0000
0000
0000
1001
,  // measure 4
0001
0100
1000
0010
,  // measure 5
0001
0000
1000
0001
1000
0001
1000
0000
,  // measure 6
0100
0010
0000
0001
1000
0010
1000
0000
,  // measure 7
0001
0100
0001
1000
0010
0000
2001
0000
,  // measure 8
0010
3001
0010
1000
,  // measure 9
0100
0000
0001
1000
0001
1000
0001
0000
,  // measure 10
0100
0001
0000
1000
0010
0100
0010
0000
,  // measure 11
0100
0001
1000
0001
0010
0000
0110
0000
,  // measure 12
0100
1000
0001
0010
0100
0000
1000
0000
,  // measure 13
0001
0100
1000
0100
0001
0000
1000
0000
,  // measure 14
0100
0010
0001
1000
0001
0000
0100
0000
,  // measure 15
0010
0100
0001
1000
0010
0000
1020
0000
,  // measure 16
0001
0130
0001
1000
,  // measure 17
0010
1000
0001
0010
0100
0000
1000
0000
,  // measure 18
0001
0000
1000
0000
0010
0000
1000
0000
0001
0000
0000
0000
1000
0000
0000
0001
,  // measure 19
0000
0101
1001
0000
1000
0000
0001
0000
,  // measure 20
0010
0000
1000
0000
0010
0000
0001
1000
,  // measure 21
0010
1000
0001
0000
1000
0100
0000
0100
,  // measure 22
0004
1003
0001
0000
0010
0100
4000
0000
,  // measure 23
3001
1000
0001
0000
1001
0000
1000
0000
,  // measure 24
1100
0000
1000
0010
0100
0001
0010
0100
,  // measure 25
1000
0000
0001
0000
1000
0100
0000
0100
,  // measure 26
0001
0000
0010
0000
0100
1000
0000
0001
,  // measure 27
1001
0000
0001
0010
0100
0010
0001
0010
,  // measure 28
0100
0010
0001
1000
0100
1000
0001
1000
,  // measure 29
0100
0010
0100
1000
0100
0010
0100
1000
,  // measure 30
0010
0100
0010
1000
0010
0100
0010
1000
,  // measure 31
0100
0000
0010
0000
0110
0000
0010
0000
0011
0001
0001
0000
0100
0100
0100
0100
,  // measure 32
0100
0100
0001
0000
1000
0000
0001
0100
0000
0010
1000
0000
0002
0000
0023
0000
,  // measure 33
0230
0000
2300
3000
1100
0000
0000
0000
1000
0000
0001
0000
0100
0000
0100
0000
,  // measure 34
0010
0000
0110
0000
0001
1000
0010
0010
,  // measure 35
0100
0000
0101
0000
0001
1000
0100
0100
,  // measure 36
1000
0000
1010
0000
0010
0100
0010
0010
,  // measure 37
1000
0000
1100
0000
0100
1000
0100
0100
,  // measure 38
0010
0000
0011
0000
0001
1000
0010
0010
,  // measure 39
1000
0000
1010
1000
0001
1000
0010
1000
,  // measure 40
0001
0000
0000
0000
1000
0000
0000
0000
1000
0000
0010
0000
1000
0000
0010
0000
1000
0000
0010
0000
0400
0000
0000
0300
0110
0000
0000
0000
0000
0000
0000
0000
,  // measure 41
0001
0100
0010
1000
0100
0010
0001
0000
,  // measure 42
1000
0100
0010
0100
1000
0001
0010
0000
,  // measure 43
0010
0000
0010
0001
1000
0001
0100
0000
,  // measure 44
0100
0000
0100
0010
0001
0010
1000
0000
,  // measure 45
1000
0010
0100
0001
0100
0010
1000
0000
,  // measure 46
1000
0100
0010
0001
0010
0100
1000
0000
,  // measure 47
1000
0000
1000
0100
0001
0010
0100
0000
,  // measure 48
0100
0000
0100
0001
1000
0001
1001
0000
,  // measure 49
0001
1000
0010
0100
0010
1000
0001
0000
,  // measure 50
1000
0010
0100
0010
0001
0010
0100
0000
,  // measure 51
0100
0001
1000
0010
0001
0010
1000
0000
,  // measure 52
1000
0001
0100
0001
1000
0100
0010
0000
,  // measure 53
0001
1000
0010
0100
1000
0100
0010
0000
,  // measure 54
0100
0010
0001
0010
0100
0001
1000
0000
,  // measure 55
1000
0001
1000
0100
0010
0100
1000
0000
,  // measure 56
1100
0000
0101
0000
0110
0100
0010
1000
,  // measure 57
0010
0100
0001
1000
0001
0010
0100
1000
,  // measure 58
0100
0010
0001
1000
0100
0010
0100
1000
,  // measure 59
0001
1000
0100
1000
0001
1000
0010
0100
,  // measure 60
0001
0100
0010
1000
0200
0000
0001
0000
,  // measure 61
2300
0000
3002
0000
0203
0000
0310
0100
,  // measure 62
0010
0100
0010
0000
1000
0000
0001
0001
,  // measure 63
0000
1000
0010
1000
0100
0000
0010
0001
,  // measure 64
0000
0001
1000
0000
1001
0001
1000
0100
,  // measure 65
0010
0001
0010
0100
1000
0001
1000
0010
,  // measure 66
0100
0010
1000
0100
0001
0100
0010
0001
,  // measure 67
1000
0010
0001
0010
0100
0010
1000
0100
,  // measure 68
0001
1000
0010
0001
2001
0000
0010
0000
,  // measure 69
3100
0000
1000
0000
0001
0000
1000
0001
,  // measure 70
1000
0001
1000
0000
0010
0000
0010
0100
,  // measure 71
0000
0000
0000
0000
0100
0000
0000
0000
0001
0000
0000
0000
0000
0000
0000
0000
0101
0000
0000
0000
0000
0000
0002
0000
0000
0000
0000
2000
0000
0000
0000
0000
,  // measure 72
0000
0000
0000
0000
,  // measure 73
0000
0000
0000
0000
,  // measure 74
3003
0000
0000
0000
;

//---------------dance-single - ----------------
#NOTES:
     dance-single:
     X-Scale 7:
     Easy:
     5:
     0.356399,0.522718,0.137076,0.063969,0.000000,273.000000,258.000000,15.000000,7.000000,0.000000,0.000000,0.356399,0.522718,0.137076,0.063969,0.000000,273.000000,258.000000,15.000000,7.000000,0.000000,0.000000:
// measure 0
0000
0000
0000
0000
,  // measure 1
0000
0000
0000
0000
,  // measure 2
0000
0000
0000
0000
,  // measure 3
0000
0000
0000
0110
,  // measure 4
0000
1000
0001
1000
,  // measure 5
0000
0010
0000
1000
,  // measure 6
0000
0001
0000
0100
,  // measure 7
0000
0001
0000
1000
,  // measure 8
0000
0100
0010
0100
,  // measure 9
0000
1000
0000
0001
,  // measure 10
0000
0010
0000
0100
,  // measure 11
0000
1000
0000
0001
,  // measure 12
0000
0100
0010
0100
,  // measure 13
0000
0001
0000
1000
,  // measure 14
0000
0100
0000
1000
,  // measure 15
0000
0001
0000
0010
,  // measure 16
0000
0001
0100
0001
,  // measure 17
0000
1000
0000
0010
,  // measure 18
0000
0100
0000
0001
,  // measure 19
0000
1001
1000
0010
,  // measure 20
1000
0001
0010
0100
,  // measure 21
0010
0001
0100
0010
,  // measure 22
0100
0001
1000
0010
,  // measure 23
0100
0010
1000
0100
,  // measure 24
1000
0000
0001
0100
0000
0001
0000
0000
,  // measure 25
1000
0000
1000
0000
0000
0001
0000
0100
,  // measure 26
0001
0000
0001
0000
0000
0010
0000
0100
,  // measure 27
1000
1100
0000
0100
,  // measure 28
1000
0001
0000
0100
,  // measure 29
0001
1000
0000
0100
,  // measure 30
0010
0001
0000
0010
,  // measure 31
0100
1000
1001
0001
,  // measure 32
0000
0100
0001
0000
0000
0000
1000
0000
,  // measure 33
0001
1001
1000
0000
,  // measure 34
1000
0000
0001
0000
,  // measure 35
0001
0000
0010
0000
,  // measure 36
0010
0000
0100
0000
,  // measure 37
0100
0000
1000
0000
,  // measure 38
1000
0000
0001
0000
,  // measure 39
0001
0010
0001
0010
,  // measure 40
0001
0020
0000
0130
,  // measure 41
0010
0000
0001
0000
1000
0001
1000
0000
,  // measure 42
0010
0000
1000
0000
0001
0010
0100
0000
,  // measure 43
0100
0000
1000
0100
1000
0100
0010
0000
,  // measure 44
0010
0000
0001
0010
0001
0010
0100
0000
,  // measure 45
1000
0000
0001
0000
0100
0001
1000
0000
,  // measure 46
0010
0000
1000
0000
0001
0010
0100
0000
,  // measure 47
0100
0000
1000
0100
1000
0100
0010
0000
,  // measure 48
0010
0000
0001
0010
0001
0010
0100
0000
,  // measure 49
0110
0000
0010
0000
0001
0100
0001
0000
,  // measure 50
0101
0000
0100
0000
0010
1000
0010
0000
,  // measure 51
1010
0000
1000
0001
0100
0001
1000
0000
,  // measure 52
1001
0000
0001
0010
0100
0010
0001
0000
,  // measure 53
0011
0000
0010
0000
0100
1000
0010
0000
,  // measure 54
1010
0000
1000
0000
0001
0010
0001
0000
,  // measure 55
0011
0000
0001
0010
0100
0000
1000
0000
,  // measure 56
0000
0000
2001
0100
,  // measure 57
3010
0100
0002
0013
,  // measure 58
0100
1000
0100
0000
0010
0000
0001
1000
,  // measure 59
0000
0100
1000
0000
0001
0000
0010
0001
,  // measure 60
0000
1000
0010
0000
0200
0000
0001
0000
,  // measure 61
0310
0000
0100
0000
0001
0010
0000
0001
,  // measure 62
0000
1000
0010
0000
1000
0000
0100
0010
,  // measure 63
0000
0100
1000
0000
0001
0000
0100
0001
,  // measure 64
0000
0010
0100
0000
0120
0000
0001
0000
,  // measure 65
0130
1000
0002
0103
,  // measure 66
0001
0010
0001
0000
1000
0000
0100
1000
,  // measure 67
0000
0001
0100
0000
0001
0000
0010
0001
,  // measure 68
0000
1000
0010
0000
2000
0000
0100
0000
,  // measure 69
3001
0000
0010
0000
0100
1000
0000
0001
,  // measure 70
0000
1000
0100
0000
1000
0000
0001
0010
,  // measure 71
0000
0001
1000
0000
1001
0000
0000
0000
;

//---------------dance-single - ----------------
#NOTES:
     dance-single:
     X-Scale 3:
     Beginner:
     2:
     0.161881,0.196019,0.018277,0.000000,0.000000,124.000000,122.000000,2.000000,0.000000,0.000000,0.000000,0.161881,0.196019,0.018277,0.000000,0.000000,124.000000,122.000000,2.000000,0.000000,0.000000,0.000000:
// measure 0
0000
0000
0000
0000
,  // measure 1
0000
0000
0000
0000
,  // measure 2
0000
0000
0000
0000
,  // measure 3
0000
0000
0000
1000
,  // measure 4
0000
0000
0000
0001
,  // measure 5
0000
0000
0000
1000
,  // measure 6
0000
0000
0000
0001
,  // measure 7
0000
0000
0000
0100
,  // measure 8
0000
0000
0000
0010
,  // measure 9
0000
0000
0000
0100
,  // measure 10
0000
0000
0000
0010
,  // measure 11
0000
0000
0000
0000
,  // measure 12
1000
0000
0001
0000
,  // measure 13
0100
0000
0001
0000
,  // measure 14
1000
0000
0100
0000
,  // measure 15
0010
0000
0001
0000
,  // measure 16
0100
0000
0001
0000
,  // measure 17
0010
0000
0100
0000
,  // measure 18
1000
0000
0001
0000
,  // measure 19
0000
1000
0000
0010
,  // measure 20
0000
1000
0000
0001
,  // measure 21
0000
1000
0000
0010
,  // measure 22
0000
1000
0000
0001
,  // measure 23
0000
0010
0000
0100
,  // measure 24
0000
0010
0000
0001
,  // measure 25
0000
0010
0000
0100
,  // measure 26
0000
1000
0000
0001
,  // measure 27
0000
1000
0000
0000
,  // measure 28
0000
0100
0000
0000
,  // measure 29
0000
0010
0000
0000
,  // measure 30
0000
0001
0000
0000
,  // measure 31
0000
0001
1000
0001
,  // measure 32
0000
0010
0000
0100
,  // measure 33
0000
0000
1000
0000
,  // measure 34
0001
0000
0100
0000
,  // measure 35
0001
0000
1000
0000
,  // measure 36
0100
0000
0010
0000
,  // measure 37
0100
0000
1000
0000
,  // measure 38
0001
0000
0100
0000
,  // measure 39
0010
0000
0100
0000
,  // measure 40
0001
0000
0000
1001
,  // measure 41
0000
1000
0000
0010
,  // measure 42
0000
0100
0000
0001
,  // measure 43
0000
0010
0000
0001
,  // measure 44
0000
0100
0000
0010
,  // measure 45
0000
1000
0000
0100
,  // measure 46
0000
0010
0000
0100
,  // measure 47
0000
1000
0000
0001
,  // measure 48
0000
0100
0000
0000
,  // measure 49
0001
0000
0010
0000
,  // measure 50
0100
0000
1000
0000
,  // measure 51
0010
0000
1000
0000
,  // measure 52
0100
0000
0010
0000
,  // measure 53
0001
0000
1000
0000
,  // measure 54
0010
0000
0100
0000
,  // measure 55
0001
0000
1000
0000
,  // measure 56
0000
0000
1001
0000
,  // measure 57
1000
0000
0100
0000
,  // measure 58
1000
0000
0001
0000
,  // measure 59
0100
0000
0001
0000
,  // measure 60
0010
0000
0001
0000
,  // measure 61
1000
0000
0010
0000
,  // measure 62
1000
0000
0100
0000
,  // measure 63
1000
0000
0001
0000
,  // measure 64
0100
0000
0001
0000
,  // measure 65
0010
0000
0100
0000
,  // measure 66
1000
0000
0010
0000
,  // measure 67
0100
0000
0001
0000
,  // measure 68
1000
0000
0100
0000
,  // measure 69
1000
0000
0001
0000
,  // measure 70
0100
0000
0001
0000
,  // measure 71
0010
0000
0100
0000
;
