#VERSION:0.83;
#TITLE:Air;
#SUBTITLE:;
#ARTIST:Hellberg, Teqq & Taylr Renee;
#TITLETRANSLIT:;
#SUBTITLETRANSLIT:;
#ARTISTTRANSLIT:;
#GENRE:Commercial House;
#ORIGIN:;
#CREDIT:;
#BANNER:air-bn.png;
#BACKGROUND:air-bg.png;
#PREVIEWVID:;
#JACKET:air-jacket.png;
#CDIMAGE:;
#DISCIMAGE:;
#LYRICSPATH:;
#CDTITLE:cdtitle.png;
#MUSIC:air.ogg;
#OFFSET:-0.003000;
#SAMPLESTART:91.431999;
#SAMPLELENGTH:15.238000;
#SELECTABLE:YES;
#BPMS:0.000=63.000,
72.000=126.000,
84.000=63.000,
86.000=126.000,
182.000=63.000;
#STOPS:;
#DELAYS:;
#WARPS:;
#TIMESIGNATURES:0.000=4=4;
#TICKCOUNTS:0.000=4;
#COMBOS:0.000=1;
#SPEEDS:0.000=1.000=0.000=0;
#SCROLLS:0.000=1.000;
#FAKES:;
#LABELS:0.000=Song Start;
#BGCHANGES:;
#KEYSOUNDS:;
#ATTACKS:
;

//---------------dance-single - ----------------
#NOTEDATA:;
#CHARTNAME:X-Scale 11;
#STEPSTYPE:dance-single;
#DESCRIPTION:;
#CHARTSTYLE:;
#DIFFICULTY:Hard;
#METER:8;
#RADARVALUES:0.381713,0.527539,0.079523,0.159047,0.409546,336.000000,326.000000,10.000000,20.000000,0.000000,0.000000,0.000000,0.000000,0.000000,0.381713,0.527539,0.079523,0.159047,0.409546,336.000000,326.000000,10.000000,20.000000,0.000000,0.000000,0.000000,0.000000,0.000000;
#CREDIT:iamthek3n;
#NOTES:
// measure 0
0000
0000
0000
0000
,  // measure 1
0000
0000
0000
0000
,  // measure 2
0000
0000
0000
0000
,  // measure 3
0000
0000
0000
0000
,  // measure 4
0020
0000
0000
0000
,  // measure 5
0230
0000
1000
0000
0010
0000
0001
0000
0010
0000
1000
0000
0010
0000
1300
0100
,  // measure 6
0020
0000
0000
0000
0000
0000
0000
0030
,  // measure 7
0002
0000
0010
0000
0100
0000
1000
0000
0203
0000
0000
0300
0002
0000
0000
0003
,  // measure 8
2020
0000
0000
3000
,  // measure 9
2030
0010
0100
0010
0001
3020
1000
0130
,  // measure 10
1000
0000
0000
0000
1000
0100
0010
0001
1000
0000
0001
0000
2000
0000
0000
0000
,  // measure 11
3010
0000
0000
0100
0020
0000
0000
0030
2000
0000
0000
0000
0002
0000
0000
3003
,  // measure 12
1001
0000
0000
1000
0000
0000
0100
0000
0000
0010
0000
0000
0001
0000
0000
0010
0000
0000
0100
0000
0000
1000
0000
0000
0010
0000
0000
1000
0000
0000
0100
0000
,  // measure 13
0010
0000
0000
0001
0000
0000
0010
0000
0000
1000
0000
0000
0010
0000
0000
0001
0000
0000
1000
0000
0000
0010
0000
0000
1000
0000
0000
0001
0000
0000
0001
0000
,  // measure 14
0100
0000
0000
0001
0000
0000
1000
0000
0010
0000
0100
0000
0001
0000
0010
0000
0100
0000
0000
0000
1000
0000
0000
0000
0010
0000
0000
0100
0000
0000
0010
0000
,  // measure 15
1000
0000
0000
0001
1000
0000
0010
0000
0200
0000
0000
0000
0001
0000
0300
0000
0101
0000
0000
0001
0000
0000
1000
0000
2000
0000
0000
0000
0001
0000
3000
0000
,  // measure 16
1000
0000
0000
0000
0010
0000
0000
0000
0100
0000
0000
0000
0001
0000
1000
0000
0001
0000
0000
0000
0010
0000
0000
0000
0100
0000
0000
0000
1000
0001
1000
0001
,  // measure 17
1000
0000
0100
0000
0010
0000
0001
1000
0001
0000
0010
0000
0100
0000
1000
0001
,  // measure 18
1001
0001
0010
0100
0010
0001
1000
0100
,  // measure 19
0001
0100
0010
0001
1000
0001
0100
0010
,  // measure 20
1000
0001
1000
0001
1000
0001
1000
0001
1000
0100
1000
0100
1000
0100
1000
0100
,  // measure 21
1000
0000
0000
0001
0000
0000
1000
0000
0000
0010
0000
0100
0010
0000
0100
0000
0110
0000
0000
0000
0010
0000
1000
0000
0000
0000
0000
0000
0010
0000
0000
0000
,  // measure 22
1000
0100
0000
0000
1000
0000
0001
1000
0000
0001
0100
0000
0010
0000
0000
0000
,  // measure 23
0010
0000
0000
1000
0000
1000
0010
0000
0100
0000
0001
1000
0001
0000
0100
0000
,  // measure 24
0010
0100
0000
0000
0001
0000
0000
0100
0010
0000
1000
0001
1000
0000
0000
0000
,  // measure 25
1000
0000
0000
1000
0000
0000
0001
0000
0100
0001
0000
0010
0100
0000
0100
0000
,  // measure 26
1000
0100
0000
0000
1000
0000
0001
0000
0100
0010
0000
0000
0100
0001
0000
0000
,  // measure 27
1000
0000
0000
0100
0000
0000
1000
0000
0010
0000
0000
0100
0010
0000
0000
1000
,  // measure 28
0001
0000
1000
0000
0010
1000
0000
0000
0010
0000
0000
1000
0100
0000
1000
0000
,  // measure 29
0010
1000
0000
0001
0100
0000
0001
0000
0101
0000
0000
0100
0001
0000
0001
0000
,  // measure 30
1000
0000
0000
0100
1000
0000
1000
0000
0100
0000
0000
0010
0000
0000
1000
0000
,  // measure 31
0010
0000
0000
0001
0000
0000
1000
0000
1010
0000
0000
0010
1000
0000
1000
0000
,  // measure 32
0001
0010
0000
0010
0001
0000
1000
0000
1001
0000
0000
0001
0000
0000
0100
0000
,  // measure 33
0001
0000
0000
0001
1000
0000
0010
0000
0100
0000
0001
0000
0100
0000
0010
0000
,  // measure 34
2000
0000
3010
1000
0001
0100
0001
0010
,  // measure 35
0200
0000
0000
0000
0301
0000
0100
0000
1000
0000
0000
0001
0000
0000
0100
0000
,  // measure 36
0010
0000
0000
0000
1000
0000
0000
0000
0100
0000
0000
0100
0010
0000
0100
0000
,  // measure 37
1000
0100
0000
0010
0001
0000
0100
0000
1001
0000
0000
1000
0001
0000
1000
0000
,  // measure 38
0010
0100
0000
0000
0001
0000
0010
0001
0010
0000
0100
0000
0010
0000
0000
0000
,  // measure 39
0010
0000
0000
0100
1000
0000
0010
0000
0100
0000
0000
0100
0001
0000
1000
0000
,  // measure 40
0010
1000
0000
0000
1000
0000
0001
0100
0001
0000
0010
0001
0010
0000
0000
0000
,  // measure 41
0001
0000
0100
0001
0000
0000
0100
0000
0010
0000
0000
0001
0000
0000
0010
0000
,  // measure 42
0000
1000
0000
0000
0010
0000
0000
0100
0000
0000
0001
0000
0000
1000
0000
0000
,  // measure 43
0010
0000
0000
1000
0000
0000
0100
0000
1000
0000
0000
0001
0000
0000
0100
0000
,  // measure 44
0000
1000
0000
0000
0100
0000
0010
0000
0100
0000
0000
0001
0000
0000
1000
0000
,  // measure 45
0001
0000
0000
0001
0010
0000
0010
0000
0022
0000
0000
0000
0033
0000
0000
0000
;

//---------------dance-single - ----------------
#NOTEDATA:;
#CHARTNAME:X-Scale 8;
#STEPSTYPE:dance-single;
#DESCRIPTION:;
#CHARTSTYLE:;
#DIFFICULTY:Medium;
#METER:6;
#RADARVALUES:0.293101,0.418393,0.007952,0.214713,0.214713,258.000000,257.000000,1.000000,27.000000,0.000000,0.000000,0.000000,0.000000,0.000000,0.293101,0.418393,0.007952,0.214713,0.214713,258.000000,257.000000,1.000000,27.000000,0.000000,0.000000,0.000000,0.000000,0.000000;
#CREDIT:iamthek3n;
#NOTES:
// measure 0
0000
0000
0000
0000
,  // measure 1
0000
0000
0000
0000
,  // measure 2
0000
0000
0000
0000
,  // measure 3
0000
0000
0000
0000
,  // measure 4
1000
0000
0000
0000
,  // measure 5
0001
0000
0010
0000
1000
0000
0001
0000
0100
0000
1000
0000
0001
0000
0100
0002
,  // measure 6
0000
0000
0000
0000
0000
0000
0000
0000
0000
0000
0000
0000
0000
0003
0000
0000
,  // measure 7
1000
0010
0001
0010
2000
0000
3200
0000
,  // measure 8
0320
0000
0000
0030
,  // measure 9
0001
0010
0001
0100
0001
0010
0100
0010
,  // measure 10
0001
0000
0000
0000
1000
0001
0100
0001
1000
0000
0010
0000
0200
0000
0000
0000
,  // measure 11
0301
0000
0000
0010
0200
0000
0000
0000
1300
0000
0000
0000
0002
0000
0000
0000
,  // measure 12
0103
0000
0000
0001
0000
0000
0100
0000
0020
0000
0000
0000
0000
0000
0000
0000
1030
0000
0000
0010
0000
0000
1000
0000
0002
0000
0000
0000
0000
0000
0000
0000
,  // measure 13
0013
0000
0000
0000
1000
0000
0000
0000
0010
0000
0000
0000
0100
0000
0000
0000
1000
0000
0000
0000
0020
0000
0000
0000
0001
0000
0000
0100
0030
0000
0100
0000
,  // measure 14
0100
0000
0000
0000
0001
0000
0000
0000
1000
0000
0010
0000
0100
0000
0010
0000
1000
0000
0000
0000
0001
0000
0000
0000
0200
0000
0000
0010
0000
0000
0001
0000
,  // measure 15
0301
0000
0100
0010
2000
0000
0001
0000
3100
0000
0010
0001
0200
0000
1000
0000
,  // measure 16
0301
0100
0010
1000
0100
0010
0001
0100
,  // measure 17
0010
1000
0100
0010
0001
0100
0010
1000
,  // measure 18
0001
0100
0010
1000
0010
0001
0010
0100
,  // measure 19
0010
1000
0100
0001
0100
0010
0001
1000
,  // measure 20
0010
0000
0000
0010
0000
0000
0010
0000
0000
0010
0000
0000
0010
0000
0000
0000
,  // measure 21
1000
0000
0000
1000
0000
0000
1000
0000
0000
1000
0000
0000
1000
0000
0001
0000
1001
0000
0000
0000
0000
0000
1000
0000
0000
0000
0000
0000
0001
0000
0000
0000
,  // measure 22
0001
0000
0000
0000
0010
0000
0000
0100
0000
0000
0100
0000
1000
0000
0000
0000
,  // measure 23
0001
0000
0000
0100
0000
0000
0001
0000
1000
0000
0000
1000
0000
0000
0100
0000
,  // measure 24
0100
0000
0000
0000
0010
0000
0000
0001
0000
0000
0100
0000
0100
0000
0000
0000
,  // measure 25
0001
0000
0000
0010
0000
0000
0100
0000
0100
0000
0000
1000
0000
0000
0001
0000
,  // measure 26
0001
0000
0000
0000
0100
0000
0000
0001
0000
0000
1000
0000
1000
0000
0000
0000
,  // measure 27
0001
0000
0000
0100
0000
0000
0010
0000
0010
0000
0000
1000
0000
0000
0001
0000
,  // measure 28
0000
0100
0000
0000
0001
0000
0000
0000
1000
0000
0000
0010
0000
0000
0001
0000
,  // measure 29
0000
0100
0000
0000
1000
0000
0001
0000
2000
0000
0000
0000
0100
0000
0000
0000
,  // measure 30
3002
0000
0000
0000
0010
0000
0000
0000
0103
0000
0000
0001
0000
0000
1000
0000
,  // measure 31
0100
0000
0000
1000
0000
0000
0001
0000
0200
0000
0000
0000
1000
0000
0000
0000
,  // measure 32
0320
0000
0000
0000
0001
0000
0000
0000
0130
0000
0000
0010
0000
0000
1000
0000
,  // measure 33
0001
0000
0100
0001
2000
0000
3010
1000
,  // measure 34
0002
0000
0013
0100
2000
0000
3010
1000
,  // measure 35
0002
0000
0000
0000
0103
0000
0001
0000
1000
0000
0000
0100
0000
0000
0010
0000
,  // measure 36
0002
0000
2003
0000
3020
0000
0130
0010
,  // measure 37
1000
0010
0000
0000
1000
0000
0001
0000
1000
0000
0000
0100
0010
0000
0001
0000
,  // measure 38
1000
0000
0000
0000
0010
0000
0000
1000
0001
0000
1000
0000
0010
0000
0000
0000
,  // measure 39
0010
0000
0000
0100
0010
0000
1000
0000
0001
0000
0000
0010
0001
0000
1000
0000
,  // measure 40
0010
0000
0000
0000
0100
0000
0000
0010
0100
0000
0001
0000
1000
0000
0000
0000
,  // measure 41
1000
0000
0000
0100
1000
0000
0001
0000
0010
0000
0000
0001
0000
0000
1000
0000
,  // measure 42
0000
0010
0000
0000
0100
0000
0000
1000
0000
0000
0100
0000
0000
0001
0000
0000
,  // measure 43
1000
0000
0000
0010
0000
0000
0100
0000
0010
0000
0000
1000
0000
0000
0001
0000
,  // measure 44
0000
0010
0000
0000
0001
0000
0000
0000
0100
0000
0000
0001
0000
0000
1000
0000
,  // measure 45
0020
2030
3002
0003
;

//---------------dance-single - ----------------
#NOTEDATA:;
#CHARTNAME:X-Scale 4;
#STEPSTYPE:dance-single;
#DESCRIPTION:;
#CHARTSTYLE:;
#DIFFICULTY:Easy;
#METER:2;
#RADARVALUES:0.182904,0.254674,0.023857,0.095428,0.000000,161.000000,158.000000,3.000000,12.000000,0.000000,0.000000,0.000000,0.000000,0.000000,0.182904,0.254674,0.023857,0.095428,0.000000,161.000000,158.000000,3.000000,12.000000,0.000000,0.000000,0.000000,0.000000,0.000000;
#CREDIT:iamthek3n;
#NOTES:
// measure 0
0000
0000
0000
0000
,  // measure 1
0000
0000
0000
0000
,  // measure 2
0000
0000
0000
0000
,  // measure 3
0000
0000
0000
0000
,  // measure 4
0001
0000
0000
0000
,  // measure 5
1000
0000
0001
0000
,  // measure 6
0100
0000
0000
0000
,  // measure 7
0010
0000
1000
0000
,  // measure 8
0001
0000
0000
0000
,  // measure 9
0010
0000
0100
0000
,  // measure 10
1000
0000
0000
0000
,  // measure 11
0001
0000
0100
0000
,  // measure 12
0101
0001
1000
0001
,  // measure 13
0100
0010
1000
0100
0010
0002
0100
0003
,  // measure 14
0001
0000
0010
0100
1000
0001
2000
0000
,  // measure 15
3100
0000
1000
0001
0100
0000
0010
0100
,  // measure 16
0001
0000
1000
0010
1000
0000
0100
0010
,  // measure 17
0100
0000
1000
0001
1000
0000
0001
0100
,  // measure 18
0001
0010
0100
1000
,  // measure 19
0010
0100
0001
1000
,  // measure 20
0200
0000
0000
0000
,  // measure 21
0320
0000
0000
0030
0011
0000
0001
0000
,  // measure 22
0010
0001
1000
0010
,  // measure 23
1000
0000
0001
0010
0100
0000
1000
0000
,  // measure 24
0001
0100
0001
1000
,  // measure 25
0100
0000
0010
0100
1000
0000
0001
0000
,  // measure 26
0100
0001
1000
0010
,  // measure 27
1000
0000
0001
0010
0100
0000
1000
0000
,  // measure 28
0001
0100
0001
1000
,  // measure 29
0010
0000
2100
0010
,  // measure 30
3002
0000
0100
0000
1003
0000
0001
0010
,  // measure 31
0100
0000
1000
0100
0020
0000
0100
0000
,  // measure 32
0032
0000
0100
0000
1003
0000
0001
0010
,  // measure 33
0100
0000
0010
0001
1000
0000
0100
0000
,  // measure 34
1000
0001
0100
0010
,  // measure 35
1000
0000
0010
1000
0001
0000
1000
0000
,  // measure 36
0010
0000
0100
0001
2000
0000
0100
0000
,  // measure 37
3001
0000
1000
0010
1000
0000
0001
0000
,  // measure 38
0010
0100
0010
0001
,  // measure 39
1000
0000
0010
1000
0001
0000
0100
0000
,  // measure 40
0001
1000
0100
0010
,  // measure 41
0001
0000
0010
0100
1000
0000
0000
0000
,  // measure 42
0001
0000
0100
0000
,  // measure 43
0010
0000
1000
0000
,  // measure 44
0001
0000
1000
0000
,  // measure 45
0200
2300
3002
0003
;

//---------------dance-single - ----------------
#NOTEDATA:;
#CHARTNAME:X-Scale 1;
#STEPSTYPE:dance-single;
#DESCRIPTION:;
#CHARTSTYLE:;
#DIFFICULTY:Beginner;
#METER:1;
#RADARVALUES:0.073843,0.108550,0.015905,0.000000,0.000000,65.000000,63.000000,2.000000,0.000000,0.000000,0.000000,0.000000,0.000000,0.000000,0.073843,0.108550,0.015905,0.000000,0.000000,65.000000,63.000000,2.000000,0.000000,0.000000,0.000000,0.000000,0.000000,0.000000;
#CREDIT:iamthek3n;
#NOTES:
// measure 0
0000
0000
0000
0000
,  // measure 1
0000
0000
0000
0000
,  // measure 2
0000
0000
0000
0000
,  // measure 3
0000
0000
0000
0000
,  // measure 4
1000
0000
0000
0000
,  // measure 5
0100
0000
0000
0000
,  // measure 6
0010
0000
0000
0000
,  // measure 7
0001
0000
0000
0000
,  // measure 8
0100
0000
0000
0000
,  // measure 9
0010
0000
0000
0000
,  // measure 10
1000
0000
0000
0000
,  // measure 11
0001
0000
0000
0000
,  // measure 12
0010
0000
0000
0000
,  // measure 13
0001
0000
0000
0000
,  // measure 14
1000
0000
0000
0000
,  // measure 15
0010
0000
0000
0000
,  // measure 16
1000
0000
0000
0000
,  // measure 17
0001
0000
0000
0000
,  // measure 18
0010
0000
0000
0000
,  // measure 19
0100
0000
0000
0000
,  // measure 20
1000
0000
0000
0000
,  // measure 21
0001
0000
1001
0000
,  // measure 22
1000
0000
0010
0000
,  // measure 23
1000
0000
0001
0000
,  // measure 24
0100
0000
0001
0000
,  // measure 25
1000
0000
0100
0000
,  // measure 26
1000
0000
0001
0000
,  // measure 27
0010
0000
0001
0000
,  // measure 28
0100
0000
0010
0000
,  // measure 29
1000
0000
0001
0000
,  // measure 30
0100
0000
0001
0000
,  // measure 31
1000
0000
0100
0000
,  // measure 32
0010
0000
0001
0000
,  // measure 33
1000
0000
0010
0000
,  // measure 34
1000
0000
0001
0000
,  // measure 35
0100
0000
0001
0000
,  // measure 36
0010
0000
0100
0000
,  // measure 37
1000
0000
0001
0000
,  // measure 38
1000
0000
0010
0000
,  // measure 39
0100
0000
0010
0000
,  // measure 40
1000
0000
0001
0000
,  // measure 41
0100
0000
0001
0000
,  // measure 42
0000
0000
0010
0000
,  // measure 43
0000
0000
0100
0000
,  // measure 44
0000
0000
1000
0000
,  // measure 45
0000
0000
1001
0000
;
