#VERSION:0.83;
#TITLE:10 Years;
#SUBTITLE:;
#ARTIST:Daưi & Gagnamagniư;
#TITLETRANSLIT:;
#SUBTITLETRANSLIT:;
#ARTISTTRANSLIT:Dadi & Gagnamagnid;
#GENRE:Synthpop;
#ORIGIN:;
#CREDIT:;
#BANNER:10 Years-bn.png;
#BACKGROUND:10 Years-bg.png;
#PREVIEWVID:;
#JACKET:10 Years-jacket.png;
#CDIMAGE:;
#DISCIMAGE:;
#LYRICSPATH:;
#CDTITLE:cdtitle.png;
#MUSIC:10 Years.ogg;
#OFFSET:-0.002000;
#SAMPLESTART:78.742004;
#SAMPLELENGTH:17.834999;
#SELECTABLE:YES;
#BPMS:0.000=123.000,
65.000=61.500,
79.000=123.000,
114.500=61.500,
131.000=123.000;
#STOPS:114.500=1.707;
#DELAYS:;
#WARPS:;
#TIMESIGNATURES:0.000=4=4;
#TICKCOUNTS:0.000=4;
#COMBOS:0.000=1;
#SPEEDS:0.000=1.000=0.000=0;
#SCROLLS:0.000=1.000;
#FAKES:;
#LABELS:0.000=Song Start;
#BGCHANGES:0.000=10 Years.avi=1.000=0=0=0=StretchNoLoop====,
99999=-nosongbg-=1.000=0=0=0 // don't automatically add -songbackground-
;
#KEYSOUNDS:;
#ATTACKS:
;

//---------------dance-single - ----------------
#NOTEDATA:;
#CHARTNAME:X-Scale 12;
#STEPSTYPE:dance-single;
#DESCRIPTION:;
#CHARTSTYLE:;
#DIFFICULTY:Hard;
#METER:8;
#RADARVALUES:0.475303,0.755513,0.174034,0.153560,0.552814,325.000000,308.000000,17.000000,15.000000,0.000000,0.000000,0.000000,0.000000,0.000000,0.475303,0.755513,0.174034,0.153560,0.552814,325.000000,308.000000,17.000000,15.000000,0.000000,0.000000,0.000000,0.000000,0.000000;
#CREDIT:iamthek3n;
#NOTES:
0000
0000
0000
0000
,
0000
0000
0000
0000
,
0000
0000
0000
0000
,
0000
0000
0000
0000
,
0000
0000
0000
0000
1100
0000
0000
0000
0000
0000
1000
0100
1000
0000
0001
0010
,
0000
0010
1000
0000
0000
0000
0100
0000
0000
0100
0000
0000
0100
0010
0000
0100
,
0000
0000
1000
0001
1000
0000
0000
0000
0000
0000
0010
0100
0010
0000
1000
0100
,
0000
0100
0001
0000
0000
0000
0010
0000
0000
0010
0000
0000
0100
0000
0000
0100
,
0000
1000
0001
1000
0010
0000
0100
0001
,
1000
0000
0000
0000
0010
0000
0100
0000
0001
0010
0000
0000
0010
0100
0000
0100
,
1000
0000
0100
0010
0100
0000
1000
0000
0001
0000
0000
0000
0100
0000
0001
0000
,
1000
0000
0000
0000
0010
0000
0100
0000
0001
1000
0000
0000
1000
0000
0000
0100
,
1000
0100
0001
0100
1000
0000
0001
0100
,
0001
0000
0000
0000
0010
0000
0100
0000
1000
0100
0000
0000
0100
0010
0000
0001
,
0010
0001
1000
0000
0010
1000
0001
0000
,
0100
0000
0010
0000
1000
0000
0001
0000
0100
0001
0000
0000
0011
0000
0000
0110
,
0000
0000
0000
0000
1010
0000
0000
0000
1010
0000
0000
0000
0000
1000
0010
1000
0001
0000
0010
0000
0001
0000
0000
0000
1001
0000
0000
0000
0000
0010
1000
0001
,
0100
0000
0010
0000
1000
0000
0000
0100
0000
0000
0000
0000
0000
0000
0010
0000
0011
0000
0001
0000
1000
0000
0010
0000
0000
1000
0010
1000
0001
0000
0010
0001
,
0000
0001
0010
0100
1000
0000
0010
1000
0010
0000
0000
0000
0000
0000
0000
0000
2010
0000
0000
0000
3020
0000
0000
0000
0032
0000
0000
0000
2003
0000
0000
0000
,
3200
0302
1000
0000
0013
0000
0001
1000
,
0000
0010
0000
0010
1000
0000
0000
0100
0000
0000
0010
0000
0000
0000
0001
0000
,
0001
0000
0000
0000
0000
0000
0100
0000
0001
0000
0100
0000
0001
0000
0000
0100
0000
0000
0010
0000
0000
1000
0000
0000
0100
0000
0000
1000
0000
0000
0001
0000
0000
0100
0000
0000
0001
0000
0000
0000
0000
0000
0001
0000
0000
0000
0000
0000
,
0010
0100
0000
0000
1000
0000
0000
0000
1010
0000
1000
0001
1000
0000
1000
0000
,
0100
0010
0000
0000
0001
0010
0001
0100
0000
0000
0010
0100
0001
0000
0000
1000
,
0000
0000
0010
0000
0000
1000
0000
0000
0001
0010
0100
1000
0000
0000
0010
0000
,
1000
0010
0000
0000
0100
0000
0001
0000
0010
0001
0000
0000
0010
0000
0000
0010
,
0100
0000
1000
0000
0010
1000
0000
0000
0001
0000
0000
0100
0001
0000
1000
0000
,
0010
1000
0000
0000
0001
0000
0100
0000
0001
0000
0010
0000
0100
0010
0000
0010
,
0001
1000
0000
1000
0010
1000
0000
0100
0010
0100
0010
0000
1002
0000
0000
0000
,
0000
0000
0000
0000
0000
0000
0000
0000
0013
0000
0000
0100
0000
0000
1000
0000
0001
0000
0000
0100
0000
0000
0010
0000
1000
0000
0000
0001
0000
0000
0100
0000
,
0020
0000
0031
0010
0100
0000
0001
1000
0010
1000
0001
0010
0200
0000
0000
2300
,
0000
3002
0000
0023
0000
0000
0032
0000
,
0000
0000
0000
0000
0000
0000
0000
0000
0003
0000
1001
0000
0000
1010
0000
0000
0110
0000
0000
0101
0000
0000
0110
0000
0110
0000
0000
0000
0000
0000
0010
0000
,
0100
0000
0001
0010
0001
1000
0000
0010
1000
0000
0001
0000
0100
0000
0000
0010
,
1000
0000
0001
0000
0010
0000
0100
0000
1000
0000
0100
0000
0010
0000
0000
0100
,
1000
0000
0001
0000
1000
0000
0010
0000
0100
0000
0010
0000
0001
0000
0000
0010
,
1000
0000
1000
0000
0001
0000
0010
0000
0100
0000
0010
0000
0001
0000
0000
1000
,
0010
0000
0100
0000
1000
0000
0100
0000
0010
0000
0100
0000
0001
0000
0000
1000
,
0001
0000
1000
0000
0010
0000
1000
0000
0100
0000
0010
0000
0001
0000
0000
0100
,
0010
0000
1000
0010
1000
0010
0000
0000
0100
0010
0000
0000
1000
0000
0000
0001
,
0010
0000
0100
1000
0100
0000
1000
0000
0001
0010
0001
0000
2002
0000
0000
0000
,
3003
0000
0000
0000
;

//---------------dance-single - ----------------
#NOTEDATA:;
#CHARTNAME:X-Scale 10;
#STEPSTYPE:dance-single;
#DESCRIPTION:;
#CHARTSTYLE:;
#DIFFICULTY:Medium;
#METER:7;
#RADARVALUES:0.365618,0.521463,0.092136,0.235458,0.337831,250.000000,241.000000,9.000000,23.000000,0.000000,0.000000,0.000000,0.000000,0.000000,0.365618,0.521463,0.092136,0.235458,0.337831,250.000000,241.000000,9.000000,23.000000,0.000000,0.000000,0.000000,0.000000,0.000000;
#CREDIT:iamthek3n;
#NOTES:
0000
0000
0000
0000
,
0000
0000
0000
0000
,
0000
0000
0000
0000
,
0000
0000
0000
0000
,
0000
0000
0000
0000
0001
0000
0000
0000
0000
0000
0000
0000
1000
0000
0000
0100
,
0000
0000
1000
0000
0000
0000
0001
0000
0000
0001
0000
0000
0001
0100
0000
0000
,
0100
0000
0010
0000
0100
0000
0000
0000
0000
0000
0000
0000
0001
0000
0000
1000
,
0000
0000
0001
0000
0000
0000
0010
0000
0000
0100
0000
0000
1000
0000
0000
0010
,
0000
1000
0001
0000
1001
0000
1000
0010
,
1000
0000
0100
1000
0000
0001
0020
0000
0000
0000
0030
0000
0100
0010
0000
0001
,
0000
1000
0001
1000
0001
0000
0000
0000
0101
0000
0000
0000
0001
0000
0010
0000
,
0100
0000
0000
0000
1000
0000
0010
0000
1000
0010
0000
0000
0100
0000
0000
0001
,
0010
0001
1000
0000
1001
0001
0100
0001
,
1000
0000
0100
1000
0000
0001
0200
0000
0000
0000
0300
0000
0010
0100
0000
0000
,
0001
1000
0001
1000
0000
0200
0000
0000
0000
0300
0010
0000
0100
0000
0000
1000
,
0100
0000
1000
0001
1000
0000
0000
0000
1001
0000
0000
0000
0001
0000
0000
1000
,
0000
0000
0001
0000
1001
0000
0000
1000
0100
1000
0001
0000
0010
0000
0000
0100
,
0010
0001
1000
0000
0001
0000
0000
0010
0100
1000
0001
0000
0100
0010
1000
0001
,
0100
1000
0100
0010
0100
0000
0000
0000
0001
0000
0010
0000
1000
0000
0100
0000
,
0001
2000
0010
0000
3100
0000
1000
1000
,
0000
0001
0000
0000
0100
0000
0000
0001
0000
0000
1000
0000
0000
0000
0010
0000
,
0010
0000
0100
0000
0001
0100
0001
0000
1000
0100
1000
0000
1200
0000
0000
0000
,
0010
0000
0000
0000
1000
0000
0000
0000
0310
0000
0001
0020
0000
0000
0001
0000
,
0000
0100
0000
0000
0130
0000
1000
0000
0001
0000
0100
0000
0010
0000
0000
0100
,
0000
0000
0001
0000
0000
1000
0000
0000
0100
0010
0100
0020
0000
0000
0000
0000
,
1000
0000
0000
0000
0100
0000
0000
0000
0031
0000
0010
0100
2000
0000
0100
0000
,
0000
0001
0000
0000
0100
0000
0000
0000
3010
0000
1000
0200
0000
0000
0000
0000
,
0010
0000
0000
0000
1300
0000
0100
0010
0001
0000
1000
0001
0100
0000
0000
0010
,
0000
0000
1000
0000
0000
0001
0000
0000
0010
0000
0000
0000
2001
0000
0000
0000
,
0000
0100
0010
3002
,
0010
0000
0000
0000
0000
0000
0000
0000
0100
0000
0000
0100
0000
0000
0000
0000
1000
0000
0000
0000
0000
0000
1000
0000
2003
0000
0000
0000
0000
0000
3200
0000
,
0000
0320
0000
0032
0000
0000
0203
0000
,
0000
0000
0000
0000
0300
0001
0100
0010
1000
0100
0010
0001
0012
0000
0000
0000
,
1003
0000
0000
0000
0010
0000
1000
0000
0001
0000
1000
0000
0100
0000
0000
1000
,
0000
0000
0001
0000
0100
0000
0000
0001
0000
0000
0010
0000
0001
0000
0000
1000
,
0000
0010
0200
0000
0301
0020
1000
0000
,
0031
0010
0001
1000
0010
1000
0002
0000
,
0103
0001
1000
0010
0100
0020
0001
0000
,
0100
0000
0000
0000
1030
0000
0010
0000
2000
0000
3000
0002
0000
0000
0000
0000
,
0103
0000
0000
0001
1000
0000
0010
0000
0100
0010
0000
0000
1000
0000
0000
0100
,
1000
0000
0001
0100
0001
0000
1000
0000
0100
0010
0000
0000
0101
0000
0000
0000
;

//---------------dance-single - ----------------
#NOTEDATA:;
#CHARTNAME:X-Scale 5;
#STEPSTYPE:dance-single;
#DESCRIPTION:;
#CHARTSTYLE:;
#DIFFICULTY:Easy;
#METER:3;
#RADARVALUES:0.188659,0.250302,0.030712,0.061424,0.000000,129.000000,126.000000,3.000000,6.000000,0.000000,0.000000,0.000000,0.000000,0.000000,0.188659,0.250302,0.030712,0.061424,0.000000,129.000000,126.000000,3.000000,6.000000,0.000000,0.000000,0.000000,0.000000,0.000000;
#CREDIT:iamthek3n;
#NOTES:
// measure 0
0000
0000
0000
0000
,  // measure 1
0000
0000
0000
0000
,  // measure 2
0000
0000
0000
0000
,  // measure 3
0000
0000
0000
0000
,  // measure 4
0000
1000
0000
0001
,  // measure 5
0000
1000
0000
1000
0000
0000
0100
0000
,  // measure 6
0000
0010
0000
0001
,  // measure 7
0000
1000
0000
1000
0000
0000
0001
0000
,  // measure 8
0000
0010
0001
1000
,  // measure 9
0001
0010
0100
1000
,  // measure 10
0001
0100
0001
1000
,  // measure 11
0100
1000
0001
0100
,  // measure 12
0010
0100
0001
0010
,  // measure 13
0100
0010
0001
1000
,  // measure 14
0100
0010
0001
0100
,  // measure 15
0010
1000
0001
0010
,  // measure 16
0000
0021
0100
0032
,  // measure 17
1000
0000
0203
0000
0010
0000
0301
0100
,  // measure 18
0001
1000
0200
0000
0000
0000
2300
0000
,  // measure 19
0010
3002
0010
0103
,  // measure 20
0000
0000
0001
0000
0000
1000
0000
1000
,  // measure 21
0000
0010
0000
1000
,  // measure 22
0001
0100
0001
1000
,  // measure 23
0100
0010
0100
1000
,  // measure 24
0001
0100
0010
0100
,  // measure 25
0001
0010
0100
1000
,  // measure 26
0010
1000
0001
0100
,  // measure 27
0001
1000
0100
1000
,  // measure 28
0001
0100
0001
1000
,  // measure 29
0000
0000
0000
0001
,  // measure 30
0000
0000
0000
1000
,  // measure 31
0000
0000
0000
0001
,  // measure 32
0000
0000
0000
1001
,  // measure 33
1000
0010
0100
0001
,  // measure 34
0010
0001
1000
0100
,  // measure 35
1000
0001
0010
0100
,  // measure 36
0010
0001
1000
0010
,  // measure 37
1000
0001
0100
0010
,  // measure 38
0100
0001
0010
0100
,  // measure 39
1000
0001
1000
0010
,  // measure 40
1000
0001
0010
0011
;

//---------------dance-single - ----------------
#NOTEDATA:;
#CHARTNAME:X-Scale 1;
#STEPSTYPE:dance-single;
#DESCRIPTION:;
#CHARTSTYLE:;
#DIFFICULTY:Beginner;
#METER:1;
#RADARVALUES:0.086286,0.103653,0.000000,0.000000,0.000000,59.000000,59.000000,0.000000,0.000000,0.000000,0.000000,0.000000,0.000000,0.000000,0.086286,0.103653,0.000000,0.000000,0.000000,59.000000,59.000000,0.000000,0.000000,0.000000,0.000000,0.000000,0.000000,0.000000;
#CREDIT:iamthek3n;
#NOTES:
// measure 0
0000
0000
0000
0000
,  // measure 1
0000
0000
0000
0000
,  // measure 2
0000
0000
0000
0000
,  // measure 3
0000
0000
0000
0000
,  // measure 4
0000
0001
0000
0000
,  // measure 5
0000
0000
0000
0000
,  // measure 6
0000
1000
0000
0000
,  // measure 7
0000
0000
0000
0000
,  // measure 8
0000
0000
1000
0000
,  // measure 9
0001
0000
1000
0000
,  // measure 10
0001
0000
0010
0000
,  // measure 11
0100
0000
0010
0000
,  // measure 12
0100
0000
1000
0000
,  // measure 13
0010
0000
1000
0000
,  // measure 14
0010
0000
0100
0000
,  // measure 15
0001
0000
0100
0000
,  // measure 16
0001
0000
1000
0000
,  // measure 17
0100
0000
1000
0000
,  // measure 18
0001
0000
0100
0000
,  // measure 19
0001
0000
1000
0000
,  // measure 20
0000
0000
0000
0000
,  // measure 21
0000
0000
0000
0000
,  // measure 22
0001
0000
1000
0000
,  // measure 23
0010
0000
1000
0000
,  // measure 24
0001
0000
1000
0000
,  // measure 25
0010
0000
1000
0000
,  // measure 26
0001
0000
0010
0000
,  // measure 27
0001
0000
1000
0000
,  // measure 28
0001
0000
0010
0001
,  // measure 29
0000
0000
0000
1000
,  // measure 30
0000
0000
0000
0001
,  // measure 31
0000
0000
0000
1000
,  // measure 32
0000
0000
0000
0000
,  // measure 33
0001
0000
0010
0000
,  // measure 34
0001
0000
0010
0000
,  // measure 35
0100
0000
1000
0000
,  // measure 36
0100
0000
1000
0000
,  // measure 37
0100
0000
0010
0000
,  // measure 38
0100
0000
0010
0000
,  // measure 39
0001
0000
1000
0000
,  // measure 40
0001
0000
1000
0000
;
