#VERSION:0.83;
#TITLE:小雅·裳裳者华;
#SUBTITLE:;
#ARTIST:Fatima Al Qadiri ft. Li Yuchun;
#TITLETRANSLIT:Xiaoya·Blossoming Flowers;
#SUBTITLETRANSLIT:;
#ARTISTTRANSLIT:;
#GENRE:Electronic;
#ORIGIN:;
#CREDIT:;
#BANNER:xiaoya-bn.png;
#BACKGROUND:xiaoya-bg.png;
#PREVIEWVID:;
#JACKET:xiaoya-jacket.png;
#CDIMAGE:;
#DISCIMAGE:;
#LYRICSPATH:;
#CDTITLE:cdtitle.png;
#MUSIC:xiaoya.ogg;
#OFFSET:-0.005000;
#SAMPLESTART:66.788002;
#SAMPLELENGTH:12.000000;
#SELECTABLE:YES;
#BPMS:0.000=115.000;
#STOPS:;
#DELAYS:;
#WARPS:;
#TIMESIGNATURES:0.000=4=4;
#TICKCOUNTS:0.000=4;
#COMBOS:0.000=1;
#SPEEDS:0.000=1.000=0.000=0;
#SCROLLS:0.000=1.000;
#FAKES:;
#LABELS:0.000=Song Start;
#BGCHANGES:;
#KEYSOUNDS:;
#ATTACKS:
;

//---------------dance-single - ----------------
#NOTEDATA:;
#CHARTNAME:just relax...;
#STEPSTYPE:dance-single;
#DESCRIPTION:;
#CHARTSTYLE:;
#DIFFICULTY:Hard;
#METER:6;
#RADARVALUES:0.303369,0.369042,0.182930,0.286326,0.039767,267.000000,244.000000,23.000000,36.000000,0.000000,0.000000,0.000000,0.000000,0.000000,0.303369,0.369042,0.182930,0.286326,0.039767,267.000000,244.000000,23.000000,36.000000,0.000000,0.000000,0.000000,0.000000,0.000000;
#CREDIT:;
#NOTES:
// measure 0
0000
0000
0000
0000
,  // measure 1
0000
0000
0000
0000
,  // measure 2
0000
0000
0000
0000
,  // measure 3
0000
0000
0000
0000
,  // measure 4
0000
0000
0000
0000
,  // measure 5
0000
0000
0000
0000
,  // measure 6
0000
0000
0000
0000
,  // measure 7
0000
0000
0000
0000
,  // measure 8
1001
0000
0001
0000
1000
0100
1000
0000
,  // measure 9
0100
0010
0200
0300
,  // measure 10
0011
0000
1000
0000
0001
0100
1000
0100
,  // measure 11
0001
0000
0010
0000
0200
0000
0000
0300
,  // measure 12
1001
0000
1000
0100
0001
0010
0100
0010
,  // measure 13
1000
0001
2000
3000
,  // measure 14
0110
0000
0200
0310
0200
1300
0200
0310
,  // measure 15
0100
0000
0000
0000
0000
0000
0001
0000
0000
0000
0000
0000
1000
0001
1000
0002
0000
0000
0000
0000
0000
0003
0000
0000
,  // measure 16
0101
0000
0020
0030
0020
1030
0020
0031
,  // measure 17
0010
0000
0200
0300
0200
0300
0200
0300
,  // measure 18
0011
0000
1000
0000
0100
0001
0010
0100
,  // measure 19
0001
0000
1000
0000
0200
0000
0000
0300
,  // measure 20
1010
0000
1000
0000
0001
0010
0001
0000
,  // measure 21
0100
0000
0010
0000
1000
0001
1000
0000
,  // measure 22
0101
0000
0001
0010
0100
0010
0001
1000
,  // measure 23
0100
1000
0001
0110
,  // measure 24
1001
1000
0100
0010
,  // measure 25
0010
1000
0001
0010
0200
0000
0000
0300
,  // measure 26
0011
0000
0000
0000
0001
0000
0000
1000
0000
1000
0000
0000
0010
0000
0000
0000
,  // measure 27
1000
0000
0001
0000
0020
0230
0320
0030
,  // measure 28
0110
0000
0000
0100
0000
0001
0000
0000
0001
0000
0000
1000
0000
0000
1000
0000
,  // measure 29
0200
0010
0302
0000
,  // measure 30
0013
0000
0000
0000
0001
0000
0010
0000
0000
0001
0000
0000
1000
0000
0001
0000
,  // measure 31
1000
0100
0010
1000
0010
0000
0001
0000
,  // measure 32
0110
0001
1000
0001
,  // measure 33
1000
0001
1000
0100
0010
0000
0010
0000
,  // measure 34
0110
1000
0001
1000
,  // measure 35
0001
0100
1000
0100
0001
0000
0001
0000
,  // measure 36
0110
0000
0001
0000
1000
0000
0001
0100
,  // measure 37
0010
1000
0100
1000
0010
0000
0010
0000
,  // measure 38
0110
0000
1000
0000
0001
0100
1000
0100
,  // measure 39
0001
0000
0010
0000
0100
0000
0010
0000
0001
0000
0000
0000
0002
0000
0000
0003
,  // measure 40
1001
0100
0010
0100
,  // measure 41
0001
0010
1000
0100
0010
0000
1000
0000
,  // measure 42
1001
0100
0010
0100
,  // measure 43
0001
0010
0001
1000
0100
0000
0100
0000
,  // measure 44
1001
0000
0010
0000
0100
0000
0010
0001
,  // measure 45
0010
1000
0010
0100
0001
0000
0100
0000
,  // measure 46
1001
0000
0010
0000
0100
1000
0100
0010
,  // measure 47
0001
0010
0100
0001
2000
0000
0000
0000
,  // measure 48
3200
0000
0000
0000
1300
0100
0010
0100
,  // measure 49
2000
3002
2003
3000
,  // measure 50
1002
0000
0000
0000
0013
0001
1000
0001
,  // measure 51
0200
0320
0230
0300
,  // measure 52
0120
0000
0100
0001
0130
0010
1000
0010
,  // measure 53
2000
3200
2300
3000
,  // measure 54
1200
0000
0010
1000
0310
0100
0001
0100
,  // measure 55
1000
0000
0000
0000
0000
0000
0001
0000
0000
0000
0000
0000
0100
0001
0100
0002
0000
0000
0000
0000
0000
0000
0000
0000
,  // measure 56
0000
0000
0000
0000
,  // measure 57
0000
0000
0000
0000
,  // measure 58
0003
0000
0000
0000
;
