#VERSION:0.83;
#TITLE:We Are Never Ever Getting Back Together;
#SUBTITLE:-八王子P Remix-;
#ARTIST:Taylor Swift;
#TITLETRANSLIT:;
#SUBTITLETRANSLIT:-Hachioji P Remix-;
#ARTISTTRANSLIT:;
#GENRE:Progressive House;
#ORIGIN:;
#CREDIT:;
#BANNER:We Are Never Ever Getting Back Together -Hachioji P Remix-.png;
#BACKGROUND:We Are Never Ever Getting Back Together -Hachioji P Remix--bg.png;
#PREVIEWVID:;
#JACKET:We Are Never Ever Getting Back Together -Hachioji P Remix--jacket.png;
#CDIMAGE:;
#DISCIMAGE:;
#LYRICSPATH:;
#CDTITLE:cdtitle.png;
#MUSIC:We Are Never Ever Getting Back Together -Hachioji P Remix-.ogg;
#OFFSET:-0.001000;
#SAMPLESTART:67.031998;
#SAMPLELENGTH:15.000000;
#SELECTABLE:YES;
#DISPLAYBPM:128.000000;
#BPMS:0.000=128.000,
140.000=64.000,
141.000=256.000,
141.500=128.000,
141.750=64.000,
142.000=256.000,
142.500=128.000,
142.750=64.000,
143.000=128.000,
173.000=256.000,
173.500=128.000,
173.750=64.000,
174.000=256.000,
176.000=128.000,
206.000=256.000,
206.500=128.000,
206.750=64.000,
207.000=128.000;
#STOPS:206.750=0.469;
#DELAYS:;
#WARPS:;
#TIMESIGNATURES:0.000=4=4;
#TICKCOUNTS:0.000=4;
#COMBOS:0.000=1;
#SPEEDS:0.000=1.000=0.000=0;
#SCROLLS:0.000=1.000;
#FAKES:;
#LABELS:0.000=Song Start;
#BGCHANGES:0.000=We Are Never Ever Getting Back Together -Hachioji P Remix-.avi=1.000=1=0=0=StretchNoLoop==CrossFade==,
99999=-nosongbg-=1.000=0=0=0 // don't automatically add -songbackground-
;
#KEYSOUNDS:;
#ATTACKS:
;

//---------------dance-single - ----------------
#NOTEDATA:;
#CHARTNAME:;
#STEPSTYPE:dance-single;
#DESCRIPTION:;
#CHARTSTYLE:;
#DIFFICULTY:Hard;
#METER:13;
#RADARVALUES:0.490989,0.531093,0.135445,0.194702,0.499454,406.000000,390.000000,16.000000,23.000000,18.000000,0.000000,3.000000,0.000000,0.000000,0.490989,0.531093,0.135445,0.194702,0.499454,406.000000,390.000000,16.000000,23.000000,18.000000,0.000000,3.000000,0.000000,0.000000;
#CREDIT:;
#NOTES:
// measure 0
0000
0000
0000
0000
,  // measure 1
0000
0000
0000
0000
,  // measure 2
0000
0000
0000
0000
,  // measure 3
0000
0000
0000
0000
,  // measure 4
1100
0000
0000
0000
1000
0000
0001
0010
0000
0001
0000
0010
0000
0000
0000
0000
,  // measure 5
0100
1010
1000
1001
,  // measure 6
0001
0000
0000
0000
0011
0000
0010
0100
0000
0010
0000
0100
0000
0000
0000
0000
,  // measure 7
1000
0000
0001
0000
1000
0000
0000
0100
0010
0000
0100
0000
2000
0000
0000
0000
,  // measure 8
3001
0000
1000
0000
0010
0000
1000
0000
0001
0000
0000
0100
0001
0100
0000
0000
,  // measure 9
0010
0000
1000
0000
0001
0000
1000
0000
0010
0000
0000
0000
0100
0001
0000
0000
,  // measure 10
1000
0000
0010
0000
0100
0000
0010
0000
1000
0000
0000
0000
0001
0010
0000
0000
,  // measure 11
0100
1000
0000
0000
0010
0100
0000
0000
0001
0000
0000
0000
1001
0000
0000
0000
,  // measure 12
1000
0000
0100
0000
0001
0000
0100
0000
1000
0000
0000
0000
0001
0010
0000
0000
,  // measure 13
0001
0000
0100
0000
1000
0000
0100
0000
0001
0000
0000
0000
0100
0010
0000
0000
,  // measure 14
1000
0000
0001
0000
0100
0000
0001
0000
1000
0000
0000
0000
0001
0010
0000
0100
,  // measure 15
0010
0001
0000
0100
0001
1000
0000
0010
1000
0001
0000
0010
0100
0010
0000
0000
,  // measure 16
0210
0000
0000
0000
0000
0000
1300
0100
0000
0010
0000
0001
0000
0000
1000
0000
,  // measure 17
0010
0100
0010
0001
0010
1000
0100
0010
,  // measure 18
0002
0000
0000
0000
0000
0000
0013
0001
0000
1000
0000
0010
0000
0000
0100
0000
,  // measure 19
0004
0000
0000
0000
2M03
3000
0M00
0000
,  // measure 20
0110
0000
0000
0100
0000
0000
0010
0000
0000
0000
0000
0000
1001
0000
0000
0000
,  // measure 21
1000
0000
0000
0100
0000
0000
0010
0000
0001
0000
0000
0100
0000
0000
0010
0000
,  // measure 22
1000
0000
0000
0001
0000
0000
0100
0000
0000
0000
0000
0000
1001
0000
0000
0000
,  // measure 23
0001
0000
0000
0010
0000
0000
0100
0000
1000
0000
0000
0010
0000
0000
0100
0000
,  // measure 24
0001
0000
1000
0000
0001
0000
0010
0100
0000
0010
0000
0000
0001
0000
0010
0100
,  // measure 25
0000
0010
0000
0000
0001
0000
0100
0002
0000
0000
0000
0003
0011
0000
0010
0000
,  // measure 26
0001
0000
0100
0000
0010
0000
1000
0000
0001
0100
0000
0010
0100
0000
0010
0100
,  // measure 27
0000
0010
0200
0000
0010
0000
0000
0000
0301
0000
0100
0001
1000
0000
0100
0010
,  // measure 28
0100
0000
0000
0100
0000
0000
0100
0000
1000
0000
0000
1000
0000
0000
1000
0000
,  // measure 29
0001
0000
0000
0001
0000
0000
0001
0000
0010
0000
0000
0010
0000
0000
0010
0000
,  // measure 30
0100
0000
0000
0100
0000
0000
0100
0000
1000
0000
0000
1000
0000
0000
1000
0000
,  // measure 31
0010
0000
0000
0010
0000
0000
0010
0000
0100
0000
0000
0100
0000
0000
0100
0001
,  // measure 32
0100
0010
0001
0010
0100
0001
1000
0100
,  // measure 33
0010
0001
0100
0010
1000
0001
1000
0100
,  // measure 34
0040
0000
0400
0000
0000
0000
0000
0000
0000
0000
0000
0000
0000
0000
0000
0000
0000
0000
0000
0000
0000
0000
0000
0000
0000
0000
0000
0000
0000
0000
0000
0000
0000
0000
0000
0000
0000
0000
0000
0000
0000
0000
0000
0000
0000
0330
0000
0000
,  // measure 35
MMMM
0000
0000
0000
MMMM
0000
0000
0000
MMMM
0000
0000
0000
1100
0000
0000
1000
,  // measure 36
0100
0000
1000
0000
0001
0000
0000
0010
0100
0000
0010
0000
0001
0000
0000
1000
,  // measure 37
0010
0000
1000
0100
0010
0000
0000
0001
0100
0001
0000
0000
0210
0000
0000
0010
,  // measure 38
0000
0000
0301
0000
1000
0000
0000
0100
0010
0000
0100
0000
1000
0000
0000
0010
,  // measure 39
1000
0000
0001
0010
0100
0000
0000
1000
0100
1000
0000
0000
0001
0000
1000
0000
,  // measure 40
0001
0000
0100
0010
0000
0100
0000
0000
0001
0000
0100
0010
0000
0100
0000
0000
,  // measure 41
0001
0000
0010
0100
0010
0000
0000
0001
1000
0000
0100
0000
0010
0000
0000
0001
,  // measure 42
0010
0000
0001
0000
1000
0100
0000
0010
0100
0000
0010
0100
0000
0010
0200
0000
,  // measure 43
1000
0000
0300
0000
2200
0000
0000
3300
MMMM
0000
0000
0000
0000
0000
0000
0000
,  // measure 44
1100
0000
0000
0100
1000
0000
0001
0100
0000
0010
0000
0100
0001
0000
1000
0000
,  // measure 45
0001
0000
0000
0010
0100
0000
0010
0001
1000
0000
0000
0100
0010
0100
0000
0000
,  // measure 46
2000
0000
0000
0010
0000
0000
3010
1000
0000
0001
0000
1000
0100
0000
0010
0000
,  // measure 47
0001
0000
0000
0100
0010
0000
0100
0001
0010
0000
0000
0100
1000
0100
0000
0000
,  // measure 48
1000
0000
0001
0000
0100
0000
0001
0100
0000
0010
0000
0000
0100
0000
0001
0100
,  // measure 49
0000
0010
0000
0000
0100
0000
0001
2000
0010
0000
0000
0000
3001
0000
0100
0010
,  // measure 50
0100
0000
0000
0001
0010
0000
0001
0000
1000
0001
0000
0100
0001
0000
0100
0001
,  // measure 51
0000
0100
0002
0000
1000
0000
0003
0000
2002
0000
0000
3003
2001
0000
0000
0000
,  // measure 52
3100
0000
0010
0001
1000
0010
0200
0000
,  // measure 53
0301
0000
1000
0100
0001
0100
2000
0000
,  // measure 54
3001
0000
0000
1000
0001
1000
0000
0010
1000
0001
1000
0010
1000
0000
1000
0000
,  // measure 55
1000
0200
0001
2300
,  // measure 56
3010
0000
1000
0100
1000
0001
0020
0000
,  // measure 57
0130
0000
1000
0100
0001
0100
2000
0000
,  // measure 58
3100
0000
0000
0100
1000
0001
0000
1000
0001
0100
0010
0100
0001
0000
0001
0000
,  // measure 59
0001
0000
0000
0010
0100
0000
0010
0000
0002
0000
0000
0000
1003
0000
0000
0000
;

//---------------dance-single - ----------------
#NOTEDATA:;
#CHARTNAME:;
#STEPSTYPE:dance-single;
#DESCRIPTION:;
#CHARTSTYLE:;
#DIFFICULTY:Medium;
#METER:11;
#RADARVALUES:0.422057,0.455223,0.160841,0.203168,0.287821,349.000000,330.000000,19.000000,24.000000,0.000000,0.000000,0.000000,0.000000,0.000000,0.422057,0.455223,0.160841,0.203168,0.287821,349.000000,330.000000,19.000000,24.000000,0.000000,0.000000,0.000000,0.000000,0.000000;
#CREDIT:;
#NOTES:
0000
0000
0000
0000
,
0000
0000
0000
0000
,
0000
0000
0000
0000
,
0000
0000
0000
0000
,
0001
1001
0000
1100
,
0100
1010
0000
0101
,
0001
1001
0000
0110
,
0100
0010
0100
0000
0001
0010
0200
0000
,
1300
0000
0001
0010
0100
0000
1000
0000
,
0001
0000
1000
0010
0100
0000
0001
0000
,
0010
0000
0000
0000
0100
0000
0010
0000
0001
0000
0000
0000
1000
0001
0000
0000
,
0100
0010
0000
0000
1000
0100
0000
0000
0010
0000
0000
0000
0011
0000
0000
0000
,
0001
0000
1000
0001
0010
0000
1100
0000
,
1000
0000
0010
1000
0001
0000
1001
0000
,
1000
0000
0000
0000
0100
0000
0010
0000
0001
0000
0000
0000
0010
0100
0000
0000
,
1000
0010
0000
0100
0001
0000
0000
1000
0100
1000
0000
0010
0100
0010
0000
0000
,
0210
0000
0000
0000
0000
0000
0310
0100
0000
0010
0000
0100
0000
0000
0000
0000
,
0001
0010
0100
0000
0010
0100
1000
0000
,
0002
0000
0000
0000
0000
0000
1003
0001
0000
1000
0000
0001
0000
0000
0000
0000
,
0020
0000
1000
0000
0032
0003
0000
0000
,
0011
0000
0000
0001
0000
0000
0010
0000
0000
0000
0000
0000
0100
0000
0000
0000
,
1000
0000
0000
0010
0000
0000
1000
0000
0100
0000
0000
0010
0000
0000
0001
0000
,
0100
0000
0000
0010
0000
0000
0100
0000
0000
0000
0000
0000
0001
0000
0000
0000
,
1000
0000
0000
0010
0000
0000
0100
0000
0010
0000
0000
1000
0000
0000
0001
0000
,
1001
1000
0100
0010
0100
1000
0001
0100
,
0010
0100
0001
0010
1000
0010
0001
0010
,
0200
0000
0000
0000
1300
0000
0100
0000
0010
0001
0000
0010
0100
0000
0010
0100
,
0000
0010
0200
0000
0000
0000
0000
0000
1300
0000
0000
0100
0000
0000
1000
0000
,
1100
0100
0010
0001
,
1000
0100
0010
0001
,
1000
0000
0000
0001
0000
0000
1000
0000
0001
0000
0000
0010
0000
0000
0100
0000
,
0010
0000
0000
0100
0000
0000
1000
0000
0010
0000
0000
1000
0000
0000
0010
0000
,
1000
0100
0010
0001
1000
0100
0010
0001
,
1000
0010
0100
0001
1000
0010
0100
0001
,
0020
0000
0000
0100
0000
0000
0001
0000
0001
0000
0000
1000
0000
0000
0001
0000
,
0031
0000
0000
0000
0011
0000
0000
0000
0021
0000
0000
0000
0100
0000
0000
0001
,
0000
0000
1000
0000
1000
0000
0000
0100
0000
0000
0001
0000
0001
0000
0000
0100
,
0030
0000
0010
0000
0001
0000
0000
1000
0001
1000
0000
0000
0020
0000
0000
0000
,
0130
0000
0010
0000
1000
0000
0000
0100
0000
0000
0010
0000
0001
0000
0000
0100
,
0000
0000
0010
0000
1000
0000
0000
0001
1000
0001
0000
0000
0010
0000
0100
0000
,
1000
0000
0000
0001
0000
1000
0000
0000
0100
0000
0000
0010
0000
0001
0000
0000
,
1000
0000
0100
2000
0000
0000
0000
0000
3001
0000
1000
0000
0200
0000
0000
0000
,
0310
0000
0100
0000
1000
0000
0000
0001
0000
0000
0100
0000
0001
0000
0000
0010
,
0000
0100
2000
3000
1100
0000
0000
0000
,
1001
0000
0000
1000
0100
0000
1000
0000
0001
0000
0000
0010
0100
0000
0010
0000
,
0001
0000
0000
0100
0010
0000
0100
0000
0001
0000
0000
1000
0010
0000
1000
0000
,
0001
0000
0000
0010
0100
0000
1000
0000
0001
0000
0000
1000
0100
0000
0010
0000
,
0001
0000
0000
0100
0010
0000
0100
0000
0001
0000
0000
1000
0010
0000
1000
0000
,
0001
0000
0100
0000
0010
0000
0000
1000
0100
1000
0000
0000
0001
0000
0000
0010
,
0100
0010
0000
0000
0001
0000
1000
0020
0000
0000
0000
0000
1030
0000
0000
1000
,
0020
0000
0000
0000
0130
0000
0010
0000
1000
0100
0000
0010
0100
0000
0010
0100
,
0000
0010
0200
0000
0000
0000
0000
0000
2300
0000
3000
0000
1002
0000
0000
0000
,
1003
0000
0001
0100
0001
0000
0020
0000
,
0130
0000
1000
0100
1000
0000
0002
0000
,
0103
0000
0010
0100
0001
0000
0010
0010
,
0010
0000
0100
1000
0001
0000
2001
0000
,
3001
0000
1000
0100
0010
0000
0200
0000
,
1300
0000
0001
0100
0010
0000
0200
0000
,
0301
0000
0100
0010
1000
0000
0001
0001
,
0001
0000
0000
0010
0100
0000
1000
0000
0020
0000
0000
0000
1030
0000
0000
0000
;

//---------------dance-single - ----------------
#NOTEDATA:;
#CHARTNAME:;
#STEPSTYPE:dance-single;
#DESCRIPTION:;
#CHARTSTYLE:;
#DIFFICULTY:Easy;
#METER:5;
#RADARVALUES:0.276937,0.328772,0.067723,0.093119,0.000000,229.000000,221.000000,8.000000,11.000000,0.000000,0.000000,0.000000,0.000000,0.000000,0.276937,0.328772,0.067723,0.093119,0.000000,229.000000,221.000000,8.000000,11.000000,0.000000,0.000000,0.000000,0.000000,0.000000;
#CREDIT:;
#NOTES:
0000
0000
0000
0000
,
0000
0000
0000
0000
,
0000
0000
0000
0000
,
0000
0000
0000
0000
,
0000
1000
0000
1000
,
0000
0001
0000
0001
,
0000
0010
0000
0010
,
0100
1000
0100
2000
,
3001
1000
0010
0100
,
0001
1000
0010
0100
,
0001
0010
0100
1000
,
0001
0010
0100
1000
,
0001
0100
0010
0100
,
0001
1000
0100
0010
,
0100
1000
0001
0100
,
0010
0100
0001
0100
,
0101
0000
0001
0000
1000
0100
0010
0000
,
0100
0000
1000
0000
0001
1000
0010
0000
,
0100
0000
0010
0000
1000
0100
0010
0000
,
0001
0100
0001
0000
,
0101
0000
0000
1000
0000
0000
1001
0000
,
1000
0000
0100
0000
,
1000
0000
0000
0001
0000
0000
0011
0000
,
0010
0000
0100
0000
,
0010
0001
1000
0001
,
0010
0001
1000
0001
,
0010
0100
0010
0001
,
0010
0100
0010
0001
,
0011
0000
0010
0000
0001
0000
1000
0010
,
1000
0000
0001
0000
0010
0000
0100
0010
,
0100
0000
1000
0000
0001
0000
1000
0001
,
1000
0000
0010
0000
0100
0000
0001
0100
,
0001
0010
0100
1000
,
0010
0100
0001
1000
,
0200
0000
0000
0000
,
0300
0000
0000
1001
,
1000
0010
1000
0001
,
1000
0100
0010
0001
,
0010
0100
0010
0001
,
0010
0000
0100
0000
1000
0000
0001
1000
,
0001
0000
0010
0100
0010
0000
0001
0100
,
0001
0000
1000
0010
1000
0000
0100
0000
,
0010
0001
0100
0010
,
0100
0002
0003
0000
,
2001
0010
3002
0100
,
2003
0000
0100
0000
3010
0000
1000
0001
,
0200
0010
0301
0010
,
0200
0001
2300
0010
,
3001
1000
0001
0000
0100
0010
0100
0000
,
0001
0010
0001
0000
1000
0010
1000
0000
,
0001
0100
0010
1000
,
0100
0000
0000
0000
0010
0000
0000
0000
0002
0000
0000
0003
1001
0000
0000
0000
,
1000
0100
0010
0001
,
0100
0010
0100
0001
,
0010
0000
0100
0000
0010
0000
0001
1000
,
0001
0100
0010
0100
,
0001
0010
0100
1000
,
0001
1000
0100
0010
,
0001
0000
1000
0000
0100
0000
0010
0001
,
0010
0000
0100
1000
0200
0000
0300
0000
;

//---------------dance-single - ----------------
#NOTEDATA:;
#CHARTNAME:;
#STEPSTYPE:dance-single;
#DESCRIPTION:;
#CHARTSTYLE:;
#DIFFICULTY:Beginner;
#METER:2;
#RADARVALUES:0.129398,0.151106,0.016931,0.000000,0.000000,107.000000,105.000000,2.000000,0.000000,0.000000,0.000000,0.000000,0.000000,0.000000,0.129398,0.151106,0.016931,0.000000,0.000000,107.000000,105.000000,2.000000,0.000000,0.000000,0.000000,0.000000,0.000000,0.000000;
#CREDIT:;
#NOTES:
0000
0000
0000
0000
,
0000
0000
0000
0000
,
0000
0000
0000
0000
,
0000
0000
0000
0000
,
0000
0001
0000
0001
,
0000
1000
0000
1000
,
0000
0001
0000
0001
,
0000
1000
0000
1000
,
0000
0100
0000
1000
,
0000
0100
0000
1000
,
0000
0001
0000
0010
,
0000
0001
0000
0010
,
0000
0100
0000
0010
,
0000
0100
0000
0010
,
0000
0001
0000
1000
,
0000
0001
0000
1000
,
1000
0000
0100
0000
,
0010
0000
0001
0000
,
1000
0000
0100
0000
,
0010
0000
0001
0000
,
1000
0000
0000
0000
,
0100
0000
0000
0000
,
0010
0000
0000
0000
,
0001
0000
0000
0000
,
1001
0000
1000
0000
,
0100
0000
1000
0000
,
0001
0000
1000
0000
,
0100
0000
1000
0000
,
0001
0000
0000
0000
,
0010
0000
0000
0000
,
0100
0000
0000
0000
,
1000
0000
0000
0000
,
0001
0000
0100
0000
,
0010
0000
1000
0000
,
0100
0000
0010
0000
,
0001
0000
0000
1001
,
0000
1000
0000
0001
,
0000
1000
0000
0010
,
0000
0100
0000
0010
,
0000
1000
0000
0001
,
0000
0010
0000
0100
,
0000
1000
0000
0010
,
0000
0100
0000
0010
,
0000
1000
0000
0000
,
0001
0000
0010
0000
,
0100
0000
1000
0100
,
1000
0000
0010
0000
,
0100
0000
0001
1000
,
0001
0000
0100
0000
,
0010
0000
0100
0000
,
0001
0000
1000
0000
,
0100
0000
1000
0000
,
1000
0000
0100
0000
,
1000
0000
0100
0000
,
0010
0000
0001
0000
,
0010
0000
0001
0000
,
0100
0000
0010
0000
,
0100
0000
0010
0000
,
1000
0000
0001
0000
,
1000
0000
0001
0000
;
