#VERSION:0.83;
#TITLE:VAMPIRE;
#SUBTITLE:;
#ARTIST:nyankobrq;
#TITLETRANSLIT:;
#SUBTITLETRANSLIT:;
#ARTISTTRANSLIT:;
#GENRE:Future Bass;
#ORIGIN:;
#CREDIT:;
#BANNER:VAMPIRE-bn.png;
#BACKGROUND:VAMPIRE-bg.png;
#PREVIEWVID:;
#JACKET:VAMPIRE-jacket.png;
#CDIMAGE:;
#DISCIMAGE:;
#LYRICSPATH:;
#CDTITLE:cdtitle.png;
#MUSIC:VAMPIRE.ogg;
#OFFSET:-0.002000;
#SAMPLESTART:26.485001;
#SAMPLELENGTH:13.233000;
#SELECTABLE:YES;
#BPMS:0.000=145.000,
113.000=72.500,
114.000=145.000,
239.000=72.500,
240.000=145.000;
#STOPS:79.500=0.414,
205.500=0.414;
#DELAYS:;
#WARPS:;
#TIMESIGNATURES:0.000=4=4;
#TICKCOUNTS:0.000=4;
#COMBOS:0.000=1;
#SPEEDS:0.000=1.000=0.000=0;
#SCROLLS:0.000=1.000;
#FAKES:;
#LABELS:0.000=Song Start;
#BGCHANGES:;
#KEYSOUNDS:;
#ATTACKS:
;

//---------------dance-single - ----------------
#NOTEDATA:;
#CHARTNAME:;
#STEPSTYPE:dance-single;
#DESCRIPTION:;
#CHARTSTYLE:;
#DIFFICULTY:Hard;
#METER:14;
#RADARVALUES:0.711757,0.826703,0.358259,0.258280,0.554051,598.000000,555.000000,43.000000,31.000000,0.000000,0.000000,0.000000,0.000000,0.000000,0.711757,0.826703,0.358259,0.258280,0.554051,598.000000,555.000000,43.000000,31.000000,0.000000,0.000000,0.000000,0.000000,0.000000;
#CREDIT:;
#NOTES:
// measure 0
0000
0000
0000
0000
,  // measure 1
0000
0000
0000
0000
,  // measure 2
0000
0000
0000
0000
,  // measure 3
0000
0000
0000
0000
,  // measure 4
0001
0010
0100
1000
0001
0010
0010
0010
,  // measure 5
0100
0000
0010
0000
0001
0000
0100
0000
0010
1000
0000
0010
1000
0000
0001
0000
,  // measure 6
0100
0000
0010
0000
0100
0000
0001
0000
1000
0000
0100
0000
0100
0000
0100
0010
,  // measure 7
0001
0000
1000
0000
0001
0000
0100
0000
0010
1000
0000
0010
1000
0000
0001
0000
,  // measure 8
1001
0000
1000
0000
0100
0010
0100
1000
,  // measure 9
0001
0000
0010
0000
0100
1000
0000
1000
0001
0000
0010
0100
0010
0000
0010
0000
,  // measure 10
0100
0000
1000
0000
0001
0010
0000
0010
0100
0000
0010
0001
0010
0000
0001
0000
,  // measure 11
1000
0000
0010
0000
0001
0000
0010
0000
1000
0001
0000
1000
0001
0000
0100
0000
,  // measure 12
0101
0001
0100
0010
0100
1000
0100
0001
,  // measure 13
0100
0000
0010
0000
1000
0000
0001
0000
0010
0100
0000
0010
0100
0000
1000
0001
,  // measure 14
1000
0001
0100
0010
1000
0001
0001
0001
,  // measure 15
1000
0010
0000
0100
0000
0001
0010
0000
0100
0000
0010
0000
0002
0000
0000
0003
,  // measure 16
0011
0000
0000
0000
0110
0000
0100
0000
0001
0100
0000
0010
0000
0100
0001
1000
,  // measure 17
0001
0000
0010
0000
0110
0000
0000
1001
0000
0000
0110
0000
0100
0000
0001
0000
,  // measure 18
1001
0000
1000
0000
0100
0000
0002
0000
0000
0000
0103
0000
1000
0100
1000
0100
,  // measure 19
1000
0000
0001
0000
0010
0000
0100
0000
0010
0000
0001
0000
1000
0010
1000
0000
,  // measure 20
1010
0000
0000
0000
0001
0010
0001
0010
0000
0100
1000
0100
1000
0000
0001
0000
,  // measure 21
0011
0000
0000
1010
0000
0000
0011
0000
0001
0000
1000
0000
1001
0000
1000
0000
,  // measure 22
0100
0000
0002
0000
0000
0000
0103
0000
1000
0100
1000
0100
1000
0000
0001
0000
,  // measure 23
0100
0010
0100
0001
0000
0001
0000
0000
0010
0100
0010
0000
0012
0000
0000
0000
,  // measure 24
2003
0000
0000
0000
3010
1000
0000
1000
0000
0001
0100
0001
1000
0000
0100
0000
,  // measure 25
1100
0000
0000
0101
0000
0000
1100
0000
1000
0000
0001
0000
1002
0000
0000
0000
,  // measure 26
0023
0000
0000
2030
0000
0000
3200
0000
0302
0000
0013
0001
0010
0001
0000
1000
,  // measure 27
0100
0000
0010
0000
0001
0000
1000
0000
0001
0100
0001
0000
0202
0000
0000
0000
,  // measure 28
0000
0000
0303
0000
0110
0000
0000
0000
1001
0000
1000
0000
0100
1000
0100
1000
,  // measure 29
0100
1000
0100
1000
0100
0000
0010
0000
0021
0000
0000
0000
0230
0000
0300
0000
,  // measure 30
0000
0000
1000
0100
1000
0001
1000
0100
1000
0000
0000
0100
0010
0000
0100
0000
,  // measure 31
1000
0000
0001
0000
0100
0000
0001
0000
0010
0000
0100
0000
1000
0100
0000
0010
,  // measure 32
0000
1000
0000
0010
0000
0000
0001
0010
0100
0000
0010
0000
0001
1000
0000
0010
,  // measure 33
0100
0000
0001
1000
0001
0010
0000
0010
0001
1000
0001
1000
0001
1000
0001
1000
,  // measure 34
0100
0010
0100
0010
0100
0010
0100
0010
0001
0000
0000
0100
0010
0100
0000
0001
,  // measure 35
0000
1000
0010
0000
1000
0000
0100
0010
0200
0000
0000
0000
0000
0000
0010
0000
,  // measure 36
0300
0000
0010
0100
1000
0000
0100
0000
0001
0000
0100
0000
0010
0000
0001
0000
,  // measure 37
0000
1000
0001
0100
0020
0000
0000
1030
,  // measure 38
0010
0001
0010
1000
0001
0100
0001
1000
,  // measure 39
0002
0000
0023
0000
0130
0010
0001
1000
,  // measure 40
0001
0100
0010
0100
0001
0010
0100
0010
,  // measure 41
0001
0100
0000
0001
0100
0000
0010
0000
1000
0000
0100
0000
0001
0000
0100
0000
,  // measure 42
1000
0010
0100
0001
0010
1000
0010
0001
,  // measure 43
1000
0100
0000
1000
0100
0000
0010
0000
0001
0000
1000
0000
0001
0000
0100
0000
,  // measure 44
1000
0100
0010
0100
0001
0010
0100
1000
,  // measure 45
0100
0010
0000
0100
0010
0000
0100
0010
0100
0000
1000
0000
0001
0000
1000
0000
,  // measure 46
0010
0000
0100
0000
0100
0000
0100
0000
0001
0010
0000
0001
0000
1000
0100
0000
,  // measure 47
0010
0100
0010
0000
0002
0000
0000
0003
0011
0000
0000
0000
0010
0000
0000
0000
,  // measure 48
0001
1000
0001
1000
0000
0010
0100
0010
0100
0000
0001
0000
1001
0000
0000
0110
,  // measure 49
0000
1001
1000
0100
1100
1000
0100
0002
,  // measure 50
0000
0000
0103
0000
1000
0100
1000
0100
1000
0000
0001
0000
0100
0010
0000
1000
,  // measure 51
0000
0000
0001
0000
0010
0100
0010
0000
0101
0000
0000
0000
0001
1000
0001
1000
,  // measure 52
0000
0010
0100
0010
0100
0000
0001
0000
0101
0000
0000
1100
0000
0000
0101
0000
,  // measure 53
1000
0001
1001
1000
0100
0002
0000
0103
,  // measure 54
1000
0100
1000
0100
1000
0000
0001
0000
0100
0001
1000
0001
0000
0000
0100
0000
,  // measure 55
0010
0100
0010
0000
0200
0000
0000
0000
0302
0000
0000
0000
1003
0001
1000
0001
,  // measure 56
0000
0010
0100
0010
0100
0000
1000
0000
1010
0000
0000
0110
0000
0000
1010
0000
,  // measure 57
0001
0000
0010
0000
0012
0000
0000
0000
0023
0000
0000
2030
0000
0000
3200
0000
,  // measure 58
0302
0000
0013
0001
0010
0001
0000
1000
0100
0000
0010
0000
0001
0000
0010
0000
,  // measure 59
0100
0010
0100
0000
0220
0000
0000
0000
0000
0000
0330
0000
1001
0000
0000
0000
,  // measure 60
0110
0000
0100
0000
0001
1000
0001
1000
0001
1000
0001
1000
0100
0000
0010
0000
,  // measure 61
0110
0000
0000
0100
2000
0000
3000
0000
0000
0000
0001
1000
0001
0100
0001
1000
,  // measure 62
0000
0000
0000
0100
0010
0000
0000
0001
0000
0000
0100
0000
0001
0000
1000
0000
,  // measure 63
1100
0000
0100
0000
1000
0010
0001
0010
,  // measure 64
1000
0000
0001
0000
0010
0100
1000
0100
,  // measure 65
0010
0000
0001
0000
1000
0010
0001
0010
,  // measure 66
1000
0000
0010
0000
0100
0001
1000
0001
,  // measure 67
0101
0000
0100
0010
0000
1000
0001
0100
,  // measure 68
0001
0000
0010
0100
0000
0010
0100
1000
,  // measure 69
1100
0000
0010
0000
1000
0100
1000
0010
,  // measure 70
1000
0000
0100
0000
1000
0000
0001
0000
0010
0100
0000
0010
0100
0000
1000
0000
;

//---------------dance-single - ----------------
#NOTEDATA:;
#CHARTNAME:;
#STEPSTYPE:dance-single;
#DESCRIPTION:;
#CHARTSTYLE:;
#DIFFICULTY:Medium;
#METER:11;
#RADARVALUES:0.545125,0.620027,0.341596,0.349927,0.162466,458.000000,417.000000,41.000000,42.000000,0.000000,0.000000,0.000000,0.000000,0.000000,0.545125,0.620027,0.341596,0.349927,0.162466,458.000000,417.000000,41.000000,42.000000,0.000000,0.000000,0.000000,0.000000,0.000000;
#CREDIT:;
#NOTES:
0000
0000
0000
0000
,
0000
0000
0000
0000
,
0000
0000
0000
0000
,
0000
0000
0000
0000
,
1000
0000
0100
1000
0100
0000
0010
0100
,
0010
0000
0000
0000
0001
0000
0010
0000
0001
1000
0000
0000
0100
0000
0010
0000
,
0100
0000
1000
0010
1000
0000
0001
0100
,
0001
0000
0000
0000
0010
0000
0100
0000
0010
0001
0000
0000
1000
0000
0001
0000
,
1001
0000
1000
0000
0010
1000
0001
1000
,
0010
0000
0100
0000
0001
0100
1000
0100
,
0001
0000
0010
0000
0100
1000
0001
1000
,
0100
0000
0010
0000
0001
0010
1000
0010
,
0011
0000
0010
0000
1000
0010
0001
0000
,
0100
0000
0010
0000
0001
0010
1000
0000
,
1002
0100
1000
0100
,
1003
0001
0000
0010
0000
0001
0010
0000
0100
0000
0000
0000
0200
0000
0000
0000
,
1300
0000
1100
0100
0010
0100
1000
0001
,
0100
0000
0010
0000
0110
0000
0000
0110
0000
0000
0110
0000
1000
0000
0001
0000
,
1001
1000
0100
0020
0000
1030
0010
0001
,
0100
0000
0001
0000
0010
0000
0000
0100
0000
0000
1000
0000
0001
0000
1000
0000
,
0110
0000
0100
0010
1000
0001
0010
0100
,
1100
0000
0000
1100
0000
0000
1100
0000
1000
0000
0001
0000
0101
0000
0100
0000
,
0010
1000
0000
0001
0010
1000
0100
0001
,
1000
0000
0000
0100
0000
0000
1000
0000
0001
0000
0010
0000
0002
0000
0000
0000
,
0203
0000
1300
0100
0001
0010
0100
0010
,
0110
0000
0000
0110
0000
0000
0110
0000
1000
0000
0001
0000
2001
0000
0000
0000
,
3200
0000
0000
0302
0000
0000
0203
0000
2300
0000
3100
1000
0100
0000
0000
1000
,
0001
0100
0001
1000
0100
0010
0022
0000
,
0000
0000
0033
0000
0011
0000
0000
0000
1010
0000
1000
0000
0000
0001
0000
0000
,
1000
0000
0100
0010
0120
0000
0032
0000
,
0003
0000
1000
0001
1000
0000
0010
2000
0000
0000
0000
0000
0100
0000
0000
0000
,
0000
0000
0010
3000
1001
0000
1000
0100
,
0000
0000
0100
0000
0001
0000
1000
0000
0001
0000
0000
0000
0010
0000
0000
0100
,
0000
0100
1000
0001
1000
0000
0010
0100
,
0000
0000
0100
0000
1000
0000
0001
0000
0100
0000
0000
0000
0010
0000
0000
1000
,
0000
1000
0100
1000
0002
0000
0100
0000
,
1003
0001
0010
1000
0100
0001
1000
0001
,
0000
0100
0010
0100
0002
0000
0100
0000
,
2003
3200
0302
0203
2300
3020
0032
0023
,
2030
3002
0103
0001
,
1000
0100
0001
0100
1000
0000
0010
0000
,
0100
0010
0001
0010
0100
0000
0001
0000
,
1000
0010
0100
0010
1000
0000
0001
0000
,
0100
0010
0001
0010
0100
0000
0010
0100
,
0001
0000
1000
1000
1000
0000
0100
0010
,
0000
0001
1000
0010
0200
0000
1000
0000
,
0000
0000
0000
0000
0001
0000
0000
0000
0301
0100
0000
0010
0000
0100
0001
0000
,
1000
0100
0020
0000
0031
0000
0011
0000
,
1000
0000
0000
0100
0000
0000
1000
0100
1000
0000
0001
0000
1001
0000
0000
1001
,
0000
1001
0001
0010
0011
0010
0100
2000
,
0000
3100
1000
0001
0010
1000
0010
0001
,
0100
0000
0010
0000
0100
0010
0100
0000
1100
0000
0000
0000
1000
0000
0001
0000
,
0100
0000
0001
0000
1000
0000
0100
0000
0110
0000
0000
0110
0000
0000
0110
0000
,
0001
0100
0101
0001
1000
0100
0000
0010
,
0100
0000
1000
0000
0001
0000
0100
0000
0001
0000
0000
1000
0000
0000
0001
0000
,
0100
0001
2000
0000
3200
0000
0310
0100
,
1000
0000
0001
0000
0010
0000
0100
0000
1100
0000
0000
1100
0000
0000
1100
0000
,
0001
0000
1000
0000
2001
0000
0000
0000
3200
0000
0000
0302
0000
0000
0203
0000
,
1300
0000
0010
1000
0000
0001
0000
0010
0001
0000
0010
0000
1000
0000
0010
0000
,
0001
0010
0001
0000
0022
0000
0000
0000
0000
0000
0033
0000
0011
0000
0000
0000
,
1010
0000
1000
0000
0000
0001
0000
0000
0100
0000
0000
0000
0010
0000
0100
0000
,
0002
0000
0023
0000
0030
0100
0010
0001
,
2000
0000
0100
0000
0000
0000
0001
3000
,
1001
0000
0001
0100
0001
0000
0010
0100
,
0010
0000
0000
0000
0001
0000
0100
0000
0001
1000
0000
0000
0100
0000
0010
0000
,
0001
0000
1000
0001
0100
0000
0010
0100
,
0001
0000
0000
0000
0010
0000
0100
0000
1000
0100
0000
0000
0010
0000
0100
0000
,
1100
0000
1000
0001
0000
0100
0001
0100
,
0001
0000
0000
0000
0010
0000
0100
0000
0010
0100
0000
0000
1000
0000
0100
0000
,
2000
0001
0000
0001
,
3001
0000
0100
0000
1000
0000
0100
0000
0001
0010
0000
0100
0010
0000
0001
0000
;

//---------------dance-single - ----------------
#NOTEDATA:;
#CHARTNAME:;
#STEPSTYPE:dance-single;
#DESCRIPTION:;
#CHARTSTYLE:;
#DIFFICULTY:Easy;
#METER:6;
#RADARVALUES:0.363020,0.412622,0.116642,0.166632,0.000000,305.000000,291.000000,14.000000,20.000000,0.000000,0.000000,0.000000,0.000000,0.000000,0.363020,0.412622,0.116642,0.166632,0.000000,305.000000,291.000000,14.000000,20.000000,0.000000,0.000000,0.000000,0.000000,0.000000;
#CREDIT:;
#NOTES:
0000
0000
0000
0000
,
0000
0000
0000
0000
,
0000
0000
0000
0000
,
0000
0000
0000
0000
,
0002
0000
0100
0000
,
2003
0000
0010
0000
,
3002
0000
0000
0000
0100
0000
0103
0001
,
1000
0000
0000
0000
0100
0010
0100
0000
,
0110
0010
0100
0010
,
0100
1000
0001
1000
,
0001
0100
0010
0100
,
0010
1000
0100
1000
,
0100
0010
0001
1000
,
0100
0010
0001
1000
,
2001
0000
0000
0000
,
3001
0000
0000
0000
0010
0100
0020
0000
,
0031
0000
1000
0000
0001
0010
0100
0000
,
0010
0000
0001
0000
0100
0010
1000
0000
,
0001
0000
0100
0000
0010
0100
0001
0000
,
1000
0000
0010
0000
0100
0010
1000
0001
,
1001
0000
1000
0100
0010
0000
0100
0000
,
1000
0000
0001
0100
0001
0000
0010
0000
,
0100
0000
1000
0100
1000
0000
0001
0000
,
0100
0000
0010
0100
0010
0000
2000
0000
,
3200
0000
1300
0000
0010
0000
0100
0010
,
1000
0000
0000
0001
1000
0001
0100
0000
,
0010
0000
0000
1000
0010
1000
0001
0000
,
0010
0000
0000
0100
0010
0100
2000
0000
,
0000
3001
1001
0000
,
0000
1100
0011
1001
,
0000
1000
0100
0010
0002
0000
0100
0000
,
0000
0100
0103
0001
,
1000
0001
0100
0000
0010
0000
0100
0000
,
0001
0010
0100
0010
0001
0000
1000
0000
,
0010
0100
0001
0000
0100
0000
0010
0000
,
1000
0100
0010
0100
2000
0000
0000
0000
,
3000
0001
0010
0100
0010
0001
1000
0100
,
0000
0010
0100
1000
0020
0000
0000
0000
,
0130
0010
1000
0001
0100
0010
1000
0100
,
0020
0032
2003
0100
,
0000
0001
3001
1000
,
0100
0000
1000
0001
1000
0000
0100
0000
,
0010
1000
0100
1000
0010
0000
1000
0000
,
0001
0000
0100
0010
0100
0000
0001
0000
,
0010
0100
0010
0000
0001
0000
1000
0000
,
0100
0010
0100
1000
0200
0000
1000
0000
,
0000
0000
1000
0000
1300
0100
0010
0100
,
1000
0001
1001
0000
,
0110
0000
0100
0000
0010
0100
0001
0000
,
0000
1000
0001
1000
0010
0000
0100
0000
,
0000
0001
0100
0001
1000
0000
0100
0000
,
0000
0010
0100
0010
0110
0000
0000
1000
,
0001
1000
0100
0000
0010
0000
0000
0100
,
0010
0001
1000
0000
0010
0000
0000
0100
,
0010
1000
0001
0000
0100
0000
0000
0010
,
0100
0001
2000
0000
3200
0000
0310
0000
,
0100
0000
1000
0001
0100
0000
0000
0010
,
0100
0001
1000
0000
0001
0000
0000
0010
,
0100
0010
0001
0000
1000
0000
0010
0100
,
0001
1000
0200
0000
0000
0000
0300
0000
,
0110
0000
0000
1100
,
0011
0000
1001
0000
0000
1000
0001
1000
,
0020
0100
0000
0100
,
0130
0000
0010
0100
,
0010
0000
1000
0001
,
1000
0000
0100
0010
,
0100
0000
1000
0001
,
1000
0000
0000
0010
0000
0000
0100
0000
,
0010
0000
0000
1000
0000
0000
0001
0000
,
0200
0010
0000
0010
,
0310
1000
0100
1000
;

//---------------dance-single - ----------------
#NOTEDATA:;
#CHARTNAME:;
#STEPSTYPE:dance-single;
#DESCRIPTION:;
#CHARTSTYLE:;
#DIFFICULTY:Beginner;
#METER:2;
#RADARVALUES:0.129735,0.204124,0.049990,0.000000,0.000000,109.000000,103.000000,6.000000,0.000000,0.000000,0.000000,0.000000,0.000000,0.000000,0.129735,0.204124,0.049990,0.000000,0.000000,109.000000,103.000000,6.000000,0.000000,0.000000,0.000000,0.000000,0.000000,0.000000;
#CREDIT:;
#NOTES:
0000
0000
0000
0000
,
0000
0000
0000
0000
,
0000
0000
0000
0000
,
0000
0000
0000
0000
,
0001
0000
0000
0000
,
0010
0000
0000
0000
,
0100
0000
0000
0000
,
1000
0000
0000
0000
,
1001
1000
0000
1000
,
0000
0100
0000
0100
,
0000
0010
0000
0010
,
0000
0001
0000
0001
,
1000
0001
0000
0010
,
0000
0001
0000
0010
,
0110
0000
0000
0000
,
1000
0000
0001
0000
,
1001
1000
0000
1000
,
0000
0001
0000
0001
,
0000
0010
0000
0010
,
0000
0100
0000
0100
,
1000
0000
1000
0000
,
0010
0000
0010
0000
,
0100
0000
0100
0000
,
0001
0000
0001
0000
,
1001
0000
1000
0000
,
0010
0000
0100
0000
,
0010
0000
1000
0000
,
0001
0000
1000
0000
,
0000
0100
0100
0000
,
0000
0000
1000
0000
,
0000
0000
0001
0000
,
0000
0000
0010
0000
,
0000
0000
0001
0000
,
0000
0000
1000
0000
,
0000
0000
0100
0000
,
0000
0000
1000
0000
,
0000
0000
0001
0000
,
0000
0000
0100
0000
,
0000
0000
0010
0000
,
0000
0000
0100
0000
,
0000
0000
0001
0000
,
0000
0000
0010
0000
,
0000
0000
0100
0000
,
0000
0000
1000
0000
,
0000
0000
0001
0000
,
0000
0000
1000
0000
,
0000
0000
0100
0000
,
0000
0000
0110
0000
,
1001
0000
1000
0000
,
0001
0000
1000
0000
,
0001
0000
0100
0000
,
0010
0000
0100
0000
,
0010
0000
1000
0000
,
0001
0000
0010
0000
,
0100
0000
1000
0000
,
0001
1000
0001
0000
,
0010
0000
0100
0000
,
0010
0000
0001
0000
,
1000
0000
0100
0000
,
0010
0000
0000
0001
,
1000
0000
0000
0000
,
0100
0000
0000
0000
,
1000
0000
0000
0000
,
0001
0000
0000
0000
,
0010
0000
0000
0000
,
0100
0000
0000
0000
,
1000
0000
0000
0000
,
0010
0000
0000
0000
,
0100
0000
0000
0000
,
0001
0000
0000
0000
,
1000
0000
0000
0000
;
