#TITLE:TheNeedleDrop loses his mind Reviewing Saturation III;
#SUBTITLE:;
#ARTIST:MuchDank;
#TITLETRANSLIT:;
#SUBTITLETRANSLIT:;
#ARTISTTRANSLIT:;
#GENRE:Fantano;
#CREDIT:;
#BANNER:TheNeedleDrop loses his mind Reviewing Saturation III-bn.png;
#BACKGROUND:TheNeedleDrop loses his mind Reviewing Saturation III-bg.png;
#LYRICSPATH:;
#CDTITLE:cdtitle.png;
#MUSIC:TheNeedleDrop loses his mind Reviewing Saturation III.ogg;
#OFFSET:-0.429000;
#SAMPLESTART:2.900000;
#SAMPLELENGTH:4.900000;
#SELECTABLE:YES;
#BPMS:0.000000=123.599998
;
#STOPS:71.000000=1.214000,
71.020836=-3.883495
;
#BGCHANGES:-0.729=TheNeedleDrop loses his mind Reviewing Saturation III.avi=1.000=0=0=0=StretchNoLoop==CrossFade_Fastest==,
99999=-nosongbg-=1.000=0=0=0 // don't automatically add -songbackground-
;
#KEYSOUNDS:;
#ATTACKS:TIME=57.709999:LEN=1.210000:MODS=Bumpy, Overhead, Cs-note_v2:TIME=62.810001:LEN=0.490000:MODS=Tornado;

//---------------dance-single - Y'all know this is a shitpost, right?----------------
#NOTES:
     dance-single:
     Stepthony Chartano here:
     Challenge:
     53:
     0.621023,0.767047,0.189007,0.708776,1.228545,368.000000,352.000000,16.000000,60.000000,16.000000,1.000000,0.621023,0.767047,0.189007,0.708776,1.228545,368.000000,352.000000,16.000000,60.000000,16.000000,1.000000:
// measure 0
0000
0000
0000
0000
,  // measure 1
0002
0000
0000
0000
0000
0000
2003
0000
3000
0000
0000
0000
0001
0000
0100
0000
0001
0000
0000
0000
0000
0010
0000
0000
,  // measure 2
0100
0000
0000
2000
0000
0000
3200
0000
0000
0300
0000
0000
1000
0000
0100
0000
0000
0000
0010
0000
0001
0000
1000
0000
,  // measure 3
0001
0000
0000
0000
0000
0000
0200
0000
0000
0000
0000
0000
0000
0000
0000
0000
0000
0000
0000
0000
0000
0010
0000
0000
0300
0000
0000
0000
0000
0000
0010
0000
0000
0000
0000
0000
0000
0000
0000
1000
0000
0000
0000
0000
0000
0000
0010
0000
,  // measure 4
0000
0000
0000
0000
0000
0000
0000
0000
0100
0000
0000
0000
0000
0000
0000
0000
0000
0000
0000
0000
0000
0000
0000
0000
0010
0000
0000
0000
0000
0000
0000
0000
0000
0000
0000
0000
0000
0000
0000
0000
1000
0000
0000
0000
0000
0000
0000
0000
0000
0000
0000
0000
0000
0000
0001
0000
0000
0000
0000
0000
0000
0000
0000
0000
0000
0000
0000
0000
0000
0000
0000
0000
4000
0000
0000
0000
0000
0000
0000
0000
0000
0000
0000
0000
3000
0000
0000
0000
0000
0000
0000
0000
0000
0000
0000
0000
0000
0000
0000
0000
0000
0000
0000
0000
0000
0000
0000
0000
0004
0000
0000
0000
0000
0000
0000
0000
0000
0000
0000
0000
0003
0000
0000
0000
0000
0000
0000
0000
0000
0000
0000
0000
0000
0000
0000
0000
0000
0000
0000
0000
0000
0000
0000
0000
0000
0000
0000
0000
0000
0000
0400
0000
0000
0000
0000
0000
0000
0000
0000
0000
0000
0000
0300
0000
0000
0000
0000
0000
0000
0000
0000
0000
0000
0000
0000
0000
0000
0000
0000
0000
0000
0000
0000
0000
0000
0000
0000
0000
0000
0000
0000
0000
,  // measure 5
0000
0040
0000
0030
0000
0000
0000
0000
4000
0000
3000
0000
0000
0000
0004
0000
0003
0000
0000
0000
0000
0400
0000
0300
0000
0000
0000
0000
0040
0000
0030
0000
,  // measure 6
0000
0000
0000
4000
0000
3000
0000
0000
0000
0000
0004
0000
0003
0000
0000
0000
0000
0000
0400
0000
0300
0000
0000
0000
0001
0000
0000
0000
0010
0000
0000
0001
,  // measure 7
0000
0000
0000
1000
0000
0100
0000
0000
1000
0000
0000
0000
0000
0000
0001
0000
0000
0000
1000
0000
0000
0000
0001
0000
0020
0000
0000
0000
0000
0000
1030
0000
,  // measure 8
0010
0001
1000
0000
0010
1000
0001
0000
0000
0100
0010
1000
0001
0010
0000
0100
,  // measure 9
1000
0000
0001
0000
1000
0000
0100
0000
0010
0000
0000
0001
0000
0000
1000
0000
0000
0010
0000
0000
0100
0000
0000
0000
0001
0000
0100
0000
0010
0000
1000
0000
,  // measure 10
0100
0000
0000
0000
0000
0000
1000
0000
0100
0000
0000
0000
0000
1000
0000
0010
0000
0000
1000
0000
0001
0000
1000
0000
0000
0000
0010
0000
0000
0000
0100
0000
,  // measure 11
0000
0000
0010
0000
0100
0000
0001
0000
1000
0000
0000
0100
0000
0000
1000
0000
0001
0000
2000
0000
0000
0000
3000
0000
0010
0000
1000
0000
0001
0000
0000
0000
,  // measure 12
0100
0000
0010
0100
0010
0000
2000
0002
0000
3003
0000
0000
0000
0000
MMMM
0000
,  // measure 13
0000
0000
0000
0000
0000
0000
0000
0000
0000
0000
0000
0000
0001
0000
0000
0100
0000
0000
0001
0000
0000
0000
0000
0000
1000
0000
0100
0000
0000
0000
1000
0000
,  // measure 14
0100
0000
0010
0000
0002
0000
0000
0000
0000
0000
0103
0000
0000
0000
0101
0000
0000
0000
1100
0000
0000
0000
0000
1000
0100
0000
0000
0000
0000
0000
1000
0000
,  // measure 15
0000
0000
0010
0000
0000
0000
1000
0000
0000
0001
0000
0000
1000
0000
0100
0000
0010
0000
0001
0000
0100
0000
0001
0000
0000
0000
0000
0000
1001
0000
0000
0000
,  // measure 16
1100
0000
0000
0000
1001
0000
0000
0000
0000
0000
0000
0000
0000
0000
0000
0000
0000
0000
0000
0002
0000
0000
0000
0000
0000
0000
0003
0000
0000
0000
0000
2000
,  // measure 17
0000
0000
0000
3000
0000
0000
0000
0000
0010
0000
0000
0000
0100
0000
0040
0400
0000
0000
0000
0000
0000
0000
0000
0000
0000
0000
0000
0000
0000
0000
0000
0000
,  // measure 18
0000
0000
0000
0000
,  // measure 19
0330
0000
0000
0000
0000
0000
0000
0000
0000
0000
0000
0000
0000
0000
0000
0000
0000
0000
0000
0000
0000
0000
0000
0000
0000
0000
0000
MMMM
0000
MMMM
0000
0000
,  // measure 20
MMMM
0000
0000
0000
1000
0000
0010
0000
0000
1000
0000
0000
0001
0000
0100
0000
0001
0000
0000
0000
0010
0000
0000
0000
0000
0001
0000
2000
0000
0000
0000
0000
,  // measure 21
3000
0000
0100
0000
0000
1000
0000
0000
0000
0000
0010
0000
1000
0000
0000
0001
0010
0000
0000
0000
0000
0001
1000
0000
0001
0000
0010
0000
0100
0000
1000
0000
,  // measure 22
0010
0000
0000
0000
1000
0000
0000
0000
0001
0000
0000
0000
0100
0000
0000
0001
0000
0000
0000
0000
1000
0000
0100
0000
1000
0000
0000
0000
0001
0000
0100
0000
,  // measure 23
0000
0000
0002
0000
0000
0003
0020
0000
0000
0030
0000
0000
0001
0000
0000
0000
1000
0000
0100
0000
0000
1000
0100
0000
0000
2000
0000
0000
0000
3000
0002
0000
,  // measure 24
0000
0000
0003
0000
0100
0000
0001
0000
1000
0000
0000
0000
0010
0000
0000
0000
0100
0000
0010
0000
1000
0000
0000
0001
0000
1000
0000
0000
0100
0000
0000
0000
,  // measure 25
0010
0000
0000
0000
0001
0000
0000
0000
1000
0000
0001
0000
0000
0000
0010
0000
0000
0001
0000
2000
0000
0000
0000
0000
3000
0000
0010
0000
1000
0000
0001
0000
,  // measure 26
0010
0000
0000
0001
0000
0000
0000
1000
0000
0000
0100
1000
0000
0000
0001
0000
1000
0000
0000
0000
0200
0000
0000
0000
0000
0300
0000
0000
2200
0000
0000
0000
,  // measure 27
3300
0000
0022
0000
0000
0000
0000
0000
0000
0000
0033
0000
0000
0000
2000
0000
0000
0000
3000
0000
0100
0000
0000
2000
0000
0000
3000
0000
0000
0001
0000
0000
,  // measure 28
0010
0000
0001
0000
1000
0100
0010
0001
1000
0002
0000
0003
2000
0000
0000
0000
,  // measure 29
0000
0000
0000
0000
0000
0000
3100
0000
1000
0000
0001
0000
0000
0001
0010
0100
,  // measure 30
1000
0000
0001
0000
0100
0000
0001
0000
1000
0000
0000
0010
0000
0000
1000
0000
0000
0000
0001
0000
0000
0100
0000
0000
0001
0000
0000
0000
4004
0000
0000
0000
,  // measure 31
0000
0000
0000
0000
0000
0000
0000
0000
0000
0000
0000
0000
0000
0000
0000
0000
3003
0000
0000
1000
0000
0000
0001
0000
0000
0001
0000
0000
0000
0000
0100
0000
,  // measure 32
0010
1000
0001
0020
0000
0000
0030
0200
0000
0000
0000
0000
0300
1100
0000
0200
,  // measure 33
2000
0000
0000
0000
3300
0000
0000
0000
0000
0000
0000
0000
0000
0000
0000
0000
0004
0000
0040
0000
0000
0000
0000
0000
0033
0000
0000
1000
0000
0000
0001
0000
,  // measure 34
0000
0000
0010
0000
0100
0000
1000
0000
0000
0000
0011
0000
0000
0000
2020
0000
0000
0000
3030
1010
0000
0000
0001
0000
0000
0000
1000
0000
0100
0000
1000
0000
,  // measure 35
0001
0000
0100
0000
0010
0000
1000
0000
0100
0000
0010
0000
0000
0001
0000
0000
1000
0000
0000
0100
0000
1000
0000
0010
0000
0000
1000
0000
0001
0000
0000
0010
,  // measure 36
0000
0001
0000
1000
0000
0000
0010
0000
1000
0000
0002
0000
0000
0000
0003
0000
1000
0000
0100
0000
0010
0000
0001
0000
1000
0000
0001
0000
0100
0000
0010
0000
,  // measure 37
0000
0000
1000
0000
0001
0000
0100
0000
0010
0000
1000
0000
0000
0000
0001
0000
0000
0000
0000
0010
0000
0100
0000
0000
0000
1000
0000
0000
0001
0000
0000
1000
,  // measure 38
0000
0000
0000
0000
2000
0000
0000
0000
3100
0000
2000
0000
3002
0000
0000
0000
0013
0000
0000
0000
0001
0000
1000
0000
0001
0000
0000
0010
0000
0000
0001
0000
,  // measure 39
0000
1000
0000
0000
0000
0200
0000
0000
0000
0000
0300
1000
0000
0100
0000
0000
1000
0000
0000
0001
0000
0000
0020
0000
0000
0000
0030
0002
0000
0000
0000
0003
,  // measure 40
0000
0000
2000
0000
3000
0000
2000
0000
0200
0000
0000
3320
0000
0000
0030
0002
,  // measure 41
0000
2003
0000
3000
2002
0000
0000
0000
0000
3003
0000
0000
1000
0100
0000
2200
,  // measure 42
0000
0000
3300
0202
0000
0303
0101
0000
0000
0002
0000
0000
0003
0000
1000
0000
0100
0000
0010
0000
0000
0001
0000
0000
0000
1000
0000
0000
0010
0000
0100
0000
,  // measure 43
0001
1000
0001
0010
0100
2000
0000
0000
3002
0000
0000
1003
0001
0000
1000
0000
,  // measure 44
0100
0000
1000
0000
0010
0000
1000
0000
0000
0000
2000
0000
3000
0200
0000
0300
0020
0000
0030
0002
0000
0003
2000
0000
0000
3000
0000
0000
0000
0000
0000
0000
;
