#TITLE:The Sound of Goodbye;
#SUBTITLE:;
#ARTIST:Armin van Buuren presents Perpetuous Dreamer;
#TITLETRANSLIT:;
#SUBTITLETRANSLIT:;
#ARTISTTRANSLIT:;
#GENRE:Uplifting Trance;
#CREDIT:;
#BANNER:The Sound of Goodbye-bn.png;
#BACKGROUND:The Sound of Goodbye-bg.png;
#LYRICSPATH:;
#CDTITLE:cdtitle.png;
#MUSIC:The Sound of Goodbye.ogg;
#OFFSET:-0.006000;
#SAMPLESTART:68.577003;
#SAMPLELENGTH:13.714000;
#SELECTABLE:YES;
#BPMS:0.000000=140.000000
;
#STOPS:
;
#BGCHANGES:;
#KEYSOUNDS:;
#ATTACKS:;

//---------------dance-single - ----------------
#NOTES:
     dance-single:
     :
     Easy:
     6:
     0.266783,0.366449,0.044044,0.264266,0.000000,212.000000,207.000000,5.000000,30.000000,0.000000,0.000000,0.266783,0.366449,0.044044,0.264266,0.000000,212.000000,207.000000,5.000000,30.000000,0.000000,0.000000:
// measure 0
0000
0000
0000
0000
,  // measure 1
0000
0000
0000
0000
,  // measure 2
0000
0000
0000
0000
,  // measure 3
0000
0000
0000
0000
,  // measure 4
1000
0000
0001
0000
,  // measure 5
1000
0000
0001
0000
,  // measure 6
0020
0000
0000
0000
,  // measure 7
0200
0000
0000
0330
,  // measure 8
1001
0000
1000
0001
,  // measure 9
1000
0000
0001
0010
,  // measure 10
0001
0000
0100
0010
,  // measure 11
0100
0000
0001
1000
,  // measure 12
0001
0000
1000
0100
,  // measure 13
1000
0000
0010
0100
,  // measure 14
0010
0000
1000
0001
,  // measure 15
2000
0000
0010
3000
,  // measure 16
1000
0000
0001
1000
,  // measure 17
0001
0000
0100
0010
,  // measure 18
0100
0000
0001
0100
,  // measure 19
0001
0000
1000
0100
,  // measure 20
1000
0000
0001
0010
,  // measure 21
0001
0000
1000
0000
,  // measure 22
0000
0000
0000
0000
,  // measure 23
0200
0000
0000
0300
,  // measure 24
1100
0000
0000
0000
,  // measure 25
1000
0000
0001
0000
,  // measure 26
0100
0000
0000
0000
,  // measure 27
0001
0000
0010
0000
,  // measure 28
0100
0000
0000
0000
,  // measure 29
1000
0000
0100
0000
,  // measure 30
0010
0000
0000
0000
,  // measure 31
0001
0000
1000
0000
,  // measure 32
1001
0001
0100
0001
,  // measure 33
2000
0100
3002
0100
,  // measure 34
1003
0001
0100
0001
,  // measure 35
0020
0100
0032
0100
,  // measure 36
1003
0001
0100
0001
,  // measure 37
2000
0100
3002
0100
,  // measure 38
1003
0100
0010
0001
,  // measure 39
0200
0001
0320
1000
,  // measure 40
0230
0000
0000
0302
0000
0000
0103
0000
,  // measure 41
0001
0100
0001
0000
0010
0000
0100
1000
,  // measure 42
0001
0000
1000
0000
0010
0100
0010
2000
,  // measure 43
0000
0000
3001
0000
1000
0000
0100
0010
,  // measure 44
0002
0000
0000
2003
0000
0000
3010
0000
,  // measure 45
1000
0000
0001
0000
0010
0100
1000
0000
,  // measure 46
0002
0000
0000
2003
0000
0000
3100
0000
,  // measure 47
0020
0100
0032
0100
,  // measure 48
1003
0000
0001
0100
0001
0000
0010
0000
,  // measure 49
0100
0000
0010
0100
1000
0000
0001
2000
,  // measure 50
0010
0000
0001
0000
3010
1000
0100
0020
,  // measure 51
0001
0000
0031
0000
0010
0000
0100
0010
,  // measure 52
0001
0000
1000
0000
0001
0000
0100
0001
,  // measure 53
0100
0000
0001
0000
0010
0200
1000
0000
,  // measure 54
0320
0000
0000
0032
0000
0000
1003
0001
,  // measure 55
2000
0100
3020
0100
,  // measure 56
1030
0000
0010
1000
0001
0000
0010
0001
,  // measure 57
1000
0000
0100
1000
0001
0000
0100
0001
,  // measure 58
1000
0000
0100
0010
0001
0000
1000
0100
,  // measure 59
0010
0000
0001
1000
0010
0000
0100
0001
,  // measure 60
1000
0000
0001
0010
0100
0000
0010
0100
,  // measure 61
1000
0000
0010
0100
0001
0000
1000
0010
,  // measure 62
0100
0010
0100
0010
,  // measure 63
2002
0000
0000
3003
,  // measure 64
1001
0000
0000
0000
;

//---------------dance-single - ----------------
#NOTES:
     dance-single:
     :
     Medium:
     9:
     0.357388,0.478266,0.061662,0.246648,0.092493,284.000000,277.000000,7.000000,28.000000,0.000000,0.000000,0.357388,0.478266,0.061662,0.246648,0.092493,284.000000,277.000000,7.000000,28.000000,0.000000,0.000000:
// measure 0
0000
0000
0000
0000
,  // measure 1
0000
0000
0000
0000
,  // measure 2
0000
0000
0000
0000
,  // measure 3
0000
0000
0000
0000
,  // measure 4
0010
0001
0010
0001
,  // measure 5
1000
0010
1000
0010
,  // measure 6
0200
0302
0003
0000
,  // measure 7
2000
0000
0000
3000
,  // measure 8
1001
0000
0001
0100
0010
1000
0000
0100
,  // measure 9
0000
0001
0000
0010
0000
1000
0000
0001
,  // measure 10
0000
0000
1000
0100
0001
0100
0000
0010
,  // measure 11
0000
0001
0000
1000
0000
0001
0000
0100
,  // measure 12
0100
0000
0001
0010
0100
1000
0000
0010
,  // measure 13
0000
0100
0000
0001
0000
0010
0000
0100
,  // measure 14
0000
0000
0010
0000
0001
0000
0010
0000
0000
0000
0000
0100
0000
0000
1000
0000
,  // measure 15
0001
0000
0000
0100
0000
0000
0001
0000
1000
0000
0000
0100
0000
0000
0010
0000
,  // measure 16
0001
0000
1000
0010
0100
0001
0000
0010
,  // measure 17
0000
1000
0000
0001
0000
0100
0000
1000
,  // measure 18
0000
0000
0001
0010
0100
1000
0000
0010
,  // measure 19
0000
1000
0000
0001
0000
1000
0000
0100
,  // measure 20
0000
0000
0010
0100
1000
0001
0000
0100
,  // measure 21
0000
0010
0000
0001
0000
0010
0000
0100
,  // measure 22
0000
0001
0000
1000
0000
0000
0000
0000
,  // measure 23
0000
0000
0000
0000
,  // measure 24
1001
0000
0000
0000
,  // measure 25
0100
0000
1000
0000
,  // measure 26
0001
0000
0000
0000
,  // measure 27
0010
0000
0100
0000
,  // measure 28
1000
0000
0000
0000
,  // measure 29
0010
0000
1000
0000
,  // measure 30
0001
0000
0000
0000
,  // measure 31
1000
0000
0001
0000
0000
1001
0000
0000
0010
0000
0000
1010
0000
0000
1000
0000
,  // measure 32
1100
0000
0100
1000
0001
0000
1000
0000
,  // measure 33
0200
0010
2300
0100
,  // measure 34
3001
0000
0010
0100
1000
0000
0001
0000
,  // measure 35
0200
0010
0302
0100
,  // measure 36
1003
0000
0001
0010
0100
0000
0010
0000
,  // measure 37
0002
0100
2003
0100
,  // measure 38
3010
0000
1000
0001
0010
0000
0001
0000
,  // measure 39
0200
1000
0320
0001
,  // measure 40
2030
0000
3100
0010
0002
0000
1003
0000
,  // measure 41
0001
0100
0001
0000
0010
0000
0100
2000
,  // measure 42
0001
0000
0100
0000
3001
0010
0100
2000
,  // measure 43
0010
0000
3001
1000
0200
0000
0001
0000
,  // measure 44
2300
0000
0000
0000
3001
0000
1000
0000
0100
0000
0000
0100
0010
0000
0001
0000
,  // measure 45
1000
0000
0001
0000
0100
0010
0001
0000
,  // measure 46
1020
0000
0000
0000
1030
0000
0100
0000
0010
0000
0000
0010
0100
0000
1000
0000
,  // measure 47
0002
0100
2003
0100
,  // measure 48
3002
0000
0103
0001
2000
0000
3001
0000
,  // measure 49
1000
0010
1000
0000
0100
0000
0010
0100
,  // measure 50
1000
0000
0000
0001
0100
0000
0001
0000
1000
0000
0100
0000
0010
0000
0002
0000
,  // measure 51
0010
0000
1003
0001
0100
0000
0001
0010
,  // measure 52
0200
0000
0000
2300
0100
0000
3001
1000
,  // measure 53
0010
0000
0100
0000
0001
0020
0100
0000
,  // measure 54
0032
0000
0000
2003
0001
0000
3100
0010
,  // measure 55
0001
0000
0000
0001
1000
0000
0001
0000
0100
0000
0000
0100
0010
0000
0100
0000
,  // measure 56
1001
0000
0000
0100
0000
0000
1000
0000
0001
0000
0000
0100
0001
0000
1000
0000
,  // measure 57
0100
0000
0000
0000
1000
0000
0001
0000
0100
0000
0000
0010
0100
0000
0001
0000
,  // measure 58
1000
0000
0000
0000
0100
0000
0010
0000
0001
0000
0000
1000
0001
0000
0100
0000
,  // measure 59
0010
0000
0000
0000
0100
0000
0001
0000
0010
0000
0000
0001
1000
0000
0001
0000
,  // measure 60
0100
0000
0000
0000
0010
0000
0100
0000
0001
0000
0000
1000
0100
0000
1000
0000
,  // measure 61
0001
0000
0000
0000
0010
0000
0100
0000
1000
0000
0000
0001
1000
0000
0010
0000
,  // measure 62
1000
0000
0000
0100
0000
0000
0100
0000
0000
0000
0000
0010
0000
0000
0010
0000
,  // measure 63
0000
0000
0000
0001
0000
0000
0001
0000
0000
0000
0000
1000
0000
0000
1000
0000
;

//---------------dance-single - ----------------
#NOTES:
     dance-single:
     :
     Hard:
     12:
     0.473162,0.591956,0.088089,0.528532,0.268670,376.000000,366.000000,10.000000,60.000000,0.000000,0.000000,0.473162,0.591956,0.088089,0.528532,0.268670,376.000000,366.000000,10.000000,60.000000,0.000000,0.000000:
// measure 0
0000
0000
0000
0000
,  // measure 1
0000
0000
0000
0000
,  // measure 2
0000
0000
0000
0000
,  // measure 3
0000
0000
0000
0000
,  // measure 4
0001
0100
0010
1000
,  // measure 5
0100
0010
0001
1000
,  // measure 6
0001
0000
0000
0010
0000
0000
1000
0000
0000
0010
0000
0000
0001
0000
0000
0000
,  // measure 7
2000
0000
0000
0000
0000
0000
3000
0100
,  // measure 8
1100
0000
0000
0100
1000
0000
0100
0000
0001
0000
0200
0000
0000
0000
0320
0000
,  // measure 9
0000
0032
0000
2003
0000
3002
0000
0203
,  // measure 10
0010
0000
0300
0010
0100
0000
0001
0000
0010
0000
2000
0000
0000
0000
3020
0000
,  // measure 11
0000
0032
0000
2003
0000
3002
1003
0001
,  // measure 12
0100
0000
0000
0001
1000
0000
0100
0000
0001
0000
2000
0000
0000
0000
3020
0000
,  // measure 13
0000
0032
0000
2003
0000
3001
0100
0002
,  // measure 14
0000
0000
0023
0000
0000
0000
0130
0000
0100
0000
0000
0100
1000
0000
0001
0000
,  // measure 15
1000
0000
0000
1000
0100
0000
0010
0000
0001
0000
0000
0001
0100
0000
0001
0000
,  // measure 16
1000
0000
0000
1000
0001
0000
1000
0000
0010
0000
0200
0000
0000
0000
2300
0000
,  // measure 17
0000
3200
0000
0320
0000
2030
0000
3200
,  // measure 18
0310
0000
0000
0010
0001
0000
1000
0000
0100
0000
0002
0000
0000
0000
0203
0000
,  // measure 19
0000
2300
0000
3002
0000
0203
0000
0320
,  // measure 20
1030
0000
0000
1000
0001
0000
1000
0000
0001
0000
0200
0000
0000
0000
0320
0000
,  // measure 21
0000
0032
0000
0023
0000
0230
0000
0302
,  // measure 22
0000
2003
0000
3200
0000
0300
0000
0000
,  // measure 23
2002
0000
0000
3003
,  // measure 24
0120
0000
0000
2030
0000
0000
0000
3000
,  // measure 25
0000
0000
0000
0000
0000
0000
0001
0020
,  // measure 26
0000
0000
0000
0000
0000
1030
0010
0002
,  // measure 27
0000
0000
0003
0000
0000
0000
0000
1000
,  // measure 28
0020
0000
0000
0230
0000
0300
0000
0000
,  // measure 29
0000
0000
0002
0000
1003
0020
0000
0030
,  // measure 30
2000
0000
0000
3200
0000
0000
0300
2000
,  // measure 31
3001
0000
1001
0000
0000
0110
0000
0000
1100
0000
0000
0110
0000
0000
0101
0000
,  // measure 32
0001
0000
0000
0001
1000
0000
0100
0000
0010
0000
0100
0010
0100
0000
1000
0000
,  // measure 33
0001
0000
0000
1000
0100
0000
1000
0000
0001
0000
1000
0010
1000
0000
0001
0000
,  // measure 34
1000
0000
0000
0010
0100
0000
0001
0000
1000
0000
0001
0100
0001
0000
1000
0000
,  // measure 35
0010
0000
0000
1000
0001
0000
1000
0000
0100
0000
0010
0100
0010
0000
0001
0000
,  // measure 36
1000
0000
0000
0001
0100
0000
0010
0000
0100
0000
0001
0100
0001
0000
1000
0000
,  // measure 37
0100
0000
0000
1000
0010
0000
1000
0000
0100
0000
0010
0100
0010
0000
0100
0000
,  // measure 38
1000
0000
0000
0001
0010
0000
0100
0000
0010
0000
0001
0010
0001
0000
1000
0000
,  // measure 39
0010
0000
0000
0100
0010
0000
0100
0000
0001
0000
1000
0001
1000
0000
0010
0000
,  // measure 40
0110
0000
0000
0001
0100
0000
0002
0000
1000
0000
0000
0000
0013
0000
0100
0000
,  // measure 41
1000
0000
0100
0000
0001
0000
0100
0000
1000
0000
0000
1000
0001
0000
0020
0000
,  // measure 42
1000
0000
0100
0000
0031
0010
0100
2000
,  // measure 43
0100
0000
0000
0000
3001
0000
1000
0000
0010
0000
0000
0010
0100
0000
0001
0000
,  // measure 44
0010
0000
0000
0010
0100
0000
0010
0000
0001
0000
0000
0001
1000
0000
0010
0000
,  // measure 45
1000
0000
0000
1000
0100
0000
0010
0000
0001
0000
2000
0000
0001
0000
3000
0000
,  // measure 46
0100
0000
0000
0100
1000
0000
0020
0000
0100
0000
0000
0000
1030
0000
0010
0000
,  // measure 47
1000
0000
0000
1000
0001
0000
0100
0000
0001
0000
0000
0001
0010
0000
0100
0000
,  // measure 48
1000
0000
0000
1000
0001
0000
0100
0000
0001
0000
0000
0001
0010
0000
0100
0000
,  // measure 49
2000
0000
0100
0001
3002
0000
0100
1000
,  // measure 50
1003
0000
0000
0010
0100
0000
0001
0000
1000
0000
0000
0100
0010
0000
0200
0000
,  // measure 51
1000
0000
0000
0000
0310
0000
0100
0000
1000
0000
0000
1000
0001
0000
1000
0000
,  // measure 52
0010
0000
0000
0010
0100
0000
0010
0000
1000
0000
0000
1000
0001
0000
0010
0000
,  // measure 53
0001
0000
0000
0001
1000
0000
0100
0000
0010
0000
0000
0010
0100
0000
1000
0000
,  // measure 54
0001
0000
0000
0001
0010
0000
0100
0000
1000
0000
0000
1000
0001
0000
1000
0000
,  // measure 55
0010
0000
0000
1000
0001
0000
0010
0000
0100
0000
0000
0100
1000
0000
0001
0000
,  // measure 56
1001
0000
0000
0000
1000
0000
0001
0000
0100
0000
0000
0100
0001
0000
1000
0000
,  // measure 57
0001
0000
0100
0000
1000
0000
0100
0000
0001
0000
0000
0001
1000
0000
0100
0000
,  // measure 58
1000
0000
0000
0000
0100
0000
0010
0000
0001
0000
0000
1000
0010
0000
1000
0000
,  // measure 59
0001
0000
0000
0000
0010
0000
0100
0000
1000
0000
0000
1000
0001
0000
1000
0000
,  // measure 60
0010
0000
0000
0000
0100
0000
0001
0000
0010
0000
0000
0001
0100
0000
0001
0000
,  // measure 61
1000
0000
0000
0000
0100
0000
0010
0000
0001
0000
0000
1000
0001
0000
0100
0000
,  // measure 62
0001
0000
0000
0100
0000
0000
1000
0000
0000
0100
0000
0000
0001
0000
0002
0000
,  // measure 63
0000
0000
0000
1000
0000
0000
1000
0000
0000
0000
0000
1000
0000
0000
1000
0000
,  // measure 64
0003
0000
0000
0000
;
