#VERSION:0.83;
#TITLE:Soul Shake;
#SUBTITLE:;
#ARTIST:My Nu Leng & Flava D;
#TITLETRANSLIT:;
#SUBTITLETRANSLIT:;
#ARTISTTRANSLIT:;
#GENRE:UK Bass House;
#ORIGIN:;
#CREDIT:;
#BANNER:Soul Shake-bn.png;
#BACKGROUND:Soul Shake-bg.png;
#PREVIEWVID:;
#JACKET:Soul Shake-jacket.png;
#CDIMAGE:;
#DISCIMAGE:;
#LYRICSPATH:;
#CDTITLE:cdtitle.png;
#MUSIC:Soul Shake.ogg;
#OFFSET:-0.005000;
#SAMPLESTART:59.082001;
#SAMPLELENGTH:14.769000;
#SELECTABLE:YES;
#DISPLAYBPM:65.000000:130.000000;
#BPMS:0.000=130.000,
64.000=65.000,
90.000=130.000,
102.000=65.000,
104.000=130.000,
107.000=260.000,
111.000=130.000,
115.000=260.000,
118.000=130.000,
123.000=260.000,
127.000=130.000,
139.000=260.000,
143.000=130.000,
147.000=260.000,
150.000=130.000,
155.000=260.000,
159.000=130.000,
168.000=65.000,
172.000=130.000,
175.000=260.000,
178.000=130.000,
183.000=260.000,
187.000=130.000,
199.000=260.000,
203.000=130.000,
207.000=260.000,
210.000=130.000,
215.000=260.000,
219.000=130.000;
#STOPS:107.000=0.058,
107.250=0.058,
107.500=0.058,
107.750=0.058,
108.000=0.058,
108.250=0.058,
108.500=0.058,
108.750=0.058,
109.000=0.058,
109.250=0.058,
109.500=0.058,
109.750=0.058,
110.000=0.058,
110.250=0.058,
110.500=0.058,
110.750=0.058,
115.000=0.058,
115.250=0.058,
115.500=0.058,
115.750=0.058,
116.000=0.058,
116.250=0.058,
116.500=0.058,
116.750=0.058,
117.000=0.058,
117.250=0.058,
117.500=0.058,
117.750=0.058,
123.000=0.058,
123.250=0.058,
123.500=0.058,
123.750=0.058,
124.000=0.058,
124.250=0.058,
124.500=0.058,
124.750=0.058,
125.000=0.058,
125.250=0.058,
125.500=0.058,
125.750=0.058,
126.000=0.058,
126.250=0.058,
126.500=0.058,
126.750=0.058,
139.000=0.058,
139.250=0.058,
139.500=0.058,
139.750=0.058,
140.000=0.058,
140.250=0.058,
140.500=0.058,
140.750=0.058,
141.000=0.058,
141.250=0.058,
141.500=0.058,
141.750=0.058,
142.000=0.058,
142.250=0.058,
142.500=0.058,
142.750=0.058,
147.000=0.058,
147.250=0.058,
147.500=0.058,
147.750=0.058,
148.000=0.058,
148.250=0.058,
148.500=0.058,
148.750=0.058,
149.000=0.058,
149.250=0.058,
149.500=0.058,
149.750=0.058,
155.000=0.058,
155.250=0.058,
155.500=0.058,
155.750=0.058,
156.000=0.058,
156.250=0.058,
156.500=0.058,
156.750=0.058,
157.000=0.058,
157.250=0.058,
157.500=0.058,
157.750=0.058,
158.000=0.058,
158.250=0.058,
158.500=0.058,
158.750=0.058,
175.000=0.058,
175.250=0.058,
175.500=0.058,
175.750=0.058,
176.000=0.058,
176.250=0.058,
176.500=0.058,
176.750=0.058,
177.000=0.058,
177.250=0.058,
177.500=0.058,
177.750=0.058,
183.000=0.058,
183.250=0.058,
183.500=0.058,
183.750=0.058,
184.000=0.058,
184.250=0.058,
184.500=0.058,
184.750=0.058,
185.000=0.058,
185.250=0.058,
185.500=0.058,
185.750=0.058,
186.000=0.058,
186.250=0.058,
186.500=0.058,
186.750=0.058,
199.000=0.058,
199.250=0.058,
199.500=0.058,
199.750=0.058,
200.000=0.058,
200.250=0.058,
200.500=0.058,
200.750=0.058,
201.000=0.058,
201.250=0.058,
201.500=0.058,
201.750=0.058,
202.000=0.058,
202.250=0.058,
202.500=0.058,
202.750=0.058,
207.000=0.058,
207.250=0.058,
207.500=0.058,
207.750=0.058,
208.000=0.058,
208.250=0.058,
208.500=0.058,
208.750=0.058,
209.000=0.058,
209.250=0.058,
209.500=0.058,
209.750=0.058,
215.000=0.058,
215.250=0.058,
215.500=0.058,
215.750=0.058,
216.000=0.058,
216.250=0.058,
216.500=0.058,
216.750=0.058,
217.000=0.058,
217.250=0.058,
217.500=0.058,
217.750=0.058,
218.000=0.058,
218.250=0.058,
218.500=0.058,
218.750=0.058;
#DELAYS:;
#WARPS:;
#TIMESIGNATURES:0.000=4=4;
#TICKCOUNTS:0.000=4;
#COMBOS:0.000=1;
#SPEEDS:0.000=1.000=0.000=0;
#SCROLLS:0.000=1.000;
#FAKES:;
#LABELS:0.000=Song Start;
#BGCHANGES:;
#KEYSOUNDS:;
#ATTACKS:
;

//---------------dance-single - ----------------
#NOTEDATA:;
#CHARTNAME:X-Scale 14;
#STEPSTYPE:dance-single;
#DESCRIPTION:;
#CHARTSTYLE:;
#DIFFICULTY:Hard;
#METER:9;
#RADARVALUES:0.633564,1.005599,0.162075,0.154708,0.633564,602.000000,580.000000,22.000000,21.000000,0.000000,0.000000,1.000000,0.000000,0.000000,0.633564,1.005599,0.162075,0.154708,0.633564,602.000000,580.000000,22.000000,21.000000,0.000000,0.000000,1.000000,0.000000,0.000000;
#CREDIT:;
#DISPLAYBPM:65.000000:130.000000;
#NOTES:
// measure 0
0000
0000
0000
0000
,  // measure 1
2100
0000
3001
1000
0100
0000
0001
0000
,  // measure 2
0100
0000
1000
0010
0100
0001
0001
0001
,  // measure 3
2000
0000
3100
1000
0001
0000
1000
0000
,  // measure 4
0100
0000
1000
0001
0100
0001
0001
0001
,  // measure 5
0020
0000
1030
0010
0001
0000
1000
0000
,  // measure 6
0001
0000
1000
0100
0010
0001
0001
0001
,  // measure 7
0200
0000
1300
0100
0001
0000
1000
0000
,  // measure 8
0001
0000
0100
0010
1000
0010
0010
0010
,  // measure 9
1010
1000
0010
0000
1000
0100
0010
0000
,  // measure 10
0001
0100
0010
1000
0001
0010
0010
0010
,  // measure 11
0100
1000
0001
0000
0100
0010
1000
0000
,  // measure 12
0001
0100
0010
1000
0001
1000
1000
1000
,  // measure 13
0100
0010
0001
0000
1000
0010
0100
0000
,  // measure 14
0001
0010
1000
0010
0100
0010
0010
0010
,  // measure 15
0001
1000
0010
0000
0100
0010
1000
0000
,  // measure 16
1001
0000
0000
0001
0000
0001
0001
0001
0011
0000
0010
0000
0100
0000
1000
0000
,  // measure 17
0001
0000
0000
0000
1000
0000
0000
0000
0010
0000
0000
0000
0100
0000
0000
0000
0001
0000
0100
0001
0000
0000
0000
0000
1000
0000
0010
1000
0000
0000
0000
0000
,  // measure 18
0001
0000
0010
0001
0000
0000
0000
0000
1000
0000
0100
1000
0000
0000
0000
0000
0001
0000
1000
0001
0000
0000
0000
0000
0010
0000
0100
0010
0100
0000
1000
0000
,  // measure 19
0001
0000
1000
0010
1000
0000
0001
0000
0010
0000
0100
0010
0100
0000
1000
0000
0001
0000
0100
0001
0100
0000
0010
0000
1000
0000
0001
1000
0001
0000
0010
0000
,  // measure 20
0100
0000
1000
0100
1000
0000
0000
0000
0001
0000
0010
0001
0000
0000
0000
0000
0011
0000
0000
0000
0000
0000
0000
0000
1000
0000
0000
0000
0001
0010
0001
0010
,  // measure 21
0100
1000
0100
1000
0001
0100
0001
0100
0010
1000
0010
1000
0001
0010
0001
0010
0100
0000
0000
0000
1000
0000
0000
0000
0001
0000
0000
0000
1000
0100
1000
0100
,  // measure 22
0010
0001
0010
0001
1000
0010
1000
0010
0100
0000
0001
0100
0000
0000
0000
0000
0001
0000
0000
0000
0001
0000
0000
0000
1000
0000
0000
0000
1000
0000
0000
0000
,  // measure 23
0010
0010
0100
0100
0001
0001
0010
0010
,  // measure 24
0100
0000
0100
0000
1000
0000
1000
0000
0002
4000
0000
0000
0000
0000
0000
0000
,  // measure 25
0000
0000
0000
0000
0000
0000
0000
0000
0000
0000
0000
0000
0000
0000
0003
0000
3001
0000
1000
0100
0000
1000
0100
0010
0001
0000
0100
0010
0000
0100
0010
0000
,  // measure 26
0110
0000
0001
0000
0100
0000
0001
0000
1000
0000
0010
0000
1000
0001
1000
0001
,  // measure 27
0010
0100
0010
0100
1000
0010
1000
0010
0100
0001
0100
0001
2000
0000
0000
0000
,  // measure 28
3100
0000
0000
0000
1000
0000
0100
0000
0010
0000
0000
0000
0001
0100
0001
0100
,  // measure 29
0010
1000
0010
1000
0001
0010
0001
0010
0100
0000
1000
0000
0001
0000
1000
0000
,  // measure 30
1100
0000
0010
0000
0001
0000
1000
0000
0001
0000
0100
0000
0010
1000
0010
1000
,  // measure 31
0001
0010
0001
0010
0100
1000
0100
1000
0010
0100
0010
0100
0002
0000
0000
0000
,  // measure 32
1003
0001
0100
0000
0010
0000
1000
0100
,  // measure 33
0010
0000
0001
0010
0000
0001
0010
0100
1000
0000
0001
0100
0000
0000
0001
0000
,  // measure 34
0101
0000
0000
0000
1100
0000
0000
0000
0110
0000
0000
0000
0001
1000
0001
1000
,  // measure 35
0100
0010
0100
0010
0001
0100
0001
0100
0010
1000
0010
1000
0002
0000
0000
0000
,  // measure 36
0013
0000
0000
0000
0001
0000
1000
0000
0100
0000
0000
0000
1000
0100
1000
0100
,  // measure 37
0010
0001
0010
0001
1000
0010
1000
0010
0100
0000
0001
0000
1000
0000
0001
0000
,  // measure 38
0011
0000
0000
0000
0110
0000
0000
0000
1100
0000
0000
0000
0001
0100
0001
0100
,  // measure 39
0010
1000
0010
1000
0100
0010
0100
0010
0001
1000
0001
1000
0200
0000
0000
0000
,  // measure 40
0320
0000
0031
0000
1000
0010
1000
0000
,  // measure 41
0001
0000
0000
0100
0001
0000
1000
0000
0010
0000
0000
0100
0010
0000
1000
0000
,  // measure 42
0001
0000
0000
0000
0010
0000
0000
0000
0100
0000
0000
0000
1000
0100
0010
0100
1000
0001
1000
0010
0100
0001
1000
0001
0010
0100
0010
0100
0020
0000
0000
0000
,  // measure 43
0031
0000
0000
0000
1000
0000
0010
0000
0100
0000
0000
0000
0001
0010
0001
1000
,  // measure 44
0100
1000
0001
0100
0001
1000
0010
1000
0001
0000
0010
0000
0100
0000
0010
0000
,  // measure 45
0011
0000
0000
0000
1010
0000
0000
0000
0101
0000
0000
0000
1000
0010
0100
0010
,  // measure 46
1000
0100
0010
0100
1000
0010
0100
0010
1000
0100
0010
0100
2000
0000
0000
0000
,  // measure 47
3001
1000
0100
0000
1000
0000
0001
0100
,  // measure 48
0001
0000
0010
0100
1000
0001
0100
0001
,  // measure 49
1001
0000
0000
0000
1100
0000
0000
0000
0101
0000
0000
0000
1000
0001
0100
0001
,  // measure 50
1000
0100
0010
0100
1000
0001
0100
0001
1000
0100
0010
0100
2000
0000
0000
0000
,  // measure 51
3100
0000
0000
0000
0001
0000
0100
0000
1000
0000
0000
0000
0001
0100
0010
0100
,  // measure 52
0001
0100
0010
0100
0001
0100
0010
0100
0001
0000
0010
0000
0100
0000
1000
0000
,  // measure 53
1100
0000
0000
0000
1001
0000
0000
0000
0101
0000
0000
0000
1000
0001
0010
0001
,  // measure 54
1000
0010
0100
0010
1000
0001
0010
0001
1000
0010
0100
0010
2000
0000
0000
0000
,  // measure 55
3020
0000
1030
0000
0100
0010
0100
0000
,  // measure 56
2000
0000
0000
0000
0001
0000
0000
0000
0000
0000
0100
0000
0000
0100
0000
0000
,  // measure 57
3200
0000
1300
0100
0010
0100
1000
0000
,  // measure 58
0001
1000
0001
0010
0100
0010
0010
0010
,  // measure 59
0002
0000
1003
0100
0001
0100
1000
0000
,  // measure 60
0010
0100
0001
0100
0010
1000
1000
1000
,  // measure 61
0200
0000
0301
0100
1000
0100
0010
0000
,  // measure 62
0001
1000
0100
1000
0001
0010
0010
0010
,  // measure 63
0200
0000
1300
0100
0010
0100
1000
0000
,  // measure 64
0001
0000
0010
0001
0000
1000
0001
0100
0001
0000
0010
0100
0000
0200
0000
0000
,  // measure 65
0300
0000
0000
0000
;
