#TITLE:She Don't Light the Lights;
#SUBTITLE:(prod. Direct);
#ARTIST:Aaron Richards;
#TITLETRANSLIT:;
#SUBTITLETRANSLIT:;
#ARTISTTRANSLIT:;
#GENRE:R&B;
#CREDIT:;
#BANNER:sdltl-bn.png;
#BACKGROUND:sdltl-bg.png;
#LYRICSPATH:;
#CDTITLE:cdtitle.png;
#MUSIC:sdltl.ogg;
#OFFSET:-0.005000;
#SAMPLESTART:29.919998;
#SAMPLELENGTH:30.500000;
#SELECTABLE:YES;
#BPMS:0.000000=62.000000
;
#STOPS:
;
#BGCHANGES:0.000=sdltl.mp4=1.000=1=0=1===CrossFade==,
99999=-nosongbg-=1.000=0=0=0 // don't automatically add -songbackground-
;
#KEYSOUNDS:;
#ATTACKS:;

//---------------dance-single - Vocal Stepping whee~----------------
#NOTES:
     dance-single:
     :
     Hard:
     7:
     0.377165,0.428197,0.029417,0.455959,0.569949,359.000000,355.000000,4.000000,62.000000,0.000000,0.000000,0.377165,0.428197,0.029417,0.455959,0.569949,359.000000,355.000000,4.000000,62.000000,0.000000,0.000000:
0000
0000
0000
0000
,
0000
0000
0000
0000
,
2000
0000
0000
0000
3001
0000
0010
0000
0001
0000
0010
0100
0000
0000
0001
0100
,
1000
0000
0000
0000
0100
0000
0000
0000
0010
0000
0100
0000
0010
0000
0002
0000
0000
0000
0023
0000
0000
0000
0030
0000
0002
0000
0003
0002
0000
0000
0000
0000
,
1003
0000
0000
0000
0000
0000
1000
0010
1000
0000
0010
0000
0001
0000
0010
0000
1000
0000
0100
0000
1000
0000
0001
0000
0100
0000
0000
0000
0001
0000
0100
0000
,
0001
0000
0000
0000
0000
0000
0010
0001
0010
0000
0001
0000
0100
0000
0010
0000
1000
0000
0100
0000
1000
0000
0010
0000
0100
0000
0000
0000
0001
0000
0010
0000
,
0100
0000
0000
0010
0000
0000
0001
1000
0001
0000
0010
0200
0000
0300
0100
0010
,
0100
0000
1000
0000
0001
0000
0010
0002
0000
0000
0003
0000
0100
0001
0100
0000
,
0140
0000
0000
0130
0010
0001
0010
1000
0000
0000
1000
0010
1000
0000
0100
0010
,
0100
0000
0000
0000
1000
0000
0000
0000
0001
0000
1000
0000
0000
0000
0001
0000
1000
0000
0000
0000
0100
0000
0010
0100
0010
0000
0001
0000
0100
0000
0000
0001
,
0400
0000
0000
0301
0100
1000
0100
0001
0010
0000
0001
0100
0001
0000
1000
0010
,
1000
0000
0000
0000
0100
0000
0000
0000
0010
0000
0100
0000
0000
0000
0010
0000
0100
0000
0010
0000
0000
0000
0001
0010
0001
0000
0010
0000
0001
0000
1000
0000
,
1001
0001
0100
0010
1000
0000
0100
1000
0010
0001
0010
0100
0001
0000
1000
0010
,
1000
0000
0000
0000
0001
0000
0000
0000
0100
0000
1000
0000
0100
0000
0010
0000
0000
0000
0010
0000
0000
0000
0100
0010
0100
0000
0010
0000
1000
0000
0001
1000
,
0001
0000
0000
2000
3200
2300
3002
0023
0000
0000
0032
0023
0000
0000
0032
2003
,
3020
0000
1030
0000
0100
0010
0000
0100
0010
0000
0001
0000
0010
0001
0100
0000
,
0201
0000
0000
0300
0010
0100
1000
0200
0320
0000
0000
0030
0010
0100
0001
0200
,
0302
0000
0000
0003
0001
1000
0010
2000
0000
3020
0000
0032
0000
0023
0000
2030
,
0020
0000
3000
1030
0010
0001
0010
2000
3200
0000
0000
1300
0100
1000
0001
0020
,
0230
0000
0000
1300
0100
1000
0010
0002
0000
0023
0000
2030
3200
2300
3000
0100
,
1000
0010
1000
0010
2000
0000
0010
0000
3020
0000
1030
0010
0001
0000
0010
0000
,
0100
0001
0100
0001
0200
0000
0010
0300
0002
0003
0200
0300
0002
0003
2000
0000
,
3100
1000
0100
1000
0100
0010
0001
0100
1000
0100
0001
0010
0100
0010
0001
0100
,
0010
1000
0100
0010
0001
0100
0010
1000
0001
0100
0001
0100
0010
0010
0010
0010
,
0210
0000
0000
0000
0301
0000
0100
0020
0000
0000
0100
0030
0010
0000
0001
0010
,
0100
0000
0000
0000
0001
0000
0000
0000
0100
0000
0000
0000
0001
0000
0010
0001
0010
0000
0001
0000
1000
0000
0100
0000
1000
0000
0010
0000
0100
0000
0001
0100
,
0002
0000
0010
0000
1003
0000
0001
1000
0100
0000
0010
0000
0100
0010
0010
0000
,
0001
0000
0000
0000
1000
0000
0000
0000
0001
0000
0000
0000
0100
0000
0010
0000
0000
0000
0000
0000
1000
0000
0000
0000
0100
0000
1000
0000
0010
0000
1000
0001
,
1000
0001
1000
0001
1000
0000
0000
0001
0200
0000
0000
0000
0310
0000
0000
0100
,
0002
0000
0000
0000
1003
0000
0000
0001
2000
0000
0000
0000
3010
0000
1000
0000
,
0100
0000
0010
0100
0001
0100
1000
0020
0000
0000
1030
0020
0000
0000
1030
0010
,
0100
0000
0000
0000
0001
0000
0000
0000
0010
0000
0002
0000
0000
0000
0013
0000
0002
0000
0000
0000
0003
0000
0000
0000
0001
0000
1000
0000
0001
0000
1000
0100
,
1000
0000
0100
0010
0001
0010
0100
0010
0002
0000
0000
2003
0000
0000
3200
0320
,
0230
0000
0000
0000
0000
0000
2300
0000
0000
0000
0000
0000
0000
0000
3002
0000
0000
0000
0000
0000
0100
0000
0000
0000
1003
0000
0001
0000
0010
0000
0001
0200
,
0000
0300
0000
0000
;
