#VERSION:0.83;
#TITLE:Say Less;
#SUBTITLE:;
#ARTIST:Dillon Francis ft. G-Eazy;
#TITLETRANSLIT:;
#SUBTITLETRANSLIT:;
#ARTISTTRANSLIT:;
#GENRE:Trap;
#ORIGIN:;
#CREDIT:;
#BANNER:sl-bn.png;
#BACKGROUND:sl-bg.png;
#PREVIEWVID:;
#JACKET:sl-jacket.png;
#CDIMAGE:;
#DISCIMAGE:;
#LYRICSPATH:;
#CDTITLE:cdtitle-sl.png;
#MUSIC:say less.ogg;
#OFFSET:-0.003000;
#SAMPLESTART:28.235001;
#SAMPLELENGTH:14.130000;
#SELECTABLE:YES;
#BPMS:0.000=136.000;
#STOPS:;
#DELAYS:;
#WARPS:;
#TIMESIGNATURES:0.000=4=4;
#TICKCOUNTS:0.000=4;
#COMBOS:0.000=1;
#SPEEDS:0.000=1.000=0.000=0;
#SCROLLS:0.000=1.000;
#FAKES:;
#LABELS:0.000=Song Start;
#BGCHANGES:-0.503=say less.avi=1.000=0=0=0=StretchNoLoop====,
99999=-nosongbg-=1.000=0=0=0 // don't automatically add -songbackground-
;
#KEYSOUNDS:;
#ATTACKS:
;

//---------------dance-single - ----------------
#NOTEDATA:;
#CHARTNAME:;
#STEPSTYPE:dance-single;
#DESCRIPTION:;
#CHARTSTYLE:;
#DIFFICULTY:Hard;
#METER:9;
#RADARVALUES:0.540247,0.640341,0.278409,0.046402,0.261009,326.000000,302.000000,24.000000,4.000000,0.000000,0.000000,0.000000,0.000000,0.000000,0.540247,0.640341,0.278409,0.046402,0.261009,326.000000,302.000000,24.000000,4.000000,0.000000,0.000000,0.000000,0.000000,0.000000;
#CREDIT:;
#NOTES:
// measure 0
0000
0000
0000
0000
,  // measure 1
0000
0000
0000
0000
,  // measure 2
0000
0000
0000
0000
,  // measure 3
0000
0000
0000
0000
,  // measure 4
0000
0000
0000
0000
,  // measure 5
0000
0000
0000
0000
,  // measure 6
0000
0000
0000
0000
,  // measure 7
0000
0000
0000
0000
,  // measure 8
1001
0000
1000
0000
0001
0000
0100
0000
0001
0000
0010
0001
0010
0000
0010
0000
,  // measure 9
0011
0000
0000
0001
1000
0000
0010
0000
0000
0100
0010
0100
0001
0000
0001
0000
,  // measure 10
0101
0000
0001
0000
1000
0000
0010
0100
0001
0000
0010
0000
0100
0000
0100
0000
,  // measure 11
1010
0000
0000
0100
0010
0000
0100
0000
0000
0001
0010
0001
1000
0000
1000
0000
,  // measure 12
1001
0000
0000
0001
1000
0000
0010
0100
0001
0000
1000
0010
0100
0000
0100
0000
,  // measure 13
0110
0000
0000
0001
1000
0000
0010
0000
0000
0010
0100
0010
0100
0000
0100
0000
,  // measure 14
0110
0000
0001
0000
1000
0000
0001
0000
1000
0000
0001
0100
0010
0000
0010
0000
,  // measure 15
0110
0000
0001
0000
0010
0000
1000
0000
0010
0001
0100
0001
0010
0000
0010
0000
,  // measure 16
0011
0000
0000
0000
0001
0000
1000
0000
0001
1000
0010
1000
0001
0000
0001
0000
,  // measure 17
1000
0010
0100
0001
0010
0100
1000
0010
,  // measure 18
0110
0000
0100
0010
0001
0000
0010
0000
,  // measure 19
1000
0001
1000
0010
0100
0010
0010
1000
,  // measure 20
1010
0000
0100
0010
0001
0000
0010
0000
,  // measure 21
0100
0010
1000
0001
1000
0010
1000
0000
,  // measure 22
1002
0000
0010
0000
1003
0001
0100
0010
,  // measure 23
2010
0000
0002
0000
0003
3000
0000
0000
,  // measure 24
1001
0000
0000
0000
1000
0000
0000
0000
0001
0000
0000
0100
0001
0000
0010
0000
,  // measure 25
0011
0000
0000
0000
0001
0000
1000
0000
0001
0000
0100
0010
0100
0000
0010
0000
,  // measure 26
0110
0000
0000
0000
0001
0000
1000
0000
0001
0000
0000
0100
0001
0000
0100
0000
,  // measure 27
0101
0000
0000
0000
0001
0000
1000
0000
0001
0000
0100
0001
1000
0000
0010
0000
,  // measure 28
1010
0000
0100
0000
0010
0000
0100
0000
0002
0000
0000
0100
0103
0000
0001
0000
,  // measure 29
1000
0001
0100
0000
0001
0010
0100
1000
,  // measure 30
0010
0000
1000
0000
0010
0000
0000
0000
0100
0000
0000
0010
0100
0000
0001
0000
,  // measure 31
1000
0001
1000
0001
1000
0001
1000
0000
,  // measure 32
1001
0000
0001
0100
0001
0000
0101
0000
,  // measure 33
0001
0000
0010
0000
0100
0000
1000
0001
1000
0000
0100
0000
0010
0000
0000
0000
,  // measure 34
0110
0000
0100
0001
0100
0000
0101
0000
,  // measure 35
0010
0000
0000
0000
0000
0000
0000
0000
0000
0000
0000
0000
0010
0000
0000
0000
0000
0000
0000
0000
0000
1000
0000
0000
0010
0000
0000
0000
0100
0000
0000
0000
0001
0000
0000
0000
1000
0000
0000
0000
0010
0000
0000
0000
0100
0000
0000
0000
,  // measure 36
0001
1000
0001
0010
0001
0000
0011
0000
,  // measure 37
0010
0000
0001
0000
0100
0000
0001
1000
0010
0000
0100
0000
0010
0000
1000
0000
,  // measure 38
0010
0100
0001
1000
0100
1000
0010
0010
,  // measure 39
0010
0100
0001
0001
0000
0001
0100
0010
,  // measure 40
0110
0000
0001
0000
1000
0000
0001
0000
1000
0000
0001
0000
0000
0100
0000
0000
,  // measure 41
0010
0000
0100
0000
0010
0000
1000
0001
1000
0000
0001
0000
0001
0000
0000
0000
,  // measure 42
0001
0100
0010
1000
0001
1000
0001
0000
,  // measure 43
0100
0000
0000
0000
0000
0000
0000
0000
0000
0000
0000
0000
0100
0000
0000
0000
0000
0000
0000
0000
0000
0010
0000
0000
0100
0000
0000
0000
0010
0000
0000
0000
1000
0000
0000
0000
0001
0000
0000
0000
0010
0000
0000
0000
0100
0000
0000
0000
,  // measure 44
1000
0000
1000
0010
0100
0000
0001
0000
,  // measure 45
1000
0000
0001
0000
1000
0000
0010
0100
0010
0000
0100
0000
0000
0100
0000
0000
,  // measure 46
0001
0010
0100
0010
0100
1000
0001
0001
,  // measure 47
0001
0000
0000
1000
0000
0000
0010
0000
0000
0100
0000
0000
0010
0000
1000
0000
0001
0000
1000
0000
0010
0000
1000
0000
,  // measure 48
0001
0000
0000
0000
;
