#VERSION:0.83;
#TITLE:SUPER Clap;
#SUBTITLE:;
#ARTIST:SUPER JUNIOR;
#TITLETRANSLIT:;
#SUBTITLETRANSLIT:;
#ARTISTTRANSLIT:;
#GENRE:K-Pop;
#ORIGIN:;
#CREDIT:;
#BANNER:SUPER Clap.png;
#BACKGROUND:SUPER Clap-bg.png;
#PREVIEWVID:;
#JACKET:SUPER Clap-jacket.png;
#CDIMAGE:;
#DISCIMAGE:;
#LYRICSPATH:;
#CDTITLE:cdtitle.png;
#MUSIC:SUPER Clap.ogg;
#OFFSET:-0.071000;
#SAMPLESTART:55.971001;
#SAMPLELENGTH:15.000000;
#SELECTABLE:YES;
#BPMS:0.000=140.000;
#STOPS:;
#DELAYS:;
#WARPS:;
#TIMESIGNATURES:0.000=4=4;
#TICKCOUNTS:0.000=4;
#COMBOS:0.000=1;
#SPEEDS:0.000=1.000=0.000=0;
#SCROLLS:0.000=1.000;
#FAKES:;
#LABELS:0.000=Song Start;
#BGCHANGES:0.000=SUPER Clap.avi=1.000=1=0=0=StretchNoLoop==CrossFade==,
99999=-nosongbg-=1.000=0=0=0 // don't automatically add -songbackground-
;
#KEYSOUNDS:;
#ATTACKS:
;

//---------------dance-single - ----------------
#NOTEDATA:;
#CHARTNAME:;
#STEPSTYPE:dance-single;
#DESCRIPTION:;
#CHARTSTYLE:;
#DIFFICULTY:Hard;
#METER:13;
#RADARVALUES:0.510680,0.560603,0.225697,0.167453,0.112849,491.000000,460.000000,31.000000,23.000000,44.000000,0.000000,0.000000,0.000000,0.000000,0.510680,0.560603,0.225697,0.167453,0.112849,491.000000,460.000000,31.000000,23.000000,44.000000,0.000000,0.000000,0.000000,0.000000;
#CREDIT:;
#NOTES:
// measure 0
0000
0000
0000
0000
,  // measure 1
0000
0000
0000
0000
,  // measure 2
0000
0000
0000
0000
,  // measure 3
0000
0000
0000
0000
,  // measure 4
0000
0000
0000
0000
,  // measure 5
1100
1000
0000
0010
0100
0010
0010
0000
,  // measure 6
1000
0010
0001
0010
1000
0100
0010
0000
,  // measure 7
0001
0001
0000
0010
0100
0010
0010
0000
,  // measure 8
0001
0000
0001
0000
0000
0000
1001
0000
0000
0000
1000
0000
0100
0010
0001
0000
,  // measure 9
0011
0001
0000
1000
0000
0010
1000
0100
,  // measure 10
0000
1000
0010
0001
0000
1000
0100
0001
,  // measure 11
0020
0030
0020
0030
0020
0030
0020
0031
,  // measure 12
0200
0000
1300
0100
0001
0100
0010
0100
,  // measure 13
0001
0010
0000
0100
0000
1000
0010
1000
,  // measure 14
0000
0001
0100
1000
0000
0001
0010
1000
,  // measure 15
0002
0003
0201
0300
0020
0030
2001
3001
,  // measure 16
1000
0100
0010
0100
1000
0001
0100
0010
,  // measure 17
0000
0000
0110
0000
0100
0001
1000
0001
,  // measure 18
0010
0000
0100
1000
0010
0001
0010
1000
,  // measure 19
0100
0010
0001
0100
0000
0010
0100
0001
,  // measure 20
0010
0100
0000
1000
0000
0001
0001
0001
,  // measure 21
0001
0000
0100
0000
0010
0000
0100
0001
0000
0000
1000
0000
0010
0000
1000
0001
,  // measure 22
0000
0000
0010
0000
0100
0000
1000
0001
0000
0000
0010
0000
0001
0000
1000
0000
,  // measure 23
0010
1000
0000
MMMM
0000
0001
0010
0200
,  // measure 24
1000
0000
1300
0000
0000
0001
1000
0001
,  // measure 25
2002
0M00
0000
0M00
0000
0M00
0M00
3003
,  // measure 26
M11M
0100
0000
0001
0000
1000
0001
1000
,  // measure 27
0001
1000
0000
0100
0000
0100
0010
0000
,  // measure 28
0101
0001
0000
1000
0000
0010
1000
0010
,  // measure 29
2010
0000
0001
0100
3000
0100
0010
0002
,  // measure 30
0100
0000
1003
0001
0000
0100
0001
1000
,  // measure 31
0001
0000
0010
0000
0100
0000
0010
0010
,  // measure 32
MM1M
0000
M00M
1000
0M10
0001
0010
1000
,  // measure 33
1010
1000
0001
0010
0002
0000
0103
0010
,  // measure 34
MMMM
0010
0001
1000
0001
1000
0001
1000
,  // measure 35
0010
0100
0010
1000
0001
0010
0100
1000
,  // measure 36
0000
0001
0100
0010
0100
0010
0100
0010
,  // measure 37
0110
0000
0000
1000
0000
0000
0100
0000
1000
0000
0000
0001
0000
0000
0100
0000
,  // measure 38
0010
0000
0000
0100
0000
0000
0001
0000
0020
0000
0000
0000
1030
0000
0010
0000
,  // measure 39
0001
0000
0000
1000
0000
0000
0010
0000
1000
0000
0001
0000
0010
0000
0100
0000
,  // measure 40
MMMM
0000
0100
0000
0001
0000
0010
0000
0001
0000
1000
0000
0100
1000
0100
0000
,  // measure 41
1100
1000
0000
0001
0000
0100
0101
0000
,  // measure 42
0001
0100
1000
0100
0010
0100
0001
0001
,  // measure 43
0001
0010
0000
0100
0000
0010
0110
0000
,  // measure 44
0100
1000
0001
1000
0100
0010
0001
1000
,  // measure 45
MMMM
0000
0110
0000
0100
0001
1000
0001
,  // measure 46
0100
0000
0010
0100
1000
0100
0001
0010
,  // measure 47
0100
0000
1000
0100
0010
0001
1000
0001
,  // measure 48
0010
0000
0100
1000
0001
0010
0100
0010
,  // measure 49
0001
0000
0000
0000
0100
0000
0000
0000
0010
0000
0000
0000
1000
0000
0000
0000
0001
0000
0000
0000
1000
0000
0000
0000
0100
0000
0000
0000
0000
0000
0000
0000
0000
0010
0000
0000
0000
0000
0000
0000
0000
0000
0001
0000
0000
0000
0000
0000
,  // measure 50
1000
0000
0000
0000
0010
0000
0000
0000
0000
0000
0000
0000
0100
0000
0000
0000
0010
0000
0000
0000
1000
0000
0000
0000
0001
0000
0000
0000
0000
0000
0000
0000
0000
0010
0000
0000
0000
0000
0000
0000
0000
0000
0100
0000
0000
0000
0000
0000
,  // measure 51
1000
0000
0000
0000
0001
0000
0000
0000
0000
0000
0000
0000
0010
0000
0000
0000
0100
0000
0000
0000
1000
0000
0000
0000
0001
0000
0000
0000
0000
0000
0000
0000
0000
1000
0000
0000
0000
0000
0000
0000
0000
0000
0001
0000
0000
0000
0000
0000
,  // measure 52
1000
0000
0100
0000
0001
0000
0100
0000
0010
0000
0001
0000
0100
0000
0000
0010
0000
0000
0100
0000
0000
0010
0000
0000
,  // measure 53
2002
0M00
0000
0M00
0000
0M00
0M00
3003
,  // measure 54
M11M
0100
0000
0001
0000
1000
0100
0010
,  // measure 55
0001
1000
0000
0010
0000
1000
0001
0100
,  // measure 56
0001
1000
0000
0100
0000
0010
0100
1000
,  // measure 57
1100
0100
0000
1000
0001
0100
0001
0020
,  // measure 58
1000
0000
0031
0010
0000
0100
1000
0001
,  // measure 59
1000
0000
0010
0000
0100
0000
0010
0010
,  // measure 60
MM1M
0000
00MM
0001
M100
1000
0100
0001
,  // measure 61
0101
0100
0010
1000
0200
0000
1300
0010
,  // measure 62
MMMM
0010
0001
1000
0001
1000
0001
1000
,  // measure 63
0100
0001
0100
0010
0001
0100
0010
0100
,  // measure 64
0000
0001
1000
0100
1000
0100
1000
0100
,  // measure 65
1100
0000
0000
1000
0000
0000
0001
0000
0100
0000
0000
1000
0000
0000
0100
0000
,  // measure 66
0001
0000
0000
0010
0000
0000
0100
0000
2000
0000
0000
0000
3001
0000
1000
0000
,  // measure 67
1001
0000
0000
1000
0000
0000
0100
0000
0001
0000
0100
0000
0010
0000
0001
0000
,  // measure 68
0000
0000
1000
0000
0010
0000
0001
0000
0010
0000
1000
0000
0001
1000
0001
0000
,  // measure 69
1001
1000
0100
0010
0000
0001
0011
0000
,  // measure 70
0001
0100
0001
1000
0100
0010
0001
0000
,  // measure 71
1001
1000
0000
0010
1000
0001
1001
0000
,  // measure 72
1000
1000
0100
0001
0100
0010
0001
0000
,  // measure 73
0011
0010
0100
1000
0000
0010
1010
0000
,  // measure 74
1000
0001
1000
0100
0001
0100
1000
0000
,  // measure 75
1010
0010
0000
1000
0000
0001
0011
0000
,  // measure 76
0010
0010
0001
1000
0010
1000
2002
0000
,  // measure 77
3003
0000
0000
0000
;

//---------------dance-single - ----------------
#NOTEDATA:;
#CHARTNAME:;
#STEPSTYPE:dance-single;
#DESCRIPTION:;
#CHARTSTYLE:;
#DIFFICULTY:Medium;
#METER:11;
#RADARVALUES:0.475317,0.504543,0.138331,0.182014,0.109208,457.000000,438.000000,19.000000,25.000000,0.000000,0.000000,0.000000,0.000000,0.000000,0.475317,0.504543,0.138331,0.182014,0.109208,457.000000,438.000000,19.000000,25.000000,0.000000,0.000000,0.000000,0.000000,0.000000;
#CREDIT:;
#NOTES:
0000
0000
0000
0000
,
0000
0000
0000
0000
,
0000
0000
0000
0000
,
0000
0000
0000
0000
,
0000
0000
0000
0000
,
0001
0100
0000
0010
0000
0100
0001
0000
,
1000
0010
0000
0100
0000
0010
1000
0001
,
1000
0100
0000
0010
0000
0100
1000
0000
,
0001
0000
0010
0000
0000
0000
0100
0000
0000
0000
0010
0000
0001
0010
0001
0000
,
0011
0000
0010
0100
0000
1000
0000
0001
,
0000
1000
0010
1000
0000
0001
0100
0010
,
1010
0000
1010
0000
1010
0000
1010
1000
,
0002
0000
0013
0100
0000
0010
0001
1000
,
0100
0010
0000
0001
0000
0100
0010
1000
,
0000
0001
0000
0100
0010
0100
0001
0010
,
0110
0101
0011
1001
,
1100
0000
0100
1000
0000
0001
1000
0001
,
0000
0000
1001
0000
1000
0100
1000
0000
,
0001
0000
0010
0100
0010
0000
0001
0000
,
1000
0010
1000
0100
0000
0010
0100
1000
,
0001
0100
0000
0010
0000
0100
0001
0000
,
1000
0000
0000
0000
0010
0000
0100
0010
0000
0000
1000
0000
0001
0000
0010
0100
,
0000
1000
0010
0100
0010
0001
0010
1000
,
0001
1000
0000
0100
0000
0010
0010
0002
,
0000
0000
1003
0000
0000
0000
1000
0001
,
1000
0100
0000
0010
0000
0100
0010
0001
,
1000
0001
0000
0100
0000
0010
0100
0001
,
1000
0010
0000
1000
0000
0001
0010
0100
,
0010
0001
0000
1000
0000
0010
1000
0001
,
2000
0000
0100
0000
3001
0010
0100
2000
,
0010
0000
3001
0010
0000
0100
0010
0001
,
2000
0000
3020
0000
0230
0000
0301
0001
,
0101
0000
0000
0000
0000
1000
0100
0001
,
0100
0010
0001
0010
0200
0000
1300
0001
,
0000
0100
0010
1000
0010
1000
0010
1000
,
0001
0010
1000
0010
0001
0100
0010
0100
,
0000
0001
0010
0100
0010
0100
0010
0100
,
1000
0000
0000
0100
0000
0000
0010
0000
0001
0000
0000
0100
0000
0000
0010
0000
,
1000
0000
0000
0100
0000
0000
0010
0000
0002
0000
0000
0000
1003
0000
0000
0000
,
0001
0000
0000
0100
0000
0000
0010
0000
0100
0000
1000
0000
0100
0000
0001
0000
,
0000
1000
0100
0001
0100
0010
0001
0000
,
0011
0000
0010
0000
0100
1000
0100
0000
,
1000
0010
0100
0010
0001
0010
1000
0000
,
0001
0000
1000
0000
0100
0010
0100
0000
,
1000
0001
0100
0001
0010
1000
0010
0001
,
0000
0000
0000
0000
0011
0000
0010
0000
0200
0000
0000
2300
0000
0000
3000
0000
,
0001
0000
1000
0010
0000
0000
1000
0000
0001
0000
0010
0100
0000
0000
1000
0000
,
0001
0000
0100
0010
0000
0000
0100
0000
0002
0000
0000
0023
0000
0000
0030
0000
,
0100
0010
0001
1000
0000
0010
0100
0000
,
0001
0000
0000
0000
0000
0000
0000
0000
0010
0000
0000
0000
0100
0000
0000
0000
0000
0000
0000
0000
0010
0000
0000
0000
0001
0000
0000
0000
0000
0000
0000
0000
0000
1000
0000
0000
0000
0000
0000
0000
0000
0000
0000
0000
0000
0000
0000
0000
,
0100
0000
0000
0000
1000
0000
0000
0000
0000
0000
0000
0000
0001
0000
0000
0000
0010
0000
0000
0000
0001
0000
0000
0000
1000
0000
0000
0000
0000
0000
0000
0000
0000
0100
0000
0000
0000
0000
0000
0000
0000
0000
0000
0000
0000
0000
0000
0000
,
0010
0000
0000
0000
0100
0000
0000
0000
0000
0000
0000
0000
1000
0000
0000
0000
0001
0000
0000
0000
0100
0000
0000
0000
0001
0000
0000
0000
0000
0000
0000
0000
0000
0010
0000
0000
0000
0000
0000
0000
0000
0000
0000
0000
0000
0000
0000
0000
,
0100
0000
0000
0000
1000
0000
0001
0000
0100
0000
0001
0000
1000
0000
0000
0100
0000
0000
1000
0000
0000
0100
0000
0000
,
1100
1000
0000
0001
0000
0010
0100
0000
,
0110
0010
0000
0001
0000
1000
0001
0100
,
0001
1000
0000
0100
0000
0010
0001
0000
,
0011
0010
0000
0100
0000
1000
0001
0100
,
0002
0000
1000
0000
0013
1000
0010
0002
,
0000
0000
1003
0001
0100
0001
0010
0100
,
2000
0000
3200
0000
0320
0000
0031
0001
,
0011
0000
0000
0000
0000
1000
0100
0001
,
0100
0010
0001
1000
0020
0000
0130
0001
,
0000
1000
0010
0100
0010
0100
0010
0100
,
1000
0100
0001
0100
0010
1000
0100
0010
,
0000
0001
1000
0100
1000
0100
1000
0100
,
0010
0000
0000
0100
0000
0000
1000
0000
0001
0000
0000
1000
0000
0000
0010
0000
,
0100
0000
0000
0001
0000
0000
1000
0000
0100
0000
1000
0000
0001
0000
0000
0000
,
0010
0000
0000
0100
0000
0000
1000
0000
0001
0000
0010
0000
1000
0000
0010
0000
,
0001
1000
0010
0100
0010
1000
0002
0000
,
0013
0100
1000
0001
0000
1000
1000
0000
,
0100
0010
0100
1000
0001
0100
0020
0000
,
0031
0010
1000
0001
0000
0100
0100
0000
,
0001
1000
0100
1000
0001
0100
0020
0000
,
0031
0010
1000
0100
0000
0010
0010
0000
,
0001
0100
1000
0100
0001
1000
0200
0000
,
0310
0100
1000
0001
0000
0100
0100
0000
,
0001
0010
1000
0010
0100
1000
2200
0000
,
3300
0000
0000
0000
;

//---------------dance-single - ----------------
#NOTEDATA:;
#CHARTNAME:;
#STEPSTYPE:dance-single;
#DESCRIPTION:;
#CHARTSTYLE:;
#DIFFICULTY:Easy;
#METER:8;
#RADARVALUES:0.360908,0.391148,0.167453,0.029122,0.000000,347.000000,324.000000,23.000000,4.000000,0.000000,0.000000,0.000000,0.000000,0.000000,0.360908,0.391148,0.167453,0.029122,0.000000,347.000000,324.000000,23.000000,4.000000,0.000000,0.000000,0.000000,0.000000,0.000000;
#CREDIT:;
#NOTES:
0000
0000
0000
0000
,
0000
0000
0000
0000
,
0000
0000
0000
0000
,
0000
0000
0000
0000
,
0000
0000
0000
0000
,
0001
0010
0001
0010
,
0100
0000
1000
0000
0100
0010
0001
0000
,
1000
0010
1000
0010
,
0100
0000
0001
1000
0000
0010
1000
0001
,
0010
0100
0000
1000
0000
0001
0000
1000
,
0000
0100
0000
0010
0000
0001
0100
0010
,
0100
0110
0010
0110
,
0100
0000
0001
1000
0000
0100
0010
0100
,
1000
0100
0000
0010
0000
0001
0000
1000
,
0000
0010
0000
1000
0000
0001
0010
0100
,
1000
1001
0001
1001
,
1000
0000
0010
1000
0000
0001
0200
0000
,
0000
0300
0101
0000
0001
0000
1000
0010
,
1000
0001
0100
0001
,
1000
0100
0000
1000
0000
0001
0000
0000
,
1000
0100
0000
0010
0000
0001
0200
0000
,
0000
0310
0100
0001
0000
1000
0000
0010
,
1000
0001
0000
0100
0000
0010
0000
0100
,
0001
1000
0000
0100
0000
0010
0100
2000
,
0001
0000
3000
0001
0000
0010
0100
0000
,
0110
0000
0000
0000
,
1001
0000
0000
0000
,
0110
0000
0000
0000
,
1001
0000
0000
0000
,
0110
0010
0001
1000
,
0100
0010
0001
1000
,
0010
0100
0001
1000
,
1001
0000
1000
1000
,
1010
0000
1000
0000
0001
0000
0010
0100
,
1000
0001
0100
0001
,
1000
0000
0010
0000
0100
0001
1000
0001
,
0100
0010
0100
0010
,
0100
0000
0001
1000
0100
0000
0010
0001
,
1000
0000
0010
0100
0001
0000
0010
0100
,
1000
0000
0001
0000
1000
0100
0010
0100
,
1000
0000
0001
0000
0100
0010
0100
0000
,
0110
0010
1000
0001
,
1000
0000
0010
0000
1000
0100
0010
0000
,
0001
0010
0100
0010
,
0001
0000
1000
0000
0010
1000
0002
0000
,
0003
0000
1001
0000
1000
0100
0010
0100
,
1000
0000
0001
0000
0100
0010
1000
0010
,
0100
0000
0001
0000
0010
0100
1000
0100
,
0010
0000
0001
0000
1000
0010
0100
0010
,
1000
0000
0001
0000
0010
0100
1000
0001
,
1000
0000
0100
0000
0010
0100
1000
0100
,
0010
0000
0001
0000
0100
0010
1000
0010
,
0100
0000
0001
0010
0000
0100
1000
0000
,
1001
0000
0000
0000
,
0110
0000
0000
0000
,
1001
0000
0000
0000
,
0110
0000
0000
0000
,
1001
1000
0100
0010
,
0001
0100
0010
1000
,
0001
0010
0100
0010
,
0011
0000
0000
0000
,
1010
0000
1000
0000
0001
0000
1000
0100
,
0010
0000
0100
1000
0001
1000
0100
1000
,
0001
0000
0100
0000
0010
0000
0100
0001
,
0010
0000
0100
1000
0001
1000
0100
1000
,
0001
0000
0010
0100
1000
0000
0001
1000
,
0010
0000
0100
0001
1000
0000
0010
0100
,
0001
0000
0010
0000
0100
0010
0001
1000
,
0001
0000
0100
0000
0010
0100
0010
0000
,
0110
0000
0100
0000
0001
0100
0001
0000
,
0010
0000
0100
0000
1000
0100
0010
0000
,
0001
0000
1000
0000
0100
0010
0100
0000
,
1000
0000
0001
0000
0100
0001
1000
0000
,
1001
0000
1000
0000
0100
0010
0100
0000
,
1000
0000
0001
0000
0010
0100
1000
0000
,
0001
0000
1000
0000
0100
0010
0100
0000
,
1000
0000
0010
0000
0100
0010
1000
0000
;

//---------------dance-single - ----------------
#NOTEDATA:;
#CHARTNAME:;
#STEPSTYPE:dance-single;
#DESCRIPTION:;
#CHARTSTYLE:;
#DIFFICULTY:Beginner;
#METER:3;
#RADARVALUES:0.148731,0.196211,0.000000,0.000000,0.000000,143.000000,143.000000,0.000000,0.000000,0.000000,0.000000,0.000000,0.000000,0.000000,0.148731,0.196211,0.000000,0.000000,0.000000,143.000000,143.000000,0.000000,0.000000,0.000000,0.000000,0.000000,0.000000,0.000000;
#CREDIT:;
#NOTES:
0000
0000
0000
0000
,
0000
0000
0000
0000
,
0000
0000
0000
0000
,
0000
0000
0000
0000
,
0000
0000
0000
0000
,
1000
0000
0000
0000
,
0001
0000
0000
0000
,
1000
0000
0000
0000
,
0001
0000
0000
0000
,
0100
0000
0000
0010
0000
0000
0000
0100
,
0000
0000
0000
0001
0000
0000
0000
0000
,
1000
0000
0001
0000
,
1000
0000
0000
0100
0000
0000
1000
0000
,
0000
0000
0000
0001
0000
0000
0000
0100
,
0000
0000
0000
0001
0000
0000
0000
0000
,
0010
0000
0100
0000
,
1000
0000
0000
0001
0000
0000
1000
0000
,
0000
0100
0000
0010
,
0000
0100
0000
0010
,
0000
0001
0000
1000
,
0000
0001
0000
1000
,
0000
0100
0000
0010
,
0000
0001
0000
0100
,
0000
0010
0000
1000
,
0000
0001
0000
1000
,
1000
0000
0000
0000
,
0100
0000
0000
0000
,
0010
0000
0000
0000
,
0001
0000
0000
0000
,
1000
0000
0000
0001
0000
0000
0000
0100
,
0000
0000
0010
0000
,
0100
0000
0001
0000
,
1000
0000
0000
0000
,
0001
0000
0010
0000
,
0001
0000
0010
0000
,
0100
0000
1000
0000
,
0100
0000
1000
0000
,
0001
0000
0010
0000
,
0100
0000
1000
0000
,
0010
0000
0100
0000
,
0001
0000
0010
0000
,
0001
0000
1000
0100
,
1000
0000
0001
0000
,
0010
0000
0100
1000
,
0100
0000
0010
0000
,
0000
0001
0000
1000
,
0000
0001
0000
1000
,
0000
0100
0000
0010
,
0000
0100
0000
0000
,
0010
0000
0000
0100
0000
0000
0000
1000
,
0000
0000
0000
0001
0000
0000
1000
0000
,
0000
0000
0000
0001
0000
0000
0000
0010
,
0000
0000
0000
0100
0000
0000
0000
0000
,
1000
0000
0000
0000
,
0001
0000
0000
0000
,
1000
0000
0000
0000
,
0001
0000
0000
0000
,
1000
0000
0000
0001
0000
0000
0000
1000
,
0000
0000
0010
0100
,
0010
0000
1000
0000
,
0001
0000
0000
0000
,
1000
0000
0100
0000
,
1000
0000
0001
0000
,
0010
0000
0100
0000
,
0010
0000
0001
0000
,
1000
0000
0100
0000
,
0010
0000
0001
0000
,
0100
0000
0010
0000
,
1000
0000
0001
0010
,
0001
0000
0100
0010
,
0100
0000
0001
1000
,
0001
0000
0100
0010
,
0100
0000
0001
0010
,
0001
0000
1000
0010
,
1000
0000
0100
0010
,
0100
0000
1000
0001
,
1000
0000
0001
0100
,
0001
0000
0000
0000
;
