#VERSION:0.83;
#TITLE:SHEESH (directors cut);
#SUBTITLE:;
#ARTIST:Eliminate;
#TITLETRANSLIT:;
#SUBTITLETRANSLIT:;
#ARTISTTRANSLIT:;
#GENRE:Future Garage;
#ORIGIN:;
#CREDIT:;
#BANNER:SHEESH (directors cut)-bn.png;
#BACKGROUND:SHEESH (directors cut)-bg.png;
#PREVIEWVID:;
#JACKET:SHEESH (directors cut)-jacket.png;
#CDIMAGE:;
#DISCIMAGE:;
#LYRICSPATH:;
#CDTITLE:cdtitle.png;
#MUSIC:SHEESH (directors cut).ogg;
#OFFSET:-0.006000;
#SAMPLESTART:36.929001;
#SAMPLELENGTH:14.769000;
#SELECTABLE:YES;
#BPMS:0.000=65.000,
40.000=130.000,
104.000=65.000;
#STOPS:;
#DELAYS:;
#WARPS:;
#TIMESIGNATURES:0.000=4=4;
#TICKCOUNTS:0.000=4;
#COMBOS:0.000=1;
#SPEEDS:0.000=1.000=0.000=0;
#SCROLLS:0.000=1.000;
#FAKES:;
#LABELS:0.000=Song Start;
#BGCHANGES:;
#KEYSOUNDS:;
#ATTACKS:
;

//---------------dance-single - ----------------
#NOTEDATA:;
#CHARTNAME:SHEEEEEEEESH!;
#STEPSTYPE:dance-single;
#DESCRIPTION:;
#CHARTSTYLE:;
#DIFFICULTY:Hard;
#METER:8;
#RADARVALUES:0.380765,0.496572,0.205907,0.285982,0.308861,233.000000,215.000000,18.000000,25.000000,0.000000,0.000000,0.000000,0.000000,0.000000,0.380765,0.496572,0.205907,0.285982,0.308861,233.000000,215.000000,18.000000,25.000000,0.000000,0.000000,0.000000,0.000000,0.000000;
#CREDIT:;
#NOTES:
// measure 0
0000
0000
0000
0000
,  // measure 1
0000
0000
0000
0000
,  // measure 2
0002
0000
0023
0000
,  // measure 3
2030
0000
0000
0000
0000
0000
0000
0000
3200
0000
0000
0000
0000
0302
0000
0000
,  // measure 4
2003
0000
3020
0000
,  // measure 5
0032
0000
0000
0000
0000
0000
0000
0000
0203
0000
0000
0000
0000
2300
0000
0000
,  // measure 6
3002
0000
0203
0000
,  // measure 7
0320
0000
0000
0000
0000
0000
0000
0000
2030
0000
0000
0000
0000
3002
0000
0000
,  // measure 8
0203
0001
1000
0010
0301
0100
0010
0100
,  // measure 9
0001
0000
0000
0000
1000
0000
0000
0000
0100
0000
0000
0000
1000
0000
0001
0000
0100
0001
0000
1000
0100
0010
0001
0000
0010
0000
0200
0000
0000
0000
0300
0000
,  // measure 10
1100
0000
0000
0000
1000
0000
0100
1000
0000
0000
1001
0000
0001
0000
0100
0000
,  // measure 11
0001
0000
1000
0000
0010
0000
0100
0010
0000
0000
1000
0000
0001
1000
0001
0000
,  // measure 12
1001
0000
0000
0000
0010
0000
1000
0001
0000
0000
0101
0000
0100
0000
0001
0000
,  // measure 13
1000
0000
0100
0000
0010
0000
0001
0000
0000
0100
0001
0000
1000
0001
1000
0000
,  // measure 14
1001
0000
0000
0000
0100
0000
0001
0010
0000
0000
0011
0000
0010
0000
0100
0000
,  // measure 15
1000
0000
0100
0000
0010
0000
0001
0010
0000
0000
0001
0000
1000
0010
1000
0000
,  // measure 16
1010
0000
0000
0000
0001
0000
0010
0100
0000
0000
0110
0000
0010
0000
0001
0000
,  // measure 17
1000
0000
0010
0000
1000
0000
0001
0100
0000
0000
0010
0000
1000
0010
1000
0000
,  // measure 18
2100
0000
0000
0000
0001
0000
0000
0001
0000
0000
0010
0000
0100
0000
0010
0000
,  // measure 19
3100
0000
1000
0100
1000
0000
0100
0010
0000
0000
0001
0000
0100
0001
0100
0000
,  // measure 20
0101
0000
0001
1000
0001
0000
0010
0100
0000
0000
1100
0000
0100
0000
0001
0000
,  // measure 21
0100
0000
1000
0100
1000
0000
0000
0001
0000
0000
0101
0000
0100
0010
0100
0000
,  // measure 22
1001
0000
0001
0100
0001
0000
0010
0100
0000
0000
1010
0000
1000
0000
0001
0000
,  // measure 23
0100
0000
0010
0100
0010
0000
1000
0100
0000
0000
1000
0000
0001
0100
0001
0000
,  // measure 24
0101
0000
0100
0010
0100
0000
0001
0010
0000
0000
1001
0000
1000
0000
0010
0000
,  // measure 25
1000
0000
0001
0100
0001
0000
1000
0100
0000
0000
1100
0000
1000
0100
1000
0000
,  // measure 26
1002
0010
1000
0100
2003
0010
0001
0100
,  // measure 27
3020
0000
0001
0000
0100
0000
1000
0000
0230
0000
1000
0000
0000
0302
0000
0000
,  // measure 28
0023
0000
0000
0000
1000
0000
0000
0000
0100
0000
0000
0000
0001
0000
0000
0000
0031
0000
0000
0010
0100
0000
0000
1000
0100
0000
0000
0010
0001
0000
0000
1000
,  // measure 29
0010
0000
0000
0100
0001
0000
0000
1000
0001
0000
0000
0100
0010
0000
1000
0000
0010
1000
0000
0001
0100
0010
1000
0000
0100
0000
0020
0000
0000
0000
0030
0000
;

//---------------dance-single - ----------------
#NOTEDATA:;
#CHARTNAME:hey Tommy, lemme get that chart check;
#STEPSTYPE:dance-single;
#DESCRIPTION:;
#CHARTSTYLE:;
#DIFFICULTY:Medium;
#METER:6;
#RADARVALUES:0.287616,0.360338,0.022879,0.045757,0.200188,176.000000,174.000000,2.000000,4.000000,0.000000,0.000000,0.000000,0.000000,0.000000,0.287616,0.360338,0.022879,0.045757,0.200188,176.000000,174.000000,2.000000,4.000000,0.000000,0.000000,0.000000,0.000000,0.000000;
#CREDIT:;
#NOTES:
// measure 0
0000
0000
0000
0000
,  // measure 1
0000
0000
0000
0000
,  // measure 2
1000
0000
0100
0000
,  // measure 3
0010
0000
0001
0000
,  // measure 4
1000
0000
0010
0000
,  // measure 5
0100
0000
0001
0000
,  // measure 6
1001
0000
1000
0000
,  // measure 7
0010
0000
0000
0000
1000
0100
0010
0001
,  // measure 8
1000
0001
0100
0010
1000
0001
0010
1000
,  // measure 9
0010
0000
0000
0000
0001
0000
0000
0000
0010
0000
0000
0000
0100
0000
0000
0000
1000
0000
0000
1000
0100
1000
0100
0000
0010
0000
0001
0000
0000
0000
0000
0000
,  // measure 10
0101
0000
0000
0000
0001
0000
0000
0001
0000
0000
1000
0000
0010
0000
1000
0000
,  // measure 11
0001
0000
0000
0000
0100
0000
0000
0100
0000
0000
0010
0000
1000
0000
0001
0000
,  // measure 12
0100
0000
0000
0000
0010
0000
0000
0010
0000
0000
1000
0000
0100
0000
0010
0000
,  // measure 13
0001
0000
0000
0000
1000
0000
0100
1000
0000
0001
0100
0000
0010
0100
0010
0000
,  // measure 14
1000
0000
0000
0000
0100
0000
0000
0100
0000
0000
0010
0000
0100
0000
1000
0000
,  // measure 15
0001
0000
0000
0000
0100
0000
0000
0100
0000
0000
0001
0000
1000
0001
1000
0000
,  // measure 16
0100
0000
0000
0000
0010
0000
0000
0010
0000
0000
0001
0000
0010
0000
0100
0000
,  // measure 17
1000
0000
0000
0000
0010
0000
0000
0010
0000
0000
0100
0000
0001
0000
1000
0000
,  // measure 18
0010
0000
0000
0100
0010
0000
0100
0010
0000
0000
1000
0000
0001
0000
0010
0000
,  // measure 19
0100
0000
0000
1000
0100
0000
1000
0100
0000
0000
0010
0000
0001
0010
0001
0000
,  // measure 20
0100
0000
0000
0010
0100
0000
0010
0100
0000
0000
0001
0000
1000
0000
0010
0000
,  // measure 21
1000
0000
0000
0010
0100
0000
0000
0100
0000
0000
1000
0000
0100
1000
0100
0000
,  // measure 22
0010
0000
0000
0001
0100
0000
0001
0100
0000
0000
0010
0000
1000
0000
0100
0000
,  // measure 23
0010
0000
0000
0100
1000
0000
0100
1000
0000
0000
0001
0000
0100
0010
0100
0000
,  // measure 24
0001
0000
0000
0010
0001
0000
0010
0001
0000
0000
1000
0000
0010
0000
0100
0000
,  // measure 25
0001
0000
0000
1000
0010
0000
0000
0010
0000
0000
0001
0000
0100
0001
0100
0000
,  // measure 26
0010
0100
0001
1000
0010
0100
0001
1000
,  // measure 27
0100
0010
0001
1000
0100
0010
0001
1000
,  // measure 28
0200
0001
2300
0010
,  // measure 29
3002
0000
2000
0000
,  // measure 30
3003
0000
0000
0000
;

//---------------dance-single - ----------------
#NOTEDATA:;
#CHARTNAME:the fit before the check;
#STEPSTYPE:dance-single;
#DESCRIPTION:;
#CHARTSTYLE:;
#DIFFICULTY:Easy;
#METER:3;
#RADARVALUES:0.153613,0.205907,0.205907,0.045757,0.000000,94.000000,76.000000,18.000000,4.000000,0.000000,0.000000,0.000000,0.000000,0.000000,0.153613,0.205907,0.205907,0.045757,0.000000,94.000000,76.000000,18.000000,4.000000,0.000000,0.000000,0.000000,0.000000,0.000000;
#CREDIT:;
#NOTES:
0000
0000
0000
0000
,
0000
0000
0000
0000
,
1000
0000
0000
0000
,
0001
0000
0100
0000
,
0001
0000
0000
0000
,
0010
0000
0100
0000
,
1000
0000
0010
0000
,
1000
0000
0001
0000
,
0100
0000
0001
0000
,
1000
0000
0000
0000
,
0110
0000
0010
0000
0000
1001
0000
0000
,
1100
0000
0100
0000
0000
0110
0000
0000
,
1001
0000
0001
0000
0000
0101
0000
0000
,
0110
0000
0000
1000
0000
1010
0000
0000
,
1001
0000
0001
0000
0000
0011
0000
0000
,
0110
0000
0100
0000
0000
1010
0000
0000
,
1001
0000
0001
0000
0000
0101
0000
0000
,
1010
0000
1000
0000
0000
1001
0000
0000
,
0120
0000
1000
0000
0000
1000
0000
0100
,
0130
0000
0001
0000
0000
0001
0000
1000
,
0001
0000
0010
0000
0000
0100
0000
1000
,
0100
0000
1000
0000
0000
0001
0000
0100
,
0001
0000
1000
0000
0000
0010
0000
1000
,
0100
0000
1000
0000
0000
0001
0000
0010
,
0100
0000
0010
0000
0000
0001
0000
1000
,
0001
0000
0100
0000
0000
0010
0000
1000
,
1010
0000
1000
0000
,
0001
0000
0100
0000
,
0020
0000
2030
0000
,
0002
0000
0000
0000
,
3003
0000
0000
0000
;

//---------------dance-single - ----------------
#NOTEDATA:;
#CHARTNAME:ascension to SHEESH heaven;
#STEPSTYPE:dance-single;
#DESCRIPTION:;
#CHARTSTYLE:;
#DIFFICULTY:Beginner;
#METER:1;
#RADARVALUES:0.063733,0.099522,0.034318,0.114393,0.000000,39.000000,36.000000,3.000000,10.000000,0.000000,0.000000,0.000000,0.000000,0.000000,0.063733,0.099522,0.034318,0.114393,0.000000,39.000000,36.000000,3.000000,10.000000,0.000000,0.000000,0.000000,0.000000,0.000000;
#CREDIT:;
#NOTES:
0000
0000
0000
0000
,
0000
0000
0000
0000
,
0001
0000
0000
0000
,
0010
0000
0000
0000
,
0100
0000
0000
0000
,
1000
0000
0000
0000
,
0010
0000
0000
0000
,
0100
0000
0000
0000
,
0001
0000
0000
0000
,
1000
0000
0000
0000
,
2001
0000
0000
0000
0000
0010
0000
0000
,
3020
0000
0000
0000
0000
0100
0000
0000
,
0230
0000
0000
0000
0000
0001
0000
0000
,
0302
0000
0000
0000
0000
2003
0000
0000
,
0100
0000
0000
0000
,
0010
0000
0000
0000
,
3001
0000
0000
0000
,
0010
0000
0000
0000
,
0210
0000
0000
0000
0000
1000
0000
0000
,
2300
0000
0000
0000
0000
0001
0000
0000
,
3002
0000
0000
0000
0000
0100
0000
0000
,
0203
0000
0000
0000
0000
0320
0000
0000
,
1000
0000
0000
0000
,
0100
0000
0000
0000
,
1030
0000
0000
0000
,
0001
0000
0000
0000
,
1001
0000
0000
0000
,
0010
0000
0000
0000
,
0100
0000
0000
0000
,
1000
0000
0000
0000
;
