#TITLE:Rebels;
#SUBTITLE:;
#ARTIST:Wiwek ft. Audio Bullys;
#TITLETRANSLIT:;
#SUBTITLETRANSLIT:;
#ARTISTTRANSLIT:;
#GENRE:Jungle Terror;
#CREDIT:;
#BANNER:REBELS-bn.png;
#BACKGROUND:REBELS-bg.png;
#LYRICSPATH:;
#CDTITLE:cdtitle.png;
#MUSIC:rebels.ogg;
#OFFSET:0.000000;
#SAMPLESTART:90.000000;
#SAMPLELENGTH:15.000000;
#SELECTABLE:YES;
#BPMS:0.000000=128.000000
;
#STOPS:
;
#BGCHANGES:;
#KEYSOUNDS:;
#ATTACKS:;

//---------------dance-single - JUMP CITY----------------
#NOTES:
     dance-single:
     :
     Easy:
     4:
     0.298402,0.387116,0.322596,0.080649,0.000000,259.000000,219.000000,40.000000,10.000000,0.000000,0.000000,0.298402,0.387116,0.322596,0.080649,0.000000,259.000000,219.000000,40.000000,10.000000,0.000000,0.000000:
0000
0000
0000
0000
,
0000
0000
0000
0000
,
0000
0000
0000
0000
,
0000
0000
0000
0000
,
1000
0001
0100
0001
,
0010
0000
0100
0000
1000
0000
0000
0010
,
0002
0000
0000
0000
0000
0000
0003
1000
,
0200
0000
0000
0300
,
1100
0010
1000
0100
,
0010
0100
0001
1000
,
0000
0010
0000
0110
,
0000
0100
0000
0101
,
0001
1000
0100
0010
,
0100
1000
0100
0010
,
0100
0010
0001
0100
,
0001
0010
0001
0100
,
1001
0100
0001
0010
,
1000
0100
0010
0000
,
0001
1000
0001
0100
,
1000
0001
0100
0000
,
0001
0010
0100
1000
,
0100
0010
0001
0000
,
0010
0100
0010
1000
,
0100
0000
1001
1001
,
0100
0001
0010
0100
,
1000
0100
0001
0110
,
0010
1000
0010
0100
,
1000
0100
0010
1001
,
0010
1000
0001
0100
,
0010
0100
0010
1010
,
0100
0001
0010
0100
,
2001
0000
0001
3001
,
1001
0010
0100
1000
,
0100
0001
0100
0010
,
1000
0010
0001
0100
,
0010
1000
0001
1001
,
0100
1001
0010
1000
,
0001
0100
0010
1000
,
0100
0001
0010
0100
,
1000
0000
1001
0110
,
1001
0000
0001
0000
,
0010
0000
0100
0000
,
1002
0000
0100
0000
,
1000
0000
0000
0000
0100
0000
1003
0010
,
2010
0000
0001
0000
,
0010
0000
0000
0000
0001
0000
0001
3000
,
0102
1000
0100
1000
,
0103
0000
0010
0010
,
0010
1000
0001
0100
,
0101
0000
0110
0000
0101
0000
1000
1000
,
1000
0010
0100
0001
,
0101
1001
0101
0100
,
0100
0001
1000
0010
,
0110
0000
1010
0000
0110
0000
0001
0001
,
1001
0010
0100
1000
,
0102
0010
0100
1003
,
0001
1000
0010
0100
,
0110
1010
0110
0002
,
1003
0100
0010
0001
,
1001
0101
1001
0002
,
0103
0010
0100
0001
,
1001
0011
1001
0200
,
0310
0100
0001
1000
,
0100
0000
0001
0000
0010
0000
1000
1000
,
1010
0000
0000
0000
;

//---------------dance-single - JUMP CITY 0\: PROLOGUE----------------
#NOTES:
     dance-single:
     :
     Beginner:
     1:
     0.185493,0.232269,0.153233,0.112909,0.000000,161.000000,142.000000,19.000000,14.000000,0.000000,0.000000,0.185493,0.232269,0.153233,0.112909,0.000000,161.000000,142.000000,19.000000,14.000000,0.000000,0.000000:
0000
0000
0000
0000
,
0000
0000
0000
0000
,
0000
0000
0000
0000
,
0000
0000
0000
0000
,
1000
0000
0100
0000
,
0001
0010
0100
0000
,
2000
0000
0000
3000
,
0002
0000
0000
0003
,
1000
0000
0100
0000
,
1001
0010
0100
0000
,
1000
0000
0001
0000
,
0100
0000
0010
0000
,
1002
0000
1000
0000
,
0100
0000
0000
0000
0010
0000
0000
0003
,
2100
0000
0001
0000
,
0100
0000
0000
0000
0001
0000
0000
3000
,
1001
0000
0001
0000
,
1000
0010
0100
0000
,
0100
0000
0001
0000
,
1000
0010
0100
0000
,
0001
0000
0100
0000
,
0010
1000
0001
0000
,
1001
0000
0010
0000
,
0002
0000
1000
0013
,
2000
3000
0001
0000
,
1000
0100
0010
0000
,
1001
0000
0010
0000
,
1000
0001
0110
0000
,
1001
0000
0010
0000
,
0100
0100
0010
0000
,
1000
0000
0010
0000
,
2000
0000
0001
3001
,
1001
0000
0010
0000
,
1000
0010
0100
0000
,
0001
0000
0100
0000
,
0010
1000
0001
0000
,
0100
0000
0010
0000
,
0001
0100
0010
0000
,
1000
0000
0100
0000
,
0010
0000
0101
0101
,
2100
0000
0000
0000
,
0010
0000
0000
0000
0000
0000
0000
3000
,
1002
0000
0000
0000
,
0100
0000
0000
0000
0000
0000
0000
0003
,
2010
0000
0001
0000
,
0010
0000
0000
0000
0001
0000
0000
3000
,
0102
0000
1000
0000
,
0103
0000
0000
0000
,
0010
0100
0010
1000
,
0000
0000
0110
0000
,
1000
0100
0010
0001
,
0000
0000
0101
0000
,
1000
0010
0100
0001
,
0000
0000
1001
0000
,
0001
0010
0100
1000
,
2000
0000
0010
3010
,
1000
0001
1000
0010
,
0000
0000
0001
0002
,
1003
0100
0010
0001
,
0000
0000
0100
0010
,
0001
0100
0010
1000
,
0000
0000
0010
0020
,
1030
0100
0001
0010
,
1000
0000
0001
0000
,
1001
0000
0000
0000
;

//---------------dance-single - JUMP CITY II\: ELECTRIC BOOGALOO----------------
#NOTES:
     dance-single:
     :
     Medium:
     7:
     0.429744,0.516154,0.459700,0.064519,0.024195,373.000000,316.000000,57.000000,8.000000,0.000000,0.000000,0.429744,0.516154,0.459700,0.064519,0.024195,373.000000,316.000000,57.000000,8.000000,0.000000,0.000000:
0000
0000
0000
0000
,
0000
0000
0000
0000
,
0000
0000
0000
0000
,
0000
0000
0000
0000
,
0001
0010
0100
1000
,
0001
1000
0001
0100
0001
0000
0000
1000
,
0002
0000
0000
0000
0000
0000
0003
0001
,
2000
0000
0000
0000
0000
0000
3010
1000
,
1010
0100
0001
0010
,
1000
0100
0010
0001
0010
0000
0001
0000
,
1000
0010
0001
1000
,
1001
0000
0100
0000
0010
0000
1000
0010
,
0110
0100
1000
0010
,
0100
0000
0000
0000
0000
0000
0000
0000
1000
0000
0000
0001
1000
0000
0000
0000
0010
0000
0000
0000
0000
0000
0000
0000
1000
0000
0000
0000
0000
0000
0000
0000
,
0100
0000
0000
0000
0000
0000
0000
0000
0010
0000
0000
1000
0001
0000
0000
0000
0001
0000
0000
0000
0000
0000
0000
0000
0100
0000
0000
0000
0000
0000
0000
0000
,
0001
0000
0000
0000
0000
0000
0000
0000
0010
0000
0000
1000
0010
0000
0000
0000
0100
0000
0000
0000
0000
0000
0000
0000
0010
0000
0000
0000
0010
0000
0000
0000
,
1001
0100
0001
0010
,
1000
0010
0100
0001
0100
0000
0001
0000
,
1000
0010
0100
0001
,
1000
0100
0010
0001
0010
0000
0100
0000
,
1000
0010
0100
0010
,
0001
0010
0100
1000
0100
0000
0010
0000
,
1000
0001
0010
0100
,
0010
0100
0010
0000
1001
0000
1001
0000
,
0100
0001
0010
0110
,
1000
0001
0100
0010
1000
0000
1010
0000
,
0100
0001
0010
1000
,
0010
0100
0010
1000
0010
0000
0101
0000
,
0010
0100
0010
0001
,
1000
0010
0100
0001
0010
0000
1000
0000
,
1000
0000
0100
0000
0001
1000
0010
0000
0010
0000
1000
0000
0100
0000
0000
0000
,
2001
0000
0001
3010
,
1001
1100
0110
1001
,
1000
0100
0001
0010
0110
0000
0010
0000
,
1000
0010
0001
0100
,
0010
0100
1000
0100
0001
0000
1001
0000
,
0100
0001
0010
1000
,
0001
0010
0100
0001
0010
0000
1010
0000
,
0100
1000
0001
0100
1001
0100
0100
0010
,
1010
0100
0001
0010
0101
0000
0101
0001
,
0100
0001
1000
0100
,
0010
0001
0100
0010
,
1002
0000
1000
0000
0100
0000
0103
0001
,
2000
0000
0010
0000
0100
0000
3010
1000
,
0001
0010
0100
0010
0001
0010
0100
1000
,
0100
0010
0001
0010
0100
0010
0100
1000
,
0100
0001
0010
1000
0100
0001
0010
0100
,
0010
0000
0000
1000
0000
0000
0100
0000
1000
0000
0010
0000
1000
0000
0000
0001
0000
0000
0100
0000
0000
0000
0000
0000
,
1010
0101
0110
1001
,
1000
0001
0100
0001
0010
0000
0001
1000
,
1001
0110
0011
1001
,
0001
0100
0010
1000
1001
0000
1000
0000
,
1100
0011
1010
0110
,
0010
1000
0100
0010
0100
0000
1000
0010
,
1010
0110
0011
1100
,
2010
0001
0010
0001
0010
0000
3100
0000
,
1001
0101
1010
0110
,
0001
0000
0010
0000
0100
0000
1000
0000
0010
0000
0000
0000
0400
0000
0000
0300
,
1001
0101
0110
1010
,
0010
0000
1000
0000
0001
0000
0100
0000
0001
0000
0000
0000
2000
0000
0000
3000
,
1001
0101
0110
1010
,
1000
0000
0001
0000
0100
0000
0010
0000
0110
0000
0000
0000
0040
0000
0000
0030
,
1010
0101
0110
1010
,
0100
0000
0000
0010
0000
0000
1000
0000
0000
0100
0000
0000
0020
0000
0000
0000
0030
0000
0001
0000
0000
1000
0000
0000
,
0010
0000
0000
0000
;

//---------------dance-single - JUMP CITY III\: REVENGE OF THE AIR----------------
#NOTES:
     dance-single:
     :
     Hard:
     10:
     0.556479,0.619385,0.572608,0.040325,0.189525,483.000000,412.000000,71.000000,5.000000,0.000000,0.000000,0.556479,0.619385,0.572608,0.040325,0.189525,483.000000,412.000000,71.000000,5.000000,0.000000,0.000000:
// measure 0
0000
0000
0000
0000
,  // measure 1
0000
0000
0000
0000
,  // measure 2
0000
0000
0000
0000
,  // measure 3
0000
0000
0000
0000
,  // measure 4
0001
0000
0100
0000
0010
0000
1000
0001
,  // measure 5
1000
0100
0010
0100
1000
0000
0000
1000
,  // measure 6
0200
0000
0000
0000
0000
0000
0300
0001
,  // measure 7
0020
0000
0000
0000
0000
0030
0100
0010
,  // measure 8
1010
0000
0000
0000
0000
0000
0001
0000
0100
0000
0000
0010
0100
0000
0000
0000
0001
0000
0000
0000
1000
0000
0000
0000
0010
0000
0000
0100
0010
0000
0000
0000
,  // measure 9
1000
0000
0000
0000
0100
0000
0000
0000
0010
0000
0000
0000
0001
0000
0000
0000
0010
0000
0000
0000
0000
0000
0000
0000
0001
0000
0000
0100
0010
0000
0000
0000
,  // measure 10
1000
0000
0000
0000
0000
0000
1000
0000
0010
0000
0000
0100
0010
0000
0000
0000
0100
0000
0000
0000
0001
0000
0000
0000
1000
0000
0000
0000
0000
0000
0000
0000
,  // measure 11
1001
0000
0000
0000
0000
0000
0010
0000
0100
0000
0000
0010
1000
0000
0000
0000
0100
0000
0000
0000
0010
0000
0000
0000
0001
0000
0000
0000
0010
0000
0000
0000
,  // measure 12
0011
0000
0000
0000
0100
0000
0000
0000
0010
0000
0000
0100
0001
0000
0000
0000
0001
0000
0000
0000
1000
0000
0000
0000
1001
0000
0000
0000
0000
0000
0000
0000
,  // measure 13
0100
0000
0000
0000
0000
0000
0000
0000
1000
0000
0000
0001
1000
0000
0000
0000
0010
0000
0000
0000
0100
0000
0000
0000
1010
0000
0000
0000
0000
0000
0000
0000
,  // measure 14
0100
0000
0000
0000
0000
0000
0000
0000
0010
0000
0000
1000
0001
0000
0000
0000
0001
0000
0000
0000
0100
0000
0000
0000
0110
0000
0000
0000
0000
0000
0000
0000
,  // measure 15
0001
0000
0000
0000
0000
0000
0000
0000
0010
0000
0000
1000
0010
0000
0000
0000
0100
0000
0000
0000
0010
0000
0000
0000
0110
0000
0000
0000
1001
0000
0000
0000
,  // measure 16
0110
0100
0001
0010
,  // measure 17
1000
0010
0100
0001
0100
0010
0100
0000
,  // measure 18
1000
0001
1000
0000
0010
0100
0100
0001
0000
0001
0000
0000
,  // measure 19
1000
0000
0100
0000
0010
0000
0001
0000
0010
0000
0100
0010
0100
0000
0000
0000
,  // measure 20
1010
0110
0101
1001
,  // measure 21
0001
0010
0100
1000
0100
0010
0001
1000
,  // measure 22
0001
0000
0000
0000
0100
0000
0000
0000
0010
0000
0001
1000
0100
0000
0000
0000
,  // measure 23
0010
0000
0000
0100
0000
0000
0010
0000
1000
0000
0001
0000
1001
0000
0000
0110
0000
0000
1001
0000
0000
0000
0000
0000
,  // measure 24
0100
0000
1000
0001
0000
0000
0001
0000
0000
0000
0000
0000
0010
0000
0100
0010
0000
0000
0110
0000
0000
0100
0000
0000
,  // measure 25
0001
0000
0010
0000
0100
0000
1000
0000
0100
0000
0010
0001
1001
0000
0000
0000
,  // measure 26
0100
0000
0000
0010
0000
0000
0001
0000
0000
0010
0000
0000
0100
0000
0000
0000
0010
0000
1000
0000
0000
0000
0000
0000
,  // measure 27
0010
0000
0000
0100
0000
0000
0010
0000
0000
1000
0000
0000
0010
0000
0100
0000
0010
0000
0101
0000
0000
0000
0000
0000
,  // measure 28
0001
0000
0000
0010
0000
0000
0100
0000
0000
1000
0000
0000
0001
0000
1000
0000
0100
0000
0010
0000
0000
0000
0000
0000
,  // measure 29
1000
0000
0000
0000
0000
0000
0000
0000
0000
0000
0000
0000
0000
0000
0000
0000
0010
0000
0000
0000
0000
0000
0000
0000
0000
0000
0000
0000
0000
0000
0000
0000
0100
0000
0000
0000
0000
0000
0000
0000
0000
0000
0000
0000
0000
0000
0000
0000
0001
0000
0000
0000
0000
0000
0000
0000
0000
0000
0000
0000
0000
0000
0000
0000
0000
0000
0000
0000
0000
0000
0000
0000
0001
0000
0000
0000
0000
0000
0000
0000
0000
0000
0000
0000
0000
0000
0000
0000
0000
0000
0000
0000
0000
0000
0000
0000
0010
0000
0000
0000
0000
0000
0000
0000
0000
0000
0000
0000
0000
0000
0000
0000
0000
0000
0000
0000
0000
0000
0000
0000
1000
0000
0000
0000
0000
0000
0001
0000
0000
0000
0000
0000
0000
0000
0000
0000
0000
0000
0000
0000
0000
0000
0000
0000
1000
0000
0000
0000
0000
0000
0000
0000
0000
0000
0000
0000
0000
0000
0000
0000
0000
0000
0000
0000
0000
0000
0000
0000
0000
0000
0000
0000
0000
0000
0000
0000
0000
0000
0000
0000
0000
0000
0000
0000
0000
0000
0000
0000
0000
0000
0000
0000
,  // measure 30
1000
0000
0100
0000
0001
1000
0010
0000
0010
0000
1000
0000
0100
0000
0000
0000
,  // measure 31
2001
0100
0001
3010
,  // measure 32
1001
1100
0110
1001
,  // measure 33
1000
0100
0001
0010
0110
0000
0010
0000
,  // measure 34
1000
0010
0001
0100
,  // measure 35
0010
0100
1000
0100
0001
0000
1001
0000
,  // measure 36
0101
0010
0100
0010
0001
0010
0100
0010
,  // measure 37
0001
0010
0100
0010
0001
0010
0100
1000
,  // measure 38
0100
1000
0001
0100
1001
0100
0100
0010
,  // measure 39
0010
0100
0001
0010
0101
0000
0101
0001
,  // measure 40
0110
0000
0100
0000
0001
0000
0010
0000
0100
0001
0000
0000
1000
0000
0100
0000
,  // measure 41
0010
0100
0001
0100
1000
0010
0100
0001
,  // measure 42
1004
0000
1000
0000
0100
0000
0103
0001
,  // measure 43
4000
0000
0010
0000
0100
0000
3010
1000
,  // measure 44
0104
1000
0100
0010
0100
1000
0100
0013
,  // measure 45
0401
0010
0001
0010
0001
0010
0301
1000
,  // measure 46
4100
0001
0100
0010
0100
0001
0100
0010
,  // measure 47
3100
0000
0000
1000
0000
0000
0100
0000
1000
0000
0010
0000
1000
0000
0000
0001
0000
0000
0100
0000
0000
0000
0000
0000
,  // measure 48
1010
0000
0101
0010
0110
0000
1001
0010
,  // measure 49
1000
0001
0100
0001
0010
0000
0001
1000
,  // measure 50
1001
0000
0110
0100
0011
0000
1001
0010
,  // measure 51
0001
0000
0100
0000
0010
0000
1000
0000
1001
0000
0000
0001
1000
0000
0000
0000
,  // measure 52
1100
0000
0000
0001
0011
0000
0100
0000
1010
0000
0000
0000
0110
0000
0000
0000
,  // measure 53
0010
0000
1000
0000
0100
0000
0010
0000
0100
0000
0000
0010
1000
0000
0010
0000
,  // measure 54
1010
0000
0000
0010
0110
0000
0100
0000
0011
0000
0000
0000
1100
0000
0001
0000
,  // measure 55
1001
0000
1000
0000
0010
0000
0100
0000
0010
0100
0010
0100
0010
0000
0100
0000
,  // measure 56
1001
0000
0000
0001
0101
0000
0100
0000
1010
0000
0000
0000
0110
0000
0000
0000
,  // measure 57
0001
0000
0010
0000
0100
0000
1000
0000
0010
0000
0000
0000
0400
0000
0000
0300
,  // measure 58
1001
0000
0000
0001
0101
0000
0100
0000
0110
0000
0000
0000
1010
0000
0000
0000
,  // measure 59
0010
0000
1000
0000
0001
0000
0100
0000
0001
0000
0000
0000
2000
0000
0000
3000
,  // measure 60
1001
0000
0000
0100
0101
0000
0010
0000
0110
0000
0000
1000
1010
0000
0000
0000
,  // measure 61
1000
0000
0001
0000
0100
0000
0010
0000
0110
0000
0000
0000
0040
0000
0000
0030
,  // measure 62
1010
0000
0000
0100
0101
0000
0010
0000
0110
0000
0000
0000
1010
0000
0000
0000
,  // measure 63
0100
0000
0000
0010
0000
0000
1000
0000
0000
0100
0000
0000
0020
0000
0000
0000
0030
0000
0001
0000
0000
1000
0000
0000
,  // measure 64
1010
0000
0000
0000
;
