#VERSION:0.83;
#TITLE:PSYCHOSIS;
#SUBTITLE:;
#ARTIST:GOMMI;
#TITLETRANSLIT:;
#SUBTITLETRANSLIT:;
#ARTISTTRANSLIT:;
#GENRE:Psy Trance;
#ORIGIN:;
#CREDIT:;
#BANNER:PSYCHOSIS-bn.png;
#BACKGROUND:PSYCHOSIS-bg.png;
#PREVIEWVID:;
#JACKET:PSYCHOSIS-jacket.png;
#CDIMAGE:;
#DISCIMAGE:;
#LYRICSPATH:;
#CDTITLE:cdtitle.png;
#MUSIC:PSYCHOSIS.ogg;
#OFFSET:-0.005000;
#SAMPLESTART:13.918000;
#SAMPLELENGTH:13.913000;
#SELECTABLE:YES;
#BPMS:0.000=138.000;
#STOPS:;
#DELAYS:;
#WARPS:;
#TIMESIGNATURES:0.000=4=4;
#TICKCOUNTS:0.000=4;
#COMBOS:0.000=1;
#SPEEDS:0.000=1.000=0.000=0;
#SCROLLS:0.000=1.000;
#FAKES:;
#LABELS:0.000=Song Start;
#BGCHANGES:
;
#KEYSOUNDS:;
#ATTACKS:
;

//---------------dance-single - ----------------
#NOTEDATA:;
#CHARTNAME:X-Scale 13;
#STEPSTYPE:dance-single;
#DESCRIPTION:;
#CHARTSTYLE:;
#DIFFICULTY:Hard;
#METER:9;
#RADARVALUES:0.636746,0.722741,0.191709,0.057513,0.373832,465.000000,445.000000,20.000000,6.000000,0.000000,0.000000,14.000000,0.000000,0.000000,0.636746,0.722741,0.191709,0.057513,0.373832,465.000000,445.000000,20.000000,6.000000,0.000000,0.000000,14.000000,0.000000,0.000000;
#CREDIT:;
#NOTES:
// measure 0
0000
0000
0000
0000
,  // measure 1
0000
0000
0000
0000
,  // measure 2
0000
0000
0000
0000
,  // measure 3
0000
0000
0000
0000
,  // measure 4
1000
0000
0000
0000
0100
0000
0000
0000
0010
0000
0000
0000
0001
0000
0000
1000
,  // measure 5
0010
1000
0001
0000
0100
0000
0000
0000
0010
0000
0000
0000
1000
0000
0000
0001
,  // measure 6
0010
0001
1000
0000
0100
0000
0000
0000
0010
0000
0000
0000
0001
0000
1000
0000
,  // measure 7
1001
0000
0001
0000
0010
0000
0100
1000
0100
0000
1000
0000
0001
0000
0000
0000
,  // measure 8
1001
1000
0010
0100
0001
1000
0100
0010
,  // measure 9
0001
1000
0010
0100
0001
1000
0100
0010
,  // measure 10
0001
1000
0010
0100
0001
1000
0100
0010
,  // measure 11
0001
1000
0010
0100
0004
0000
0013
0000
,  // measure 12
1001
0001
0010
0100
1000
0001
0100
0010
,  // measure 13
1000
0001
0010
0100
1000
0001
0100
0010
,  // measure 14
1000
0001
0010
0100
1000
0001
0100
0010
,  // measure 15
1000
0000
0001
0000
1000
0000
0100
0010
0100
0000
1000
0000
1100
0000
0000
0000
,  // measure 16
0001
1000
0001
0000
1000
0010
1000
0000
0001
0010
0001
0000
0100
0010
0100
0000
,  // measure 17
0001
0010
0001
0000
1000
0010
1000
0000
0001
0010
0001
0000
1000
0100
1000
0000
,  // measure 18
0001
0100
0001
0000
0100
0010
0100
0000
0010
1000
0010
0000
1000
0001
1000
0000
,  // measure 19
0001
0010
0001
0000
0100
0010
0100
0000
0004
0000
0000
0000
1003
0000
0000
0000
,  // measure 20
1100
1000
0010
0001
1000
0100
0001
1000
,  // measure 21
0001
0100
0010
0100
0001
1000
0100
0001
,  // measure 22
0100
0010
0001
1000
0001
0100
0010
1000
,  // measure 23
0001
0000
1000
0010
1000
0000
0001
0010
0001
0000
1000
0000
0020
0000
0000
0000
,  // measure 24
1030
0000
0100
0000
0010
0000
0001
0100
,  // measure 25
0010
0001
0010
1000
,  // measure 26
0010
0000
0100
0000
0001
0000
1000
0100
,  // measure 27
0010
0001
0000
0000
1000
0000
0001
0000
0100
0000
0000
0000
0010
0000
0000
0000
,  // measure 28
1000
0000
0100
0000
1000
0000
0001
0100
,  // measure 29
0010
0001
0010
1000
,  // measure 30
0010
0000
0100
0000
0001
0000
1000
0100
,  // measure 31
0010
0001
0000
0000
1000
0000
0001
0000
0100
0000
0001
0000
1000
0000
0001
0000
,  // measure 32
0101
0000
0000
0000
1100
0000
0000
1000
0001
0000
1000
0001
1000
0000
0010
0100
,  // measure 33
0010
0000
0000
0000
1100
0000
0001
0010
0100
0000
0010
0100
1000
0000
0001
0100
,  // measure 34
0001
0000
0000
0000
1000
0000
0100
0010
0100
0000
1000
0010
1000
0000
0100
0000
,  // measure 35
0010
0001
0000
0000
0011
0000
0000
0000
1010
0000
0000
0000
1001
0000
0000
0000
,  // measure 36
0001
0100
0001
0100
0010
1000
0010
1000
,  // measure 37
0100
0000
0010
0000
0100
0000
0010
0000
0001
0000
1000
0000
0001
1000
0001
1000
,  // measure 38
0002
0000
1000
0000
0100
0000
0010
1000
,  // measure 39
1003
0000
0001
0000
0001
0000
0100
0010
1000
0000
0001
0000
1001
0000
0000
0000
,  // measure 40
4100
3000
4000
3000
0000
0000
0000
0000
0004
0000
0043
0000
0430
0000
4300
0000
,  // measure 41
3000
0004
0000
0403
0000
0300
0004
0000
0003
0000
4000
3000
2200
0000
3300
0000
,  // measure 42
1010
0000
1000
0000
0001
0000
1000
0000
0100
0000
0010
0000
0001
0100
0001
0100
,  // measure 43
0001
0000
0100
0000
0010
0000
0001
0000
0010
0000
1000
0000
0010
0100
0010
0100
,  // measure 44
0010
0000
1000
0000
0100
0000
0010
0000
0001
0000
1000
0000
0001
0100
0001
0100
,  // measure 45
0001
1000
0100
0001
0400
0000
1300
0000
,  // measure 46
1100
0000
0001
0000
1000
0000
0001
0000
0010
0000
0100
0000
1000
0100
1000
0100
,  // measure 47
1000
0000
0010
0000
0100
0000
1000
0000
0100
0000
0001
0000
0010
0001
0010
0001
,  // measure 48
0010
0000
0100
0000
1000
0000
0001
0000
1000
0000
0100
0000
0010
0001
0010
0001
,  // measure 49
0010
0000
0001
0000
1000
0000
0010
0100
0001
0000
1000
0000
1001
0000
0000
0000
,  // measure 50
0110
0000
0100
0010
0100
0000
0001
0100
0001
0000
1000
0000
0001
0100
0010
0100
,  // measure 51
0001
0000
0100
0001
0100
0000
0010
0100
0010
0000
1000
0000
0100
1000
0001
1000
,  // measure 52
0100
0000
0010
0001
0010
0000
0001
1000
0001
0000
0100
0000
0010
0100
0001
0100
,  // measure 53
0010
0000
1000
0010
1000
0000
0001
0010
0004
0000
0000
0000
0013
0000
0000
0000
,  // measure 54
1010
0000
1000
0010
1000
0000
0001
0010
0001
0000
0100
0000
0001
0010
0100
1000
,  // measure 55
0001
0000
1000
0001
1000
0000
0010
0100
0010
0000
1000
0000
0001
0010
0100
1000
,  // measure 56
0001
0000
0100
0001
0100
0000
0010
0100
0010
0000
1000
0000
0001
0010
0100
1000
,  // measure 57
0001
0000
1000
0000
0001
0000
1000
0010
0100
0000
0010
0000
2020
0000
0000
0000
,  // measure 58
3030
0000
0000
0000
;

//---------------dance-single - ----------------
#NOTEDATA:;
#CHARTNAME:X-Scale 16;
#STEPSTYPE:dance-single;
#DESCRIPTION:;
#CHARTSTYLE:;
#DIFFICULTY:Challenge;
#METER:11;
#RADARVALUES:0.696998,0.917326,0.287563,0.086269,0.723700,509.000000,479.000000,30.000000,9.000000,36.000000,16.000000,18.000000,0.000000,0.000000,0.696998,0.917326,0.287563,0.086269,0.723700,509.000000,479.000000,30.000000,9.000000,36.000000,16.000000,18.000000,0.000000,0.000000;
#CREDIT:;
#NOTES:
// measure 0
0000
0000
0000
0000
,  // measure 1
0000
0000
0000
0000
,  // measure 2
0000
0000
0000
0000
,  // measure 3
0000
0000
0000
0000
,  // measure 4
M000
0000
0000
0000
000M
0000
0000
0000
0M00
0000
0000
0000
00M0
0000
0000
1000
,  // measure 5
M010
1000
0001
0000
000M
0000
0000
0000
0M00
0000
0000
0000
00M0
0000
0000
0001
,  // measure 6
M010
0001
1000
0000
000M
0000
0000
0000
0M00
0000
0000
0000
00M0
0000
1000
0000
,  // measure 7
1001
0000
0001
0000
0101
0000
0100
0010
0100
0000
0001
0000
0011
0000
0000
0000
,  // measure 8
1000
0100
0010
0001
1000
0100
0010
0001
1000
0100
0010
0001
1000
0100
0010
0001
,  // measure 9
1000
0010
0100
0001
1000
0010
0100
0001
1000
0010
0100
0001
1000
0010
0100
0001
,  // measure 10
1000
0100
0010
0001
1000
0100
0010
0001
1000
0100
0010
0001
1000
0100
0010
0001
,  // measure 11
1000
0000
0010
0000
0100
0000
0001
0000
1000
0000
0010
0000
0100
0000
0001
0000
4000
0000
0004
0000
0000
0000
0000
3003
MMMM
0000
0000
0000
0000
0000
0000
0000
,  // measure 12
0001
1000
0010
0100
0001
1000
0010
0100
0001
1000
0010
0100
0001
1000
0010
0100
,  // measure 13
0001
0010
0100
1000
0001
0010
0100
1000
0001
0010
0100
1000
0001
0010
0100
1000
,  // measure 14
0001
1000
0100
0010
0001
1000
0100
0010
0001
1000
0100
0010
0001
0000
0010
0000
,  // measure 15
0101
0000
0001
0000
1001
0000
0100
0010
0100
0000
1000
0000
1100
0000
0000
0000
,  // measure 16
0001
0100
0010
1000
0100
0010
0100
1000
0001
0010
0001
1000
0100
0010
0100
1000
,  // measure 17
0001
0010
0001
0100
0010
0100
0001
0010
0100
0010
0001
1000
0100
0010
0100
1000
,  // measure 18
0001
0100
0001
1000
0100
0010
0100
1000
0001
1000
0010
0100
0001
0010
0100
1000
,  // measure 19
0001
0000
0010
0000
0001
0000
1000
0000
0100
0000
0010
0000
0100
0000
1000
0000
0004
0000
4000
0000
0000
0000
0000
3003
MMMM
0000
0000
0000
0000
0000
0000
0000
,  // measure 20
2000
0001
0100
0001
,  // measure 21
0002
0010
0100
0010
,  // measure 22
0200
0010
0010
0010
,  // measure 23
3313
0000
1000
0100
0001
0000
1000
0010
0001
0000
1000
0000
1001
0000
0000
0000
,  // measure 24
0110
0000
0100
0000
1010
0000
1000
0100
,  // measure 25
0010
0001
1001
1000
,  // measure 26
0010
0000
0100
0000
1010
0000
1000
0100
,  // measure 27
0010
0001
0000
0000
1000
0000
0001
0000
0101
0000
0000
0000
0010
0000
0000
0000
,  // measure 28
1000
0000
0100
0000
1010
0000
0001
0100
,  // measure 29
0010
1000
1100
1000
,  // measure 30
0100
0000
0010
0000
0011
0000
1000
0100
,  // measure 31
0010
0001
0000
0000
1000
0000
0001
0000
0100
0000
0001
0000
1000
0000
0001
0000
,  // measure 32
0101
0000
0000
0000
1100
0000
0000
1000
0001
0000
1000
0001
1000
0000
0010
0100
,  // measure 33
0010
0000
0000
0000
1100
0000
0001
0010
0100
0000
0010
0100
1000
0000
0001
0100
,  // measure 34
0001
0000
0000
0000
1000
0000
0100
0010
0100
0000
1000
0010
1000
0000
0100
0000
,  // measure 35
0010
0001
0000
0000
0011
0000
1000
0001
0100
0000
0010
0100
0001
0000
1000
0100
,  // measure 36
0010
0100
1000
0001
0010
1000
0010
0001
,  // measure 37
0100
0000
0010
0000
0100
0000
0001
0000
1000
0000
1000
0000
0001
1000
0001
1000
,  // measure 38
M002
0000
0000
0000
00M0
0000
0000
0000
0M00
0000
0000
0000
00M0
0000
1000
0003
,  // measure 39
1001
0000
0001
0000
0011
0000
0100
0010
1000
0000
0001
0000
0011
0000
0000
0000
,  // measure 40
4100
3000
4000
3000
0000
0000
0000
0000
4000
0000
3040
0000
0430
0000
0304
0000
,  // measure 41
0003
0040
0000
0430
0000
0300
4000
0000
3000
0000
4000
3000
MMMM
0000
0000
0000
,  // measure 42
1100
0000
0100
0000
0001
0000
0100
0000
1000
0000
0100
0000
0010
0100
1000
0001
,  // measure 43
1000
0000
0100
0000
0010
0000
0001
0000
1000
0000
0001
0000
0010
0100
1000
0001
,  // measure 44
1000
0000
0001
0000
0100
0000
0010
0000
1000
0000
0001
0000
1000
0010
0100
0010
,  // measure 45
1000
0000
0000
0000
0100
0000
0000
0000
0001
0000
0000
0000
0010
0000
0000
0000
4000
0000
0040
0000
0000
0000
0000
3030
MMMM
0000
0000
0000
0000
0000
0000
0000
,  // measure 46
1100
0000
0001
0000
0010
0000
0001
0000
1000
0000
0100
0000
0010
0100
1000
0001
,  // measure 47
1000
0000
0010
0000
0100
0000
1000
0000
0100
0000
0001
0000
1000
0001
0100
0001
,  // measure 48
1000
0000
0100
0000
0010
0000
0001
0000
0100
0000
0010
0000
1000
0001
0010
0100
,  // measure 49
0010
0000
0001
0000
0011
0000
0010
0100
1000
0000
0100
0000
1010
0000
0000
0000
,  // measure 50
0001
0010
0100
1000
0001
0100
0010
0100
0001
1000
0100
0010
0001
0100
0010
0100
,  // measure 51
0001
0010
0100
0010
0001
1000
0010
0100
0010
1000
0100
0010
0100
1000
0001
1000
,  // measure 52
0100
1000
0010
0100
0001
0010
0100
0010
0001
1000
0100
0010
0001
0100
0010
0100
,  // measure 53
0001
0000
0010
0000
0100
0000
1000
0000
0001
0000
1000
0000
0100
0000
0010
0000
0004
0000
0040
0000
0000
0000
0000
0033
MMMM
0000
0000
0000
0000
0000
0000
0000
,  // measure 54
1020
0001
1000
0100
,  // measure 55
0200
0001
1000
0001
,  // measure 56
0002
1000
1000
1000
,  // measure 57
1333
0000
0100
0000
1010
0000
0001
0010
0100
0000
0010
0000
0202
0000
0000
0000
,  // measure 58
0303
0000
0000
0000
;
