#TITLE:PARTY;
#SUBTITLE:;
#ARTIST:Tokyo Machine;
#TITLETRANSLIT:;
#SUBTITLETRANSLIT:;
#ARTISTTRANSLIT:;
#GENRE:Kawaii Bass House;
#CREDIT:;
#BANNER:party-bn.png;
#BACKGROUND:party-bg.png;
#LYRICSPATH:;
#CDTITLE:cdtitle.png;
#MUSIC:PARTY.ogg;
#OFFSET:-0.065000;
#SAMPLESTART:36.626999;
#SAMPLELENGTH:14.000000;
#SELECTABLE:YES;
#BPMS:0.000000=128.000000
,78.000000=64.000000
,79.000000=128.000000
,173.000000=64.000000
,174.000000=128.000000
;
#STOPS:
;
#BGCHANGES:;
#KEYSOUNDS:;
#ATTACKS:;

//---------------dance-single - ----------------
#NOTES:
     dance-single:
     :
     Hard:
     10:
     0.541255,0.656627,0.289536,0.024817,0.285400,458.000000,423.000000,35.000000,3.000000,0.000000,0.000000,0.541255,0.656627,0.289536,0.024817,0.285400,458.000000,423.000000,35.000000,3.000000,0.000000,0.000000:
// measure 0
0000
0000
0000
0000
,  // measure 1
0000
0000
0000
0000
,  // measure 2
0000
0000
0000
0000
,  // measure 3
0000
0000
0000
0000
,  // measure 4
1100
0000
0000
1000
0001
0000
0010
0000
0100
0000
0010
0000
0001
0000
0010
0000
,  // measure 5
0100
0000
0000
1000
0001
0000
0010
0000
1000
0000
0010
0000
0001
0000
0010
0000
,  // measure 6
0011
0000
0000
0010
1000
0000
0000
1000
0010
0000
0100
0000
0001
0000
0010
0000
,  // measure 7
0100
0000
0000
0000
1000
0000
0000
0000
4004
0000
0000
0000
0000
0000
0000
0000
3003
0000
0010
0000
0000
0100
0000
0000
,  // measure 8
0110
0000
0001
0010
0100
1000
0100
1100
,  // measure 9
0000
0000
0100
0000
1000
0100
0010
0001
,  // measure 10
0011
0000
0010
0000
0001
0010
0100
0101
,  // measure 11
0000
0001
0000
0100
0110
0010
1000
0000
,  // measure 12
1010
0000
1000
0100
0001
0100
1000
0001
,  // measure 13
0100
0000
0010
0000
1000
0010
0100
0001
,  // measure 14
0101
0000
0010
0000
1000
0100
0010
0100
,  // measure 15
0000
0100
0010
0001
0110
0010
0001
0000
,  // measure 16
0101
0000
0000
0010
0000
0000
1000
0000
0000
0100
0000
0010
,  // measure 17
0000
0010
0001
0010
0100
1000
0010
0100
,  // measure 18
1000
0010
0100
0001
1000
0010
0100
0001
1000
0010
0100
0001
1000
0010
0100
0001
,  // measure 19
4000
0000
0000
0000
0010
0000
0000
0000
3010
0000
0010
1000
1010
0000
0000
0000
,  // measure 20
0010
1000
0001
0000
0100
0000
0010
0000
,  // measure 21
0100
0010
1000
0001
0100
0000
0010
0000
1000
0000
0010
0000
1010
0000
0000
0000
,  // measure 22
0100
0000
0001
0000
1000
0000
0000
0000
0001
0000
0000
0000
0010
0000
0100
1000
,  // measure 23
0100
0000
0000
0000
0010
0000
0000
0000
1000
0010
0100
0010
1000
0000
0000
0000
0010
0000
0000
0000
1000
0000
0000
0000
1010
0000
0000
0000
0000
0000
0000
0000
,  // measure 24
0100
0010
1000
0000
0001
0000
0100
0000
,  // measure 25
0010
1000
0010
0100
0010
0000
0100
0000
0200
0000
0000
0301
0101
0000
0000
0000
,  // measure 26
0010
0000
0100
0000
0001
0000
0000
0000
0001
0000
0000
0000
1000
0010
0100
0001
,  // measure 27
1000
0000
0001
0000
0010
0100
0010
0000
1000
0000
0001
0000
1001
0000
0000
0000
,  // measure 28
0001
0100
1000
0100
0001
0000
0010
0000
,  // measure 29
0100
0010
0001
0010
0100
0000
0010
0000
0001
0000
1000
0000
1001
0000
0001
0000
,  // measure 30
1000
1000
0100
0010
0100
0000
0010
0100
,  // measure 31
0001
0000
1000
0000
0001
0010
0101
0000
,  // measure 32
0010
1000
0010
0100
,  // measure 33
0010
0100
0010
0100
1000
0000
0010
0000
0100
0000
0000
0000
0011
0000
0000
0000
,  // measure 34
0100
0000
0010
0000
1000
0000
0100
0010
,  // measure 35
0100
0000
0001
0000
0100
0000
1000
0000
0010
0000
0100
0000
1100
0000
0000
1000
,  // measure 36
0010
0100
0010
0000
1000
0000
0001
0000
,  // measure 37
0010
0000
0000
0000
1000
0000
0001
0100
0001
0000
0000
0000
1000
0000
0000
0010
,  // measure 38
0000
0100
0000
0000
0001
0000
0010
0000
,  // measure 39
1000
0000
0000
0000
0000
0000
0000
0000
0000
0000
0000
0000
0000
0000
0000
0000
0010
0000
0000
0000
0000
0000
0000
0000
0100
0000
0000
0000
0000
0000
0000
0000
0000
0000
0000
0000
0010
0000
0000
0000
0000
0000
0000
0000
0000
0100
0000
0000
,  // measure 40
0100
0000
0000
0010
0000
0000
0001
0000
0000
0000
0000
0000
0100
0000
0000
0000
0001
0000
0000
0000
0000
0000
0000
0000
,  // measure 41
0100
0000
0000
0000
0000
0000
0000
0000
0010
0000
0000
0000
0000
0000
0000
0000
0000
0000
0000
0000
0000
0000
0000
0000
0100
0000
0000
0000
0000
0000
0000
0000
0000
0000
0000
0000
1100
0000
0000
0000
0000
0000
0000
0000
0000
0010
0000
0000
,  // measure 42
0010
0000
0000
0100
0000
0000
0100
0000
0000
0000
0000
0000
0001
0000
0000
0000
0010
0000
0000
0000
0000
0000
0000
0000
,  // measure 43
0100
0000
1000
0001
1001
0000
0100
0010
,  // measure 44
0110
0000
0000
0000
1001
0000
0000
0000
0110
0000
0000
0000
1000
0001
1000
0001
,  // measure 45
1000
0010
0100
0001
0101
0000
0001
1000
,  // measure 46
1001
0000
0000
0000
0110
0000
0000
0000
1001
0000
0001
0010
0100
0000
0010
0000
,  // measure 47
0001
1000
0010
1000
0001
0000
0000
0000
0100
0000
0000
0000
0010
0000
0000
0000
0110
0000
0000
0000
0000
0000
0000
0000
1000
0000
0000
0000
0100
0000
0000
0000
,  // measure 48
0010
0000
0000
0000
0001
0000
0000
0000
1000
0000
0000
0000
0100
1000
0100
0010
,  // measure 49
0100
0010
0002
0000
0013
0000
0100
0010
,  // measure 50
1000
0000
0000
0000
0001
0000
0000
0000
0001
0100
0010
1000
0001
0000
1000
0000
,  // measure 51
0010
0100
0010
0000
1000
0000
0010
0000
0110
0000
0000
0000
0100
0000
0010
0000
,  // measure 52
1000
0000
0001
0000
1000
0000
0000
0000
0001
0000
0010
0000
0100
0010
0100
0010
,  // measure 53
1000
0010
0100
0001
0010
0000
0100
0001
,  // measure 54
0010
0000
0000
0000
1000
0000
0000
0000
0001
0000
1000
0100
0010
0000
0001
0000
,  // measure 55
1000
0001
0100
0001
1000
0000
0000
0000
0100
0000
0000
0000
0010
0000
0000
0000
0110
0000
0000
0000
0000
0000
0000
0000
0001
0000
0000
0000
0010
0000
0000
0000
,  // measure 56
0100
0000
0010
0000
0100
0000
0000
0000
0010
0000
0100
0000
0001
0010
0100
1000
,  // measure 57
0001
0010
0100
1000
0002
0000
0000
0000
1003
0000
0000
0000
0100
0000
0010
0000
,  // measure 58
1000
0000
0010
0000
0100
0010
0100
0001
,  // measure 59
0010
0000
1000
0000
1010
0000
0000
0000
1000
0100
0010
0001
1000
0000
0001
0000
,  // measure 60
0100
0000
0000
0000
0010
0000
0000
0000
0001
0010
0100
1000
0001
0000
1000
0000
,  // measure 61
0100
1000
0001
0010
1000
0100
1000
0100
,  // measure 62
0010
0000
0100
0000
0001
0000
0010
0000
0010
0001
0010
0001
0010
0000
0100
0000
,  // measure 63
0100
1000
0010
0000
0100
0000
0010
0000
1010
0000
0000
0000
0000
0000
0000
0000
;

//---------------dance-single - ----------------
#NOTES:
     dance-single:
     :
     Medium:
     7:
     0.460894,0.551566,0.297809,0.033090,0.202675,390.000000,354.000000,36.000000,4.000000,0.000000,0.000000,0.460894,0.551566,0.297809,0.033090,0.202675,390.000000,354.000000,36.000000,4.000000,0.000000,0.000000:
// measure 0
0000
0000
0000
0000
,  // measure 1
0000
0000
0000
0000
,  // measure 2
0000
0000
0000
0000
,  // measure 3
0000
0000
0000
0000
,  // measure 4
1100
1000
0100
0001
,  // measure 5
0010
1000
0100
0001
,  // measure 6
0101
0000
0100
0000
0010
0100
1000
0100
,  // measure 7
0001
0000
0000
0000
0010
0000
0000
0000
0200
0000
0000
0000
0000
0000
0000
0000
0300
0000
0010
0000
0000
0010
0000
0000
,  // measure 8
0011
0000
0100
0000
0001
0000
0100
0101
,  // measure 9
0000
0010
0100
1000
,  // measure 10
0101
0000
0010
0000
0100
0000
0010
1100
,  // measure 11
0000
0100
0011
0100
,  // measure 12
1010
0000
0100
0000
0001
0000
0010
1010
,  // measure 13
0000
1000
0010
0100
,  // measure 14
0110
0000
0010
0000
0100
0000
0010
0011
,  // measure 15
0000
0000
0010
0001
0110
0010
0001
0000
,  // measure 16
0101
0000
0000
0010
0000
0000
1000
0000
0000
0100
0000
0010
,  // measure 17
0000
0010
0001
0010
0100
1000
0010
0100
,  // measure 18
1000
0000
0000
0010
0000
0000
0100
0000
0000
0001
0000
0100
,  // measure 19
0000
0000
0000
0000
0010
0000
0000
0000
1100
0000
0100
0010
0011
0000
0000
0000
,  // measure 20
0100
0010
0001
0000
0100
0000
0001
0000
,  // measure 21
0100
1000
0100
1000
0100
0000
0010
0000
0001
0000
0010
0000
1100
0000
0000
0000
,  // measure 22
0010
0000
0001
0000
0100
0000
0000
0000
0001
0000
0000
0000
0010
0000
1000
0100
,  // measure 23
1000
0000
0010
0000
0010
0100
0010
0000
0010
0000
1000
0000
1010
0000
0000
0000
,  // measure 24
0100
0010
1000
0000
0001
0000
0100
0000
,  // measure 25
0010
0100
0010
0100
1000
0000
0001
0000
0200
0000
0000
0300
0101
0000
0000
0000
,  // measure 26
0010
0000
0100
0000
0001
0000
0000
0000
0001
0000
0000
0000
1000
0010
1000
0010
,  // measure 27
0100
0000
0001
0000
0010
1000
0010
0000
0010
0000
0100
0000
0011
0000
0000
0000
,  // measure 28
0100
0100
0010
0000
0100
0000
0010
0000
,  // measure 29
1000
0010
1000
0010
0100
0000
0010
0000
0010
0000
0100
0000
1010
0000
0000
0000
,  // measure 30
0010
0000
0100
0000
0001
0000
0010
0100
,  // measure 31
0001
0000
1000
0000
0001
0010
0101
0000
,  // measure 32
0010
1000
0010
0100
,  // measure 33
0010
0100
0010
0100
1000
0000
0010
0000
0100
0000
0000
0000
0011
0000
0000
0000
,  // measure 34
0100
0010
1000
0110
,  // measure 35
1010
0000
0101
0000
0010
0010
1010
0000
,  // measure 36
0010
0000
0001
0000
,  // measure 37
0010
0000
0000
0000
0000
0100
0000
0000
0010
0000
0000
0000
0100
0000
0000
0010
,  // measure 38
0000
0100
0000
0000
0001
0000
0000
0000
,  // measure 39
1000
0000
0000
0000
0000
0000
0000
0000
0000
0000
0000
0000
0000
0000
0000
0000
0010
0000
0000
0000
0000
0000
0000
0000
0100
0000
0000
0000
0000
0000
0000
0000
0000
0000
0000
0000
0010
0000
0000
0000
0000
0000
0000
0000
0000
0100
0000
0000
,  // measure 40
0100
0000
0000
0001
0000
0000
0100
0000
0001
0000
0000
0000
,  // measure 41
0100
0000
0000
0000
0000
0000
0000
0000
0010
0000
0000
0000
0000
0000
0000
0000
0000
0000
0000
0000
0000
0000
0000
0000
0100
0000
0000
0000
0000
0000
0000
0000
0000
0000
0000
0000
1100
0000
0000
0000
0000
0000
0000
0000
0000
0010
0000
0000
,  // measure 42
0012
0000
0000
0100
0000
0000
0100
0000
0010
0000
0000
0000
,  // measure 43
0100
0000
0013
0100
0011
0000
0100
0010
,  // measure 44
0100
0000
0000
0000
0001
0000
0000
0000
1000
0000
0000
0000
1000
0001
1000
0001
,  // measure 45
1000
0010
0100
0001
0101
0000
0010
0000
,  // measure 46
0100
0000
0000
0000
0001
0000
0000
0000
1000
0000
0100
0010
0100
0000
0010
0000
,  // measure 47
1000
0100
0010
0100
0010
0000
0100
0000
1010
0000
0000
0000
0100
0000
0100
0000
,  // measure 48
0010
0000
0000
0000
0100
0000
0000
0000
0001
0000
0000
0000
1000
0100
1000
0100
,  // measure 49
0010
0000
0100
0000
0002
0000
0000
0003
0010
0000
0000
0000
0100
0000
0010
0000
,  // measure 50
1000
0000
0000
0000
0001
0000
0000
0000
1000
0010
1000
0010
1000
0000
0010
0000
,  // measure 51
0010
0001
0010
0000
1000
0000
0010
0000
0110
0000
0000
0000
0100
0000
0010
0000
,  // measure 52
0100
0000
1000
0000
0001
0000
0000
0000
1000
0000
0010
0000
0100
0010
0100
0010
,  // measure 53
1000
0010
0100
0001
0010
0000
0100
0001
,  // measure 54
0010
0000
0000
0000
1000
0000
0000
0000
0001
0000
1000
0100
0010
0000
0001
0000
,  // measure 55
0010
0100
0010
0000
0100
0000
0010
0000
1100
0000
0000
0000
0001
0000
0010
0000
,  // measure 56
0100
0000
0010
0000
0010
0000
0000
0000
0010
0000
0100
0000
0010
0100
0010
0100
,  // measure 57
0100
1000
0100
0010
0010
0000
0000
0000
0011
0000
0000
0000
0100
0000
0010
0000
,  // measure 58
1000
0000
0010
0000
0100
0010
0100
0001
,  // measure 59
0010
1000
1010
0000
0100
0000
0010
0000
,  // measure 60
0100
0000
0000
0000
0000
0000
0000
0000
0000
0000
0000
0000
0010
0000
0000
0000
0000
0000
0000
0000
0001
0000
0000
0000
0000
0000
0000
0000
0000
0000
0000
0000
0000
0000
0000
0000
0010
0000
0000
0000
0000
0000
0000
0000
0000
0100
0000
0000
,  // measure 61
0000
0000
0001
0000
1000
0100
1000
0100
,  // measure 62
0010
0000
0100
0000
0001
0000
0010
0000
0010
0001
0010
0001
0010
0000
0100
0000
,  // measure 63
0100
1000
0010
0000
0100
0000
0010
0000
1010
0000
0000
0000
0000
0000
0000
0000
;

//---------------dance-single - ----------------
#NOTES:
     dance-single:
     :
     Easy:
     4:
     0.346262,0.420241,0.454985,0.124087,0.037226,293.000000,238.000000,55.000000,15.000000,0.000000,0.000000,0.346262,0.420241,0.454985,0.124087,0.037226,293.000000,238.000000,55.000000,15.000000,0.000000,0.000000:
// measure 0
0000
0000
0000
0000
,  // measure 1
0000
0000
0000
0000
,  // measure 2
0000
0000
0000
0000
,  // measure 3
0000
0000
0000
0000
,  // measure 4
1100
0000
0000
0100
,  // measure 5
0110
0000
0000
0001
,  // measure 6
0011
0000
0100
0000
0010
0000
1000
0100
,  // measure 7
0010
0000
0000
0000
0010
0000
0000
0000
0000
0000
0000
0000
1000
0000
0000
0000
0000
0000
0100
0000
0000
0100
0000
0000
,  // measure 8
1100
0000
0000
0000
0000
0000
0000
1010
,  // measure 9
0000
0100
0001
0010
,  // measure 10
0101
0000
0000
0000
0000
0000
0000
0110
,  // measure 11
0000
0000
0011
0000
,  // measure 12
1010
0000
0000
0000
0100
0000
0000
0101
,  // measure 13
0000
1000
0100
0010
,  // measure 14
0011
0000
0000
0000
0100
0000
0000
1010
,  // measure 15
0000
0000
0110
0000
,  // measure 16
0101
0000
0000
0010
0000
0000
1000
0000
0000
0100
0000
0010
,  // measure 17
0000
0010
0001
0010
0100
1000
0010
0100
,  // measure 18
1000
0000
0000
0010
0000
0000
0100
0000
0000
0001
0000
0100
,  // measure 19
0000
0000
0000
0000
0010
0000
0000
0000
0000
0000
0010
0010
1010
0000
0000
0000
,  // measure 20
0200
0000
0000
0300
0010
0000
0000
0000
0010
0000
0000
0000
0001
0000
0000
0000
,  // measure 21
1000
0000
0100
0100
0001
0001
0101
0000
,  // measure 22
0020
0000
0000
0030
0100
0000
0000
0000
0100
0000
0000
0000
0010
0000
0000
0000
,  // measure 23
1000
0000
0100
0000
0001
0010
0101
0000
,  // measure 24
0020
0000
0000
0030
1000
0000
0000
0000
1000
0000
0000
0000
0100
0000
0000
0000
,  // measure 25
0001
0000
0000
0000
0010
0000
0100
0000
0020
0000
0000
0030
0110
0000
0000
0000
,  // measure 26
0200
0000
0000
0300
0001
0000
0000
0000
0001
0000
0000
0000
1000
0000
0000
0000
,  // measure 27
0100
0000
0001
0000
0010
0010
0110
0000
,  // measure 28
0001
0000
0000
1010
0100
0000
0010
0000
,  // measure 29
0101
0000
0000
0011
0001
0000
1010
0000
,  // measure 30
0010
0000
0000
1010
0100
0000
0001
0001
,  // measure 31
0001
0000
0000
0101
0010
0000
0110
0000
,  // measure 32
0000
0000
0000
1010
0100
0000
0100
0000
,  // measure 33
0001
0000
0000
0101
0010
0000
0011
0000
,  // measure 34
0100
0010
1000
1010
,  // measure 35
0000
0000
0110
0000
0010
0010
0011
0000
,  // measure 36
0010
0000
0001
0000
,  // measure 37
0010
0000
0000
0000
0000
0100
0000
0000
0010
0000
0000
0000
1010
0000
0000
0000
,  // measure 38
0000
0000
0100
0000
,  // measure 39
0001
0000
0000
0000
0000
0010
0000
0000
0100
0000
0000
0000
0110
0000
0000
0000
,  // measure 40
0100
0000
0000
0001
0000
0000
0100
0000
0001
0000
0000
0000
,  // measure 41
0100
0000
0010
0000
0000
0000
1000
0000
0000
0101
0000
0000
,  // measure 42
0002
0000
0000
0100
0000
0000
0100
0000
0010
0000
0000
0000
,  // measure 43
0100
0000
0000
0000
0003
0000
0000
0000
1001
0000
0000
0000
2000
0000
0000
3000
,  // measure 44
1100
1100
1010
0100
,  // measure 45
0001
0000
0010
0000
0100
0000
1000
0000
1001
0000
0000
0000
0002
0000
0000
0003
,  // measure 46
0101
0101
0011
0010
,  // measure 47
1000
0000
0000
0000
0100
0000
0010
0000
0110
0000
0000
0000
0200
0000
0000
0300
,  // measure 48
1000
1010
0100
0110
,  // measure 49
0010
0000
0000
0000
0200
0000
0000
0300
0110
0000
0000
0000
0100
0000
0000
0000
,  // measure 50
0101
0001
1000
0100
,  // measure 51
0010
0000
0001
0010
0011
0000
0100
0000
,  // measure 52
1000
1000
1000
0000
0100
0100
0100
0000
,  // measure 53
0001
0000
0100
0010
0101
0000
0001
0000
,  // measure 54
1000
1000
0100
0001
,  // measure 55
0010
0000
0000
0000
0100
0000
0000
0000
0101
0000
0000
0000
0020
0000
0000
0030
,  // measure 56
1000
1000
1000
0000
0100
0001
0020
0000
,  // measure 57
0230
0000
0000
0000
0320
0000
0000
0000
0130
0000
0000
0000
0002
0000
0000
0003
,  // measure 58
0011
0010
0011
0010
,  // measure 59
0100
1010
0100
0010
,  // measure 60
0001
0010
0100
1000
,  // measure 61
0001
0100
1000
0100
,  // measure 62
0010
0000
0001
0000
0100
0000
0010
0100
,  // measure 63
0001
0000
1000
1000
1001
0000
0000
0000
;
