#VERSION:0.83;
#TITLE:Nothing Hurts Like You;
#SUBTITLE:;
#ARTIST:Feed Me feat. Sam Calver;
#TITLETRANSLIT:;
#SUBTITLETRANSLIT:;
#ARTISTTRANSLIT:;
#GENRE:Electro House;
#ORIGIN:;
#CREDIT:;
#BANNER:Nothing Hurts Like You-bn.png;
#BACKGROUND:Nothing Hurts Like You-bg.png;
#PREVIEWVID:;
#JACKET:Nothing Hurts Like You-jacket.png;
#CDIMAGE:;
#DISCIMAGE:;
#LYRICSPATH:;
#CDTITLE:cdtitle.png;
#MUSIC:Nothing Hurts Like You.ogg;
#OFFSET:-0.004000;
#SAMPLESTART:75.003998;
#SAMPLELENGTH:15.000000;
#SELECTABLE:YES;
#BPMS:0.000=128.000;
#STOPS:;
#DELAYS:;
#WARPS:;
#TIMESIGNATURES:0.000=4=4;
#TICKCOUNTS:0.000=4;
#COMBOS:0.000=1;
#SPEEDS:0.000=1.000=0.000=0;
#SCROLLS:0.000=1.000;
#FAKES:;
#LABELS:0.000=Song Start;
#BGCHANGES:0.000=Nothing Hurts Like You.avi=1.000=1=0=0=StretchNoLoop==CrossFade==,
99999=-nosongbg-=1.000=0=0=0 // don't automatically add -songbackground-
;
#KEYSOUNDS:;
#ATTACKS:
;

//---------------dance-single - ----------------
#NOTEDATA:;
#CHARTNAME:;
#STEPSTYPE:dance-single;
#DESCRIPTION:;
#CHARTSTYLE:;
#DIFFICULTY:Hard;
#METER:13;
#RADARVALUES:0.514792,0.672621,0.324644,0.405805,0.170438,444.000000,404.000000,40.000000,50.000000,0.000000,0.000000,3.000000,0.000000,0.000000,0.514792,0.672621,0.324644,0.405805,0.170438,444.000000,404.000000,40.000000,50.000000,0.000000,0.000000,3.000000,0.000000,0.000000;
#CREDIT:;
#NOTES:
// measure 0
0000
0000
0000
0000
,  // measure 1
0000
0000
0000
0000
,  // measure 2
0000
0000
0000
0000
,  // measure 3
0000
0000
0000
0000
,  // measure 4
2001
0000
0200
3300
0020
0030
0101
0001
,  // measure 5
1001
1000
1100
0100
0001
0100
0010
0001
,  // measure 6
0012
0000
2000
3003
0020
0030
1010
1000
,  // measure 7
1001
0001
0011
0010
0100
1000
1100
0000
,  // measure 8
0001
0000
1000
0000
0100
0000
1000
0000
0020
0000
0000
0000
0130
0000
0100
0010
,  // measure 9
0100
0001
1001
0000
1000
0100
0010
0002
,  // measure 10
0000
0000
0013
0000
1000
0000
0010
0000
0200
0000
0000
0000
2300
0000
3001
1000
,  // measure 11
0001
1000
1100
0000
0100
0010
0001
2000
,  // measure 12
0000
3100
0001
0100
0020
0000
0000
0002
,  // measure 13
0033
0020
0030
0100
0010
0001
1000
0200
,  // measure 14
0000
0301
0100
1000
0002
0000
2003
0020
,  // measure 15
3030
0000
2000
0000
3001
0000
0100
0000
0010
0000
1000
0000
0001
0000
0000
0100
,  // measure 16
0001
0000
1000
0000
0010
0000
1000
0000
0200
0000
0000
0000
1300
0000
0100
0010
,  // measure 17
0100
1000
0001
0100
1000
0100
0001
0200
,  // measure 18
0000
0000
0310
0000
0001
0000
0010
0000
0200
0000
0000
0000
0301
0000
1000
0001
,  // measure 19
0100
0020
1030
1000
0100
0001
0100
2000
,  // measure 20
0000
3001
0010
0100
2000
0000
0001
3002
,  // measure 21
0003
0020
0130
0010
0001
1000
0010
0200
,  // measure 22
0000
1300
0100
0001
0020
0000
0230
0000
,  // measure 23
1300
0100
0010
0001
1000
0100
0010
0001
,  // measure 24
0012
0100
1000
0100
,  // measure 25
0013
0001
1000
0010
0100
0010
1000
0010
,  // measure 26
0000
1000
0100
0001
0100
0010
0100
1000
,  // measure 27
0000
0001
0100
0010
0100
0001
0010
0100
,  // measure 28
0000
1000
0001
0100
0010
0100
0001
1000
,  // measure 29
0000
0001
0010
0100
1000
0010
0100
0001
,  // measure 30
0000
1000
0100
0010
1000
0010
0001
1000
,  // measure 31
0000
0010
1000
0100
0001
0100
1000
0010
,  // measure 32
1000
0100
0010
0001
0021
0000
0130
0010
,  // measure 33
0001
1000
1020
0000
0130
0010
0100
0001
,  // measure 34
0010
1000
0010
0100
2100
0000
3001
1000
,  // measure 35
0100
0000
1000
0000
1010
0000
0000
0000
0010
0000
0100
0000
0010
0000
1000
0100
,  // measure 36
0010
0100
1000
0001
1000
0000
1100
0100
,  // measure 37
1000
0001
1001
1000
0010
0001
0010
1000
,  // measure 38
0001
1000
0001
1000
0001
1000
0001
1000
0001
1000
0001
1000
0001
1000
0001
1000
,  // measure 39
0004
4000
0000
0000
0000
0000
0000
0000
0000
0000
0000
0000
3003
0000
0000
0000
,  // measure 40
1001
0000
1100
0000
0101
0000
0001
1000
,  // measure 41
0010
1000
0001
0010
1000
0010
0100
1000
,  // measure 42
1100
0000
0110
0000
0101
0000
0001
0100
,  // measure 43
1000
0100
0001
1000
0100
1000
0001
0010
,  // measure 44
0110
0000
0000
0000
1001
0000
0000
0000
0110
0000
0000
0000
0100
0000
0010
0100
,  // measure 45
0001
0000
1000
0000
0001
0000
0010
0000
1000
0000
0010
0000
0100
0000
1000
0100
,  // measure 46
0010
0001
1001
0000
0110
0000
1010
2000
,  // measure 47
0000
3002
0013
0100
1000
0001
1000
0010
,  // measure 48
1020
0100
0001
0100
,  // measure 49
1000
0000
0100
0000
2000
0000
0000
3030
,  // measure 50
1010
0000
0000
0000
0101
0000
0001
0100
0001
0000
0010
0100
0020
0000
0000
0000
,  // measure 51
0032
0000
0000
0000
1003
0000
0001
0010
0100
0000
0010
0000
0200
0000
0000
0000
,  // measure 52
1300
0100
0001
0100
1000
0001
0010
0100
,  // measure 53
2000
0000
0000
0000
3010
1000
0001
0000
1001
0000
0000
1000
0100
0000
0000
0000
,  // measure 54
0210
0000
1300
0100
1000
0000
1004
0000
,  // measure 55
0100
0000
0103
0000
0001
0000
0000
0000
0020
0000
0000
0000
0130
1000
0001
1000
,  // measure 56
0100
0000
0010
0000
0101
0000
0100
0000
0110
0000
0010
0000
1010
0000
1000
0010
,  // measure 57
1000
0000
0001
0000
0010
0000
0100
0000
1000
0001
1000
0000
0010
0100
0010
0000
,  // measure 58
0220
0030
0000
0000
,  // measure 59
0002
0000
0000
0000
0000
0000
0300
0000
0000
0000
1003
0000
0000
1000
0000
0000
,  // measure 60
1000
0000
0000
1000
0000
0000
1000
0000
0010
0000
0100
0000
0002
0000
0000
0000
,  // measure 61
0013
0000
0000
0000
0000
0000
0000
0000
0000
0010
0000
0000
0000
0000
0000
0001
0000
0000
0000
0000
0000
0010
0000
0000
0000
0000
0100
0000
0000
0000
0000
0000
1000
0000
0000
0000
0001
0000
0000
0000
0000
0000
1000
0000
0000
0000
0001
0000
,  // measure 62
0000
0010
0000
0100
0000
0000
1000
0000
0001
0000
0100
0000
0000
0010
0000
1000
0000
0001
0000
0000
1000
0000
0000
2000
,  // measure 63
0000
3002
0000
0003
;

//---------------dance-single - ----------------
#NOTEDATA:;
#CHARTNAME:;
#STEPSTYPE:dance-single;
#DESCRIPTION:;
#CHARTSTYLE:;
#DIFFICULTY:Medium;
#METER:11;
#RADARVALUES:0.415080,0.543271,0.308412,0.422037,0.040580,358.000000,320.000000,38.000000,52.000000,0.000000,0.000000,0.000000,0.000000,0.000000,0.415080,0.543271,0.308412,0.422037,0.040580,358.000000,320.000000,38.000000,52.000000,0.000000,0.000000,0.000000,0.000000,0.000000;
#CREDIT:;
#NOTES:
// measure 0
0000
0000
0000
0000
,  // measure 1
0000
0000
0000
0000
,  // measure 2
0000
0000
0000
0000
,  // measure 3
0000
0000
0000
0000
,  // measure 4
0011
0000
1100
0000
0011
0000
0000
1001
,  // measure 5
0000
0110
0000
0100
0010
1000
0001
0010
,  // measure 6
0100
0000
1100
0000
0101
0000
0000
0011
,  // measure 7
0000
1010
0000
1000
0010
0100
0010
0000
,  // measure 8
0110
0000
1001
0000
0110
0000
0000
1000
,  // measure 9
0100
1000
0001
0000
0010
0100
1000
0001
,  // measure 10
1000
0000
1010
0000
0101
0000
0000
0001
,  // measure 11
0100
0001
0010
0000
0100
1000
0001
1000
,  // measure 12
1100
0000
0101
0000
0011
0000
0000
0001
,  // measure 13
1000
0001
0100
0000
0010
0100
0001
0010
,  // measure 14
0100
0000
1100
0000
1010
0000
0000
0001
,  // measure 15
1000
0000
0010
0000
1000
0000
0000
0000
0100
0000
0010
0000
0001
0000
1000
0001
,  // measure 16
2000
0000
3100
0010
0001
0000
1000
0001
,  // measure 17
0100
0001
1000
0100
0001
0100
0010
0001
,  // measure 18
2000
0000
3010
0000
1010
0000
1000
0001
,  // measure 19
0100
0001
1000
0000
0001
0100
0010
0100
,  // measure 20
0201
0000
0000
0000
0310
0000
0000
0000
0100
0000
0000
0000
0001
0000
0010
0001
,  // measure 21
0010
0001
1000
0000
0010
1000
0001
0010
,  // measure 22
0200
0000
1300
0000
0001
0000
0100
0010
,  // measure 23
1000
0001
0010
0000
0100
0010
0001
1000
,  // measure 24
1001
0000
0001
0000
0010
0000
0100
0010
,  // measure 25
0001
1000
0002
0000
0013
0000
0100
0000
,  // measure 26
1000
0000
0010
0100
0002
0000
1003
0000
,  // measure 27
0001
0010
0200
0000
1300
0000
0001
0000
,  // measure 28
1000
0000
0010
1000
0002
0000
0103
0000
,  // measure 29
0010
0100
0002
0000
0013
0000
0100
0000
,  // measure 30
1000
0000
0010
1000
0002
0000
0013
0000
,  // measure 31
0100
0010
0002
0000
1003
0000
0010
0000
,  // measure 32
1000
1010
0001
0011
,  // measure 33
0010
0100
1000
0000
0100
0100
0110
0010
,  // measure 34
0010
0101
0001
1001
,  // measure 35
1000
0010
1000
0000
0001
0001
1001
1000
,  // measure 36
1000
0000
0100
0010
0002
0000
1003
0000
,  // measure 37
0001
0010
0200
0000
1300
1000
1001
0002
,  // measure 38
0000
0003
0010
0200
0000
0300
0000
2000
,  // measure 39
0000
0000
3100
0000
0001
0000
0100
0000
0020
0000
0030
0002
0000
0003
2000
0000
,  // measure 40
0100
0000
0010
3000
1010
0000
0100
0001
,  // measure 41
1000
0001
0100
0010
1000
0100
0001
0100
,  // measure 42
2000
0000
0001
3000
1001
0000
0100
1000
,  // measure 43
0001
0100
0010
1000
0100
0010
0100
2000
,  // measure 44
0001
0000
3010
0000
1000
0000
1001
0001
,  // measure 45
0100
0001
0010
0100
1000
0001
0100
0020
,  // measure 46
0000
2030
3000
0020
0000
2030
3000
0020
,  // measure 47
0000
2030
3100
0010
0001
0200
0300
0020
,  // measure 48
2000
0030
0020
0030
0020
0030
0020
0030
,  // measure 49
0020
0030
0020
0030
0020
0000
0000
3030
,  // measure 50
1010
0000
1000
0001
0100
0001
2000
0000
,  // measure 51
3200
0000
0310
0100
1000
0001
0200
0000
,  // measure 52
0301
0010
0100
1000
0001
0100
0010
1000
,  // measure 53
0200
0000
0000
0000
0310
0100
0010
0000
0011
0000
0000
0000
1100
0000
0000
0000
,  // measure 54
0012
0000
1003
0001
0200
0000
0320
0000
,  // measure 55
1030
0000
0010
0000
1000
0000
0000
0000
0002
0000
0000
0000
0013
0001
0010
0000
,  // measure 56
0100
0000
0100
0000
1100
0000
1000
0000
0001
0000
1000
0000
0100
0000
0000
1000
,  // measure 57
0001
0000
1000
0000
0010
0000
0100
0000
0001
0010
0001
0000
0010
0001
0010
0000
,  // measure 58
0022
0030
0000
0000
,  // measure 59
2000
0000
0000
0000
0000
0000
0000
0000
3000
0000
0000
1000
0000
0000
0010
0000
,  // measure 60
0000
1000
0000
0000
0200
0000
0000
0000
0300
0000
0000
0000
0000
0000
0000
0000
,  // measure 61
2003
0000
3000
0200
,  // measure 62
0000
0300
0020
0000
,  // measure 63
0030
0002
0000
0003
;

//---------------dance-single - ----------------
#NOTEDATA:;
#CHARTNAME:;
#STEPSTYPE:dance-single;
#DESCRIPTION:;
#CHARTSTYLE:;
#DIFFICULTY:Easy;
#METER:7;
#RADARVALUES:0.287542,0.405805,0.162322,0.113625,0.000000,248.000000,228.000000,20.000000,14.000000,0.000000,0.000000,0.000000,0.000000,0.000000,0.287542,0.405805,0.162322,0.113625,0.000000,248.000000,228.000000,20.000000,14.000000,0.000000,0.000000,0.000000,0.000000,0.000000;
#CREDIT:;
#NOTES:
0000
0000
0000
0000
,
0000
0000
0000
0000
,
0000
0000
0000
0000
,
0000
0000
0000
0000
,
2000
0000
0100
3000
0001
0000
0000
0010
,
0000
0100
0000
0000
1000
0000
0001
0000
,
2000
0000
0010
3000
0001
0000
0000
0010
,
0000
0100
0000
0000
1000
0000
0001
0000
,
1001
0000
1000
0000
0100
0000
1000
0001
,
0000
0100
0000
0001
0010
0000
0001
1000
,
0010
0000
0100
0000
0010
0000
1000
0100
,
0000
1000
0000
0000
0001
0000
1000
0000
,
0001
0000
0010
0000
0100
0000
0000
1000
,
0000
0100
0000
0000
1000
0000
0001
0000
,
0100
0000
0010
0000
0100
0000
0000
0001
,
0000
0010
0000
0000
0001
0000
1000
0000
,
2001
0000
0010
0000
0001
0000
0000
0100
,
0000
0100
0000
0000
0010
0000
0001
0000
,
3010
0000
1000
0000
0001
0000
0000
0010
,
0000
0100
0000
0000
1000
0000
0100
0000
,
0010
0000
0100
0000
1000
0000
0000
0001
,
0000
0100
0000
0000
0001
0000
1000
0000
,
0010
0000
1000
0000
0001
0000
0000
0100
,
0000
0010
0000
0000
1000
0000
0100
0000
,
1100
1000
0001
1000
,
0010
1000
0001
1000
,
0100
0010
0100
1000
,
0001
1000
0100
0010
,
0100
1000
0001
0100
,
0001
1000
0001
0100
,
0001
1000
0010
0100
,
0001
0010
0100
0010
,
0001
1001
1000
1100
,
0100
0000
1010
0000
1000
0010
1000
0000
,
0001
0011
0010
0101
,
0100
0000
1001
0000
0001
0100
0001
0000
,
0010
0110
0100
1010
,
1000
0000
1001
0000
0001
1000
0001
0020
,
0000
0030
0100
2000
0000
3000
0000
0000
,
0002
0000
0000
0000
,
1003
0000
0001
0000
1000
0000
0100
0010
,
0000
0010
0001
0000
1000
0001
0100
0001
,
1000
0000
0010
0000
1000
0000
0001
0010
,
0000
0010
0100
0000
1000
0100
0010
0100
,
1000
0000
0001
0000
0100
0000
0010
0100
,
0000
0100
0001
0000
0010
0100
1000
0002
,
0000
0023
0000
0032
0000
0023
0000
0032
,
0010
0003
0001
1000
0001
0000
0010
0000
,
0210
0000
0000
0000
,
0000
0000
0000
0000
,
1300
1100
0100
1010
,
0001
1001
1000
1100
,
0100
1000
0001
0100
1000
0100
0001
0010
,
0100
1000
1010
1001
,
0101
0000
0100
0010
0100
0000
0002
0000
,
0000
1003
0001
0000
0010
0000
0100
0000
,
1000
0010
1000
0001
0010
0000
0100
0010
,
0001
0000
1000
0001
0100
0000
0010
0100
,
0002
0003
0000
0000
,
1000
0000
0000
0000
,
0000
0000
0100
0000
,
0000
0001
0000
1000
,
0000
0000
0100
0000
;

//---------------dance-single - ----------------
#NOTEDATA:;
#CHARTNAME:;
#STEPSTYPE:dance-single;
#DESCRIPTION:;
#CHARTSTYLE:;
#DIFFICULTY:Beginner;
#METER:3;
#RADARVALUES:0.139133,0.211830,0.024348,0.000000,0.000000,120.000000,117.000000,3.000000,0.000000,0.000000,0.000000,0.000000,0.000000,0.000000,0.139133,0.211830,0.024348,0.000000,0.000000,120.000000,117.000000,3.000000,0.000000,0.000000,0.000000,0.000000,0.000000,0.000000;
#CREDIT:;
#NOTES:
0000
0000
0000
0000
,
0000
0000
0000
0000
,
0000
0000
0000
0000
,
0000
0000
0000
0000
,
0000
0001
0000
1000
,
0000
0001
0000
1000
,
0000
0100
0000
0010
,
0100
1000
0100
1000
,
0000
0001
0000
1000
,
0000
0001
0000
1000
,
0000
0010
0000
0100
,
0000
0010
0000
0100
,
0000
0001
0000
0010
,
0000
0001
0000
0010
,
0000
0100
0000
1000
,
0001
0100
0001
1000
,
0000
0100
0000
0010
,
0000
0100
0000
0010
,
0000
0001
0000
1000
,
0000
0001
0000
1000
,
0000
0010
0000
0100
,
0000
0010
0000
0100
,
0000
0001
0000
0010
,
0100
0010
0001
0010
,
0100
0000
0000
0000
,
1000
0000
0000
0000
,
0001
0000
0000
0000
,
1000
0000
0000
0000
,
0100
0000
0000
0000
,
0010
0000
0000
0000
,
0001
0000
0000
0000
,
1000
0000
0000
0000
,
0000
0010
0000
1000
,
0000
0001
0010
0001
,
0000
0010
0000
0100
,
0000
1000
0100
1000
,
0000
0001
0000
0100
,
0000
0010
1000
0010
,
1000
0000
0000
0000
,
0001
0000
0000
0000
,
1001
1000
0001
0000
,
0010
0100
0010
0000
,
0001
1000
0001
0000
,
0100
0010
0100
0000
,
0001
0100
0001
0000
,
1000
0100
1000
0000
,
0001
0010
0001
0000
,
1000
0001
1000
0001
,
1001
0000
0000
0000
,
0000
0000
0000
0000
,
0000
0100
0000
0010
,
0000
1000
0000
0001
,
0000
0010
0000
0100
,
0000
1000
0000
0001
,
0000
1000
0100
1000
,
0000
0001
0100
0001
,
0000
0010
0100
0010
,
0100
0000
1000
0000
,
1001
0000
0000
0000
;
