#VERSION:0.83;
#TITLE:Motorcycle;
#SUBTITLE:;
#ARTIST:Blue Monster & Bikki;
#TITLETRANSLIT:;
#SUBTITLETRANSLIT:;
#ARTISTTRANSLIT:;
#GENRE:Eurodance;
#ORIGIN:;
#CREDIT:;
#BANNER:Motorcycle-bn.png;
#BACKGROUND:Motorcycle-bg.png;
#PREVIEWVID:;
#JACKET:Motorcycle-jacket.png;
#CDIMAGE:;
#DISCIMAGE:;
#LYRICSPATH:;
#CDTITLE:cdtitle.png;
#MUSIC:Motorcycle.ogg;
#OFFSET:-0.080000;
#SAMPLESTART:52.742001;
#SAMPLELENGTH:13.813000;
#SELECTABLE:YES;
#BPMS:0.000=139.000;
#STOPS:;
#DELAYS:;
#WARPS:;
#TIMESIGNATURES:0.000=4=4;
#TICKCOUNTS:0.000=4;
#COMBOS:0.000=1;
#SPEEDS:0.000=1.000=0.000=0;
#SCROLLS:0.000=1.000;
#FAKES:;
#LABELS:0.000=Song Start;
#BGCHANGES:;
#KEYSOUNDS:;
#ATTACKS:
;

//---------------dance-single - ----------------
#NOTEDATA:;
#CHARTNAME:;
#STEPSTYPE:dance-single;
#DESCRIPTION:;
#CHARTSTYLE:;
#DIFFICULTY:Hard;
#METER:13;
#RADARVALUES:0.558732,0.597336,0.134322,0.244939,0.268643,495.000000,478.000000,17.000000,31.000000,0.000000,0.000000,0.000000,0.000000,0.000000,0.558732,0.597336,0.134322,0.244939,0.268643,495.000000,478.000000,17.000000,31.000000,0.000000,0.000000,0.000000,0.000000,0.000000;
#CREDIT:;
#NOTES:
// measure 0
0000
0000
0000
0000
,  // measure 1
0000
0000
0000
0000
,  // measure 2
0000
0000
0000
0000
,  // measure 3
0000
0000
0000
0000
,  // measure 4
0000
0000
0000
0000
,  // measure 5
0000
0000
0000
2100
,  // measure 6
0010
3002
0010
0203
,  // measure 7
1000
0320
0001
0230
,  // measure 8
0001
0320
1000
0230
,  // measure 9
0001
0302
0010
1003
,  // measure 10
0000
0000
1001
0000
0110
0000
1001
1000
,  // measure 11
0100
0000
0001
0000
0100
0000
1000
0010
0000
0100
0001
0000
0001
0100
0001
0000
,  // measure 12
1000
0000
0100
0000
0010
0000
0001
0100
0000
0000
0010
0000
1000
0000
0001
0000
,  // measure 13
0100
0000
0001
0000
1000
0000
0100
0010
0000
0001
0010
0000
0100
1000
0100
0000
,  // measure 14
1000
0000
0001
0000
0100
0000
0010
0100
0000
0000
0001
0000
0010
0000
1000
0000
,  // measure 15
0010
0000
0100
0000
1000
0000
0001
1000
0000
0100
0010
0000
0100
1000
0100
0000
,  // measure 16
1000
0000
0001
0000
0010
0000
0100
0010
0000
0000
0001
0000
1000
0000
0100
0000
,  // measure 17
0001
0000
0100
0000
1000
0000
0010
0100
0000
0001
0010
0000
0011
0000
0001
0000
,  // measure 18
1000
0000
0001
0000
0100
0000
0001
1000
0000
0000
0010
0000
1010
0000
1000
0000
,  // measure 19
0100
0010
0002
0000
0103
0000
0010
0100
,  // measure 20
0002
0000
0010
0003
0001
0010
0100
0000
,  // measure 21
1000
0001
0100
0000
0010
0100
1000
0100
,  // measure 22
0002
0010
2003
0100
,  // measure 23
3001
1000
0200
0000
0301
0100
1000
0010
,  // measure 24
0200
0000
0301
0100
0010
0000
1000
0100
,  // measure 25
0010
0100
2000
0000
3001
0020
0000
0130
,  // measure 26
0020
0031
0020
0130
0020
0031
0201
0000
,  // measure 27
0320
0000
1030
0010
0100
0001
0010
0100
,  // measure 28
1000
0001
2000
0000
3010
1000
0002
0000
,  // measure 29
0203
0000
1300
0100
0010
0100
0101
0000
,  // measure 30
1100
0000
1010
0000
0011
0000
1001
0001
,  // measure 31
1000
0001
0100
0010
0100
0001
0000
0010
,  // measure 32
0100
1000
0002
0000
0203
0000
1300
0100
,  // measure 33
0010
0100
0001
0010
0100
1000
0000
0001
,  // measure 34
1000
0010
0200
0000
0302
0000
1003
0010
,  // measure 35
1000
0001
0100
0010
1000
0100
0000
0010
,  // measure 36
0100
1000
0001
0010
0100
2000
0010
0000
,  // measure 37
0001
0000
3010
1000
0001
1000
0100
0010
,  // measure 38
0100
0000
1000
0000
0001
0000
0100
0000
0010
0000
0100
0000
0001
0000
0000
0010
,  // measure 39
0000
0000
1000
0000
0100
0000
0000
1000
0000
0000
0010
0000
0001
0000
0000
0100
,  // measure 40
0000
0000
0010
0000
0100
0000
0000
0001
0000
0000
1000
0000
0010
0000
0000
1000
,  // measure 41
0000
0000
0100
0000
0001
0000
0000
0100
0000
0000
0010
0000
0001
0000
0000
1000
,  // measure 42
0000
0000
0001
0000
0100
0000
0000
0001
0000
0000
0010
0000
0100
0000
0000
1000
,  // measure 43
0000
0000
0001
0000
1000
0000
0000
0100
0000
0000
0010
0000
0001
0000
0000
1000
,  // measure 44
0000
0000
0001
0000
0010
0000
1000
0000
0010
0000
0100
0000
1000
0000
0000
0100
,  // measure 45
0000
0000
1000
0000
0001
0000
0000
0001
0000
0000
0010
0000
0011
0000
0001
0000
,  // measure 46
1000
0000
0010
0000
0100
0000
0001
1000
0000
0000
0100
0000
1100
0000
1000
0000
,  // measure 47
0001
0000
0010
0000
1000
0000
0010
0100
0000
0010
0001
0000
0100
0010
0100
0000
,  // measure 48
0001
0000
1000
0000
0001
0000
0100
0010
0000
0000
1000
0000
0001
0000
0010
0000
,  // measure 49
0100
0000
0010
0000
0001
0000
0010
0100
0000
1000
0100
0000
0010
0100
0010
0000
,  // measure 50
0001
0000
1000
0000
0001
0000
0100
0010
0000
0000
0100
0000
0001
0000
1000
0000
,  // measure 51
0010
0000
0001
0000
0010
0000
0100
0001
0000
1000
0010
0000
0001
0100
0001
0000
,  // measure 52
1000
0000
0010
0000
0100
0000
0010
1000
0000
0000
0100
0000
0010
0000
0001
0000
,  // measure 53
1000
0000
0001
0000
0010
0000
0100
1000
0000
0001
0100
0000
0001
0010
0100
0000
,  // measure 54
0010
0000
0001
0000
1000
0000
0100
0010
0000
0000
0001
0000
1001
0000
0001
0000
,  // measure 55
0100
0000
0010
0100
0001
0000
1000
0000
0001
0000
0100
0010
1000
0000
0001
0000
,  // measure 56
0010
1000
0001
0100
1000
0001
1000
0100
,  // measure 57
0010
0000
0001
0010
0100
0000
0010
0000
0001
0000
1000
0001
0100
0000
0010
0000
,  // measure 58
0001
0010
1000
0001
0100
0010
1000
0001
,  // measure 59
0010
0000
1000
0010
0001
0000
0100
0000
0010
0000
0001
0010
0100
0000
0001
0000
,  // measure 60
1000
0100
0001
0100
0010
0002
1000
0000
,  // measure 61
0010
0000
0000
0000
1003
0000
0001
0000
0100
0000
0001
0000
1000
0000
0100
1000
,  // measure 62
0100
0000
0010
0000
0001
0000
0100
0000
0010
0000
1000
0000
1010
0000
0000
0010
,  // measure 63
1000
0000
0001
0000
0010
0000
0000
0100
0010
0000
0001
0010
0001
0000
0000
0010
,  // measure 64
0100
0000
1000
0000
0001
0000
0000
0100
0010
0000
0100
0000
0001
0000
0000
0010
,  // measure 65
0100
0000
1000
0000
0001
0000
0000
0100
0010
0000
1000
0010
1000
0000
0000
0100
,  // measure 66
0010
0000
0001
0000
0100
0000
0000
0001
1000
0000
0100
0000
0010
0000
0000
0100
,  // measure 67
1000
0000
0001
1000
0001
0000
0000
0010
0100
0000
0010
0001
0010
0000
0000
0001
,  // measure 68
0100
0000
0001
0000
0010
0000
0000
0100
1000
0000
0001
0000
1000
0000
0010
0000
,  // measure 69
0100
0001
1000
0010
0100
0001
1001
1000
,  // measure 70
0100
0001
0100
0010
0001
0010
0200
0000
,  // measure 71
0000
0000
0000
0000
,  // measure 72
0300
0000
0000
0000
;

//---------------dance-single - ----------------
#NOTEDATA:;
#CHARTNAME:;
#STEPSTYPE:dance-single;
#DESCRIPTION:;
#CHARTSTYLE:;
#DIFFICULTY:Medium;
#METER:10;
#RADARVALUES:0.472947,0.512002,0.142223,0.521484,0.102716,419.000000,401.000000,18.000000,66.000000,0.000000,0.000000,0.000000,0.000000,0.000000,0.472947,0.512002,0.142223,0.521484,0.102716,419.000000,401.000000,18.000000,66.000000,0.000000,0.000000,0.000000,0.000000,0.000000;
#CREDIT:;
#NOTES:
// measure 0
0000
0000
0000
0000
,  // measure 1
0000
0000
0000
0000
,  // measure 2
0000
0000
0000
0000
,  // measure 3
0000
0000
0000
0000
,  // measure 4
0000
0000
0000
0000
,  // measure 5
0000
0000
0000
1010
,  // measure 6
1000
0100
0010
0000
0100
0010
0001
0000
,  // measure 7
1000
0100
0010
0000
0100
0010
0001
0000
,  // measure 8
1000
0010
0100
0000
0010
0100
0001
0000
,  // measure 9
1000
0010
0100
0000
0010
0100
0001
0000
,  // measure 10
0000
0000
1001
0000
0110
0000
1001
1000
,  // measure 11
0100
1000
0010
0100
0010
1000
0000
0001
,  // measure 12
0010
1000
0100
0001
0000
1000
0100
0001
,  // measure 13
0100
0010
0001
1000
0001
0100
0000
0010
,  // measure 14
0100
0001
0010
0100
0010
0001
1000
0100
,  // measure 15
0001
0100
0010
0001
1000
0010
0000
0100
,  // measure 16
0010
0001
0010
1000
0000
0001
0010
0100
,  // measure 17
0001
0100
1000
0001
1000
0010
1010
2000
,  // measure 18
0000
0010
0000
3010
0000
0000
1001
1000
,  // measure 19
0001
0010
0200
0000
0301
0000
0100
0010
,  // measure 20
0002
0000
1003
0001
0100
0001
1000
0000
,  // measure 21
0001
0010
2000
0000
3010
0100
1000
0001
,  // measure 22
0200
0000
0000
0310
0100
0001
0010
0000
,  // measure 23
0100
0010
0002
0000
1003
0001
0100
0010
,  // measure 24
2000
0000
0000
3100
1000
0001
0100
0010
,  // measure 25
0100
0001
0020
0000
0130
2000
0001
0000
,  // measure 26
3100
0010
0100
0010
0100
0010
0012
0000
,  // measure 27
2003
0000
3010
0000
1000
0100
0001
0100
,  // measure 28
1000
0001
0200
0000
1300
0100
0002
0000
,  // measure 29
2003
0000
3100
0010
0001
1000
1001
0000
,  // measure 30
0110
1001
0110
2001
,  // measure 31
3200
0000
0320
0000
0031
0200
0000
1300
,  // measure 32
0100
0001
2000
0000
3200
0000
0320
0000
,  // measure 33
0230
0000
2300
0000
3001
0200
0000
1300
,  // measure 34
0100
0001
0020
0000
0032
0000
0203
0000
,  // measure 35
0320
0000
2030
0000
3001
0200
0000
1300
,  // measure 36
0100
0010
0100
0001
0010
0200
1000
0000
,  // measure 37
0010
0000
1300
0100
0000
0010
0001
0100
,  // measure 38
0001
0010
1000
0010
0100
1000
1200
0000
,  // measure 39
0320
0000
0032
0000
1003
0020
0000
0031
,  // measure 40
0010
1000
0002
0000
0203
0000
0320
0000
,  // measure 41
0230
0000
0302
0000
1003
0200
0000
0301
,  // measure 42
0100
1000
0002
0000
2003
0000
3020
0000
,  // measure 43
0230
0000
0302
0000
1003
0020
0000
0031
,  // measure 44
0010
0000
1000
0000
0001
0000
0010
0000
0100
0000
2000
0000
0010
0000
0000
0010
,  // measure 45
0000
0000
0001
0000
3001
0000
0000
1000
0000
0000
1000
0000
0100
0000
0000
0100
,  // measure 46
0000
0010
0001
1000
1001
0001
0101
0100
,  // measure 47
0010
0000
0100
0000
0001
0000
0000
0100
0000
0000
0010
0000
0100
0000
0001
0000
,  // measure 48
1000
0000
0100
0000
0010
0000
0001
0010
0000
0000
0001
0000
1000
0000
0001
0000
,  // measure 49
0100
0000
0010
0000
0100
0000
0000
0001
0000
0000
1000
0000
0100
0000
1000
0000
,  // measure 50
0001
0000
0010
0000
0100
0000
1000
0100
0000
0000
1000
0000
0001
0000
0100
0000
,  // measure 51
1000
0000
0100
0000
0001
0000
0000
0010
0000
0000
0100
0000
1000
0000
0001
0000
,  // measure 52
1000
0000
0010
0000
0100
0000
0010
1000
0000
0000
0100
0000
1000
0000
0001
0000
,  // measure 53
0100
0000
0001
0000
0010
0000
0000
0100
0000
0000
1000
0000
0001
0000
1000
0000
,  // measure 54
0100
0000
1000
0000
0001
0000
0010
0100
0000
0000
1000
0000
2100
0000
0000
0000
,  // measure 55
3002
0000
0023
0000
0130
2000
0000
3001
,  // measure 56
1000
0100
0020
0000
0230
0000
2300
0000
,  // measure 57
3002
0000
0203
0000
0310
2000
0000
3001
,  // measure 58
1000
0010
0200
0000
0320
0000
0032
0000
,  // measure 59
0023
0000
2030
0000
3100
0020
0000
0031
,  // measure 60
0010
1000
0010
0100
1000
0002
0010
0000
,  // measure 61
1000
0000
0000
0000
0013
0000
0001
0000
0000
0000
1000
0000
0010
0000
0000
0100
,  // measure 62
0010
0000
0100
0000
0001
0000
0010
0000
0100
0000
0010
0000
0011
0000
0000
0001
,  // measure 63
0000
0000
1000
0000
0010
0000
0000
1000
0000
0000
0001
0000
0010
0000
0000
0100
,  // measure 64
0000
0000
1000
0000
0001
0000
0000
1000
0000
0000
0100
0000
0010
0000
0000
0100
,  // measure 65
0000
0000
1000
0000
0001
0000
0000
0100
0000
0000
0010
0000
0100
0000
0000
0001
,  // measure 66
0000
0000
0010
0000
0100
0000
0000
1000
0000
0000
0001
0000
1000
0000
0000
0010
,  // measure 67
0000
0000
0100
0000
0010
0000
0000
1000
0000
0000
0100
0000
0010
0000
0000
0100
,  // measure 68
0000
0000
1000
0000
0001
0000
0000
0010
0000
0000
0100
0000
1000
0000
0001
0000
,  // measure 69
0100
0000
1000
0000
0100
0000
0010
0000
0100
0000
0001
0000
1001
0000
0000
1000
,  // measure 70
0000
0000
0100
0000
0010
0000
0000
0100
0000
0000
1000
0000
0002
0000
0000
0000
,  // measure 71
0000
0000
0000
0000
,  // measure 72
0003
0000
0000
0000
;

//---------------dance-single - ----------------
#NOTEDATA:;
#CHARTNAME:;
#STEPSTYPE:dance-single;
#DESCRIPTION:;
#CHARTSTYLE:;
#DIFFICULTY:Easy;
#METER:6;
#RADARVALUES:0.328467,0.391310,0.071111,0.110618,0.000000,291.000000,282.000000,9.000000,14.000000,0.000000,0.000000,0.000000,0.000000,0.000000,0.328467,0.391310,0.071111,0.110618,0.000000,291.000000,282.000000,9.000000,14.000000,0.000000,0.000000,0.000000,0.000000,0.000000;
#CREDIT:;
#NOTES:
0000
0000
0000
0000
,
0000
0000
0000
0000
,
0000
0000
0000
0000
,
0000
0000
0000
0000
,
0000
0000
0000
0000
,
0000
0000
0000
1001
,
0000
0001
0000
0100
,
0000
0001
0000
1000
,
0000
0100
0000
0010
,
0000
0100
0000
1000
,
0000
0001
1000
0001
,
0010
0100
1000
0001
,
0010
0100
1000
0001
,
0100
0010
1000
0001
,
0100
0000
0010
1000
0001
1000
0010
0100
,
0010
1000
0010
0100
0010
0000
1000
0000
,
0001
1000
0100
0010
,
0100
0000
1000
0000
0001
0000
1001
1000
,
0000
0100
0000
1000
0000
0000
1100
0000
,
0100
0010
0002
0000
1003
0000
0001
0010
,
0200
1300
0001
1000
,
0010
0100
0002
0000
1003
0000
0100
0010
,
0002
1000
0000
1003
0000
0001
0000
0001
,
0100
0010
0200
0000
0301
0000
1000
0100
,
0020
0001
0000
0031
0010
0100
1000
0000
,
0001
0000
1000
0000
0100
0020
0000
0000
,
0031
0010
0001
0012
,
2003
0000
3010
0000
1000
0000
0100
0010
,
0100
1000
0200
0000
0310
0000
0002
0000
,
2003
3010
0100
0001
,
0001
0001
0000
1001
,
1000
0100
0010
0001
,
1000
0100
0010
0001
,
1000
0010
0100
0001
,
1000
0010
0100
0001
,
0010
0100
0010
0001
,
1000
0010
1000
0001
,
0100
0000
0010
0000
0100
0000
0001
1000
,
0001
1000
0100
0010
0100
0010
0001
0000
,
1000
0010
1000
0001
,
0010
0100
1000
0000
0001
0000
1000
0000
,
0010
0100
0001
0010
,
0100
0010
0001
0000
1000
0000
0010
0000
,
0100
0010
1000
0001
,
0100
0010
1000
0001
0100
0010
1000
0000
,
0100
0010
0001
0011
,
0000
0000
1000
0100
1000
0000
1100
0000
,
0100
0010
0001
1000
,
0100
0010
0001
1000
,
0001
0100
0010
1000
,
0001
0100
0010
1000
,
0001
0100
0001
1000
,
0010
0100
0010
1000
,
0100
0010
0100
1000
,
0001
0100
0000
1001
,
1000
0000
0100
0000
0000
1000
0000
0000
,
0001
1000
0001
0000
0010
0000
0100
0000
,
0010
0000
0001
0000
0000
0100
0000
0000
,
0010
0100
0001
0000
0010
0000
0100
0000
,
1000
0000
0001
0000
0000
0100
0000
0000
,
0010
0100
0001
0010
0100
2000
0001
0000
,
0010
0000
3001
1000
0000
0100
0000
0010
,
0000
0001
0000
1000
0001
1000
0010
0000
,
0100
0000
0001
0000
0000
0010
0000
0001
,
1000
0010
1000
0000
0001
0000
0100
0000
,
0001
0000
1000
0000
0000
0010
0000
0100
,
0001
0100
0010
0000
0100
0000
0001
0000
,
0010
0000
0100
0000
0000
1000
0000
0001
,
0010
0100
1000
0001
1000
0020
0100
0000
,
1000
0000
0100
0030
0010
0000
0110
0000
,
0000
0100
0000
0010
;

//---------------dance-single - ----------------
#NOTEDATA:;
#CHARTNAME:;
#STEPSTYPE:dance-single;
#DESCRIPTION:;
#CHARTSTYLE:;
#DIFFICULTY:Beginner;
#METER:2;
#RADARVALUES:0.146738,0.220445,0.047408,0.000000,0.000000,130.000000,124.000000,6.000000,0.000000,0.000000,0.000000,0.000000,0.000000,0.000000,0.146738,0.220445,0.047408,0.000000,0.000000,130.000000,124.000000,6.000000,0.000000,0.000000,0.000000,0.000000,0.000000,0.000000;
#CREDIT:;
#NOTES:
0000
0000
0000
0000
,
0000
0000
0000
0000
,
0000
0000
0000
0000
,
0000
0000
0000
0000
,
0000
0000
0000
0000
,
0000
0000
0000
1000
,
0000
0000
0000
0100
,
0000
0000
0000
0010
,
0000
0000
0000
0001
,
0000
0000
0000
1001
,
0000
0000
0000
0110
,
0000
1000
0000
0001
,
0000
1000
0000
0001
,
0000
0010
0000
0100
,
0000
0010
0000
0100
,
0000
1000
0000
0010
,
0000
1000
0000
0010
,
0000
0100
0000
0001
,
0000
0000
0000
0000
,
1000
0000
0001
0000
,
1000
0000
0001
0000
,
0100
0000
0010
0000
,
0100
0000
0010
0000
,
1000
0000
0100
0000
,
1000
0000
0100
0000
,
0010
0000
0001
0000
,
0010
0000
0001
0001
,
0000
0010
0000
0100
,
0000
1000
0000
0010
,
0000
0100
0000
0010
,
0000
1000
0000
1001
,
0000
1000
0000
0100
,
0000
1000
0000
0001
,
0000
1000
0000
0100
,
0000
0010
0000
0100
,
0000
1000
0000
0001
,
0000
0100
0000
0001
,
0000
1000
0000
0100
,
0000
0010
0000
0001
,
0000
0010
0000
0100
,
0000
1000
0000
0001
,
0000
0100
0000
0010
,
0000
1000
0000
0001
,
0000
0100
0000
0001
,
0000
1000
0000
0100
,
0000
0010
0000
0001
,
0000
0000
0000
1001
,
0000
1000
0000
0010
,
0000
1000
0000
0001
,
0000
0010
0000
0100
,
0000
1000
0000
0001
,
0000
1000
0000
0100
,
0000
0010
0000
0001
,
0000
0100
0000
0010
,
0000
1000
0000
1001
,
0000
1000
0000
0100
,
0000
0010
0000
0100
,
0000
1000
0000
0001
,
0000
0100
0000
0001
,
0000
1000
0000
0010
,
0000
0100
0000
0001
,
0000
0010
0000
0100
,
0000
1000
0000
0001
,
0000
0010
0000
0001
,
0000
1000
0000
0100
,
0000
0010
0000
0001
,
0000
0100
0000
0001
,
0000
1000
0000
0001
,
0000
0100
0000
0010
,
0010
0100
0100
0110
;
