#TITLE:I Love Kanye;
#SUBTITLE:;
#ARTIST:Kanye West;
#TITLETRANSLIT:;
#SUBTITLETRANSLIT:;
#ARTISTTRANSLIT:;
#GENRE:Spoken Rap;
#CREDIT:;
#BANNER:I Love Kanye-bn.png;
#BACKGROUND:I Love Kanye-bg.png;
#LYRICSPATH:;
#CDTITLE:cdtitle.png;
#MUSIC:I Love Kanye.ogg;
#OFFSET:-0.254000;
#SAMPLESTART:0.246000;
#SAMPLELENGTH:12.300000;
#SELECTABLE:YES;
#BPMS:0.000000=195.391998
;
#STOPS:
;
#BGCHANGES:;
#KEYSOUNDS:;
#ATTACKS:;

//---------------dance-single - I <3 u like Kanye <3 Kanye \:)----------------
#NOTES:
     dance-single:
     X-Scale 12:
     Hard:
     8:
     0.564502,0.674588,0.000000,0.288594,0.199796,178.000000,178.000000,0.000000,13.000000,14.000000,0.000000,0.564502,0.674588,0.000000,0.288594,0.199796,178.000000,178.000000,0.000000,13.000000,14.000000,0.000000:
// measure 0
0001
1000
0100
0010
0000
0000
0010
1000
,  // measure 1
0000
0000
1000
0001
0010
0100
0000
0000
,  // measure 2
0100
0001
0000
0000
1000
0010
0100
0001
,  // measure 3
0000
0000
1000
0100
0000
0000
1000
0001
,  // measure 4
0100
0010
0000
0000
0001
0100
0000
0000
,  // measure 5
0001
1000
0001
0010
0000
0000
1000
0010
,  // measure 6
0000
0000
0001
0200
0000
0300
0200
0000
,  // measure 7
0301
0000
0000
0100
0000
0000
0000
0000
0001
0000
1000
0000
0001
0000
0010
0000
,  // measure 8
0000
0000
0001
0010
0000
0000
1000
0010
,  // measure 9
0001
0010
0000
0000
0001
0100
0000
0000
,  // measure 10
0010
0001
0010
1000
0000
0000
0001
1000
,  // measure 11
0000
0000
0100
0010
0100
1000
0000
0000
,  // measure 12
0001
0010
0000
0000
0001
1000
0001
0010
,  // measure 13
0000
0000
0000
0001
0000
0000
0100
0000
0001
0000
1000
0000
0010
0000
0100
0000
,  // measure 14
0001
0000
0000
0001
0010
0000
0000
0001
,  // measure 15
1000
0010
1000
0100
1000
0001
0010
0000
,  // measure 16
0000
0001
1000
0001
0100
0001
0010
0100
,  // measure 17
1000
0000
0001
0010
0100
0010
0100
0010
,  // measure 18
0100
1000
0001
1000
0010
0100
0001
1000
,  // measure 19
0001
0010
0100
1000
0000
0000
0001
1000
,  // measure 20
0001
0010
0000
0000
0001
0010
0000
0000
,  // measure 21
0001
0100
0001
1000
0000
0000
1000
0001
,  // measure 22
0000
0000
1000
0100
1000
0010
0100
0001
,  // measure 23
0010
0000
0000
0010
0000
0001
0000
0000
1000
0000
0100
0000
0010
0000
0001
0000
,  // measure 24
0000
0000
0010
0100
0000
0000
1000
0100
,  // measure 25
0000
0000
0000
0000
0100
0000
0000
0010
0000
0000
0000
0000
0001
0000
0100
0000
,  // measure 26
0001
0000
0000
0000
0000
0000
1000
0000
0100
0000
0000
0000
1000
0000
0000
0001
,  // measure 27
0000
0000
0000
0000
0010
0001
0010
0000
0001
0000
0100
0000
0000
0000
0000
0000
,  // measure 28
0010
0000
1000
0000
0000
0000
0000
0000
1000
0001
0000
1000
0000
0000
0020
0000
,  // measure 29
0000
0030
0010
0100
0000
0000
0001
0100
,  // measure 30
0010
0100
0000
0000
0100
0001
0000
0000
,  // measure 31
1000
0020
0000
0030
0020
0000
1030
0010
,  // measure 32
0000
0000
0000
0000
1000
0100
2000
0000
0000
0000
3000
0200
0000
0000
0000
0300
,  // measure 33
0020
0000
0000
0000
0030
0000
0002
0000
0003
0020
0000
0000
0030
0000
0000
0000
,  // measure 34
0002
0000
0000
0000
0000
0000
0000
0000
0000
0000
0000
0000
0003
0000
0000
2000
0000
0000
0000
0000
0000
3000
0000
0000
0002
0000
0000
0000
0000
0000
0003
0000
0000
0000
0000
0000
0000
0000
0000
0000
0000
0000
M000
M000
M000
M000
M000
M000
,  // measure 35
M00M
00M0
000M
00M0
000M
00M0
000M
0000
;
