#VERSION:0.83;
#TITLE:Guillotine;
#SUBTITLE:;
#ARTIST:Death Grips;
#TITLETRANSLIT:;
#SUBTITLETRANSLIT:;
#ARTISTTRANSLIT:;
#GENRE:Noise Hip-Hop;
#ORIGIN:;
#CREDIT:;
#BANNER:Guillotine-bn.png;
#BACKGROUND:Guillotine-bg.png;
#PREVIEWVID:;
#JACKET:Guillotine-jacket.png;
#CDIMAGE:;
#DISCIMAGE:;
#LYRICSPATH:;
#CDTITLE:cdtitle.png;
#MUSIC:Guillotine.ogg;
#OFFSET:-0.008000;
#SAMPLESTART:53.772999;
#SAMPLELENGTH:15.250000;
#SELECTABLE:YES;
#BPMS:0.000=151.772;
#STOPS:70.000=0.395,
173.000=0.395;
#DELAYS:;
#WARPS:;
#TIMESIGNATURES:0.000=4=4;
#TICKCOUNTS:0.000=4;
#COMBOS:0.000=1;
#SPEEDS:0.000=1.000=0.000=0,
24.000=4.000=8.000=0,
32.000=1.000=0.050=0,
54.000=4.000=2.000=0,
56.000=1.000=0.050=0,
86.000=8.000=2.000=0,
87.000=1.000=0.050=0,
109.000=4.000=2.000=0,
111.000=1.000=0.050=0,
143.000=4.000=8.000=0,
151.000=1.000=0.050=0,
151.250=0.500=6.750=0,
158.000=1.000=1.000=0,
159.000=4.000=8.000=0,
167.000=1.000=0.050=0,
204.000=4.000=2.000=0,
206.000=1.000=0.050=0;
#SCROLLS:0.000=1.000;
#FAKES:;
#LABELS:0.000=Song Start;
#BGCHANGES:0.000=Guillotine.mp4=1.000=1=0=1===CrossFade==,
99999=-nosongbg-=1.000=0=0=0 // don't automatically add -songbackground-
;
#KEYSOUNDS:;
#ATTACKS:
;

//---------------dance-single - ----------------
#NOTEDATA:;
#CHARTNAME:X-Scale 15;
#STEPSTYPE:dance-single;
#DESCRIPTION:;
#CHARTSTYLE:;
#DIFFICULTY:Challenge;
#METER:10;
#RADARVALUES:0.676718,0.978838,0.088543,0.336462,0.841155,535.000000,525.000000,10.000000,38.000000,0.000000,3.000000,0.000000,0.000000,0.000000,0.676718,0.978838,0.088543,0.336462,0.841155,535.000000,525.000000,10.000000,38.000000,0.000000,3.000000,0.000000,0.000000,0.000000;
#CREDIT:;
#NOTES:
// measure 0
0000
0000
0000
0000
,  // measure 1
0000
0000
0000
0000
,  // measure 2
0000
0000
0000
0000
,  // measure 3
0000
0000
0000
0000
,  // measure 4
0001
0010
0001
0010
0100
1000
0100
1000
,  // measure 5
0001
0100
0001
0100
0010
1000
0010
1000
,  // measure 6
0001
0100
0002
0000
0000
0000
0000
0000
1000
0000
0000
0000
0000
0000
0000
0000
,  // measure 7
0000
0000
0010
2000
,  // measure 8
3203
0300
0000
0000
1000
0000
0000
0000
,  // measure 9
0001
0010
0100
1000
0000
0000
0000
0000
0001
0000
0000
0000
0000
0000
0000
0000
,  // measure 10
0101
0100
0001
1000
0000
0100
1000
0000
0001
0100
0000
0010
,  // measure 11
1000
0000
0000
0000
0000
0000
0000
0000
0100
0000
0000
0000
0010
0000
0000
0000
0000
0000
0000
0000
0001
0000
0000
0000
1000
0000
0000
0001
0000
0000
0000
0000
0000
0000
0000
0000
0010
0000
0000
0000
0000
0000
0001
0000
0000
0100
0000
0000
,  // measure 12
0002
0000
0013
0100
2000
0000
3000
0000
,  // measure 13
0020
0030
0200
0000
,  // measure 14
0302
0003
0000
0000
1000
0100
1000
0100
,  // measure 15
0010
0001
0010
0001
1000
0010
1000
0010
,  // measure 16
2020
0030
0000
0000
0001
0000
0000
0000
,  // measure 17
0000
0000
0000
0000
0000
0000
3010
0000
0000
1001
1000
0001
,  // measure 18
0010
0001
0000
0000
2000
0000
0000
0000
3100
0000
1000
0000
0000
0001
0000
0000
,  // measure 19
0100
0000
0000
0000
0000
0000
0000
0000
0010
0000
0000
0000
0100
0000
0000
0000
0001
0000
0000
0000
1000
0000
0000
0000
0100
0000
0000
1000
0000
0000
0000
0000
0000
0001
0000
0000
0100
0000
0000
0000
0000
0000
0001
0000
0000
0000
0000
0000
,  // measure 20
1000
0000
0000
0000
0100
0010
0001
0000
1000
0000
0001
0000
2200
0000
3300
0000
,  // measure 21
0022
0033
2020
3030
1000
0010
1000
0000
0002
0000
0000
0000
0023
0000
0030
0000
,  // measure 22
0000
0000
0100
1000
0100
1000
0001
0100
,  // measure 23
0001
0100
0010
1000
0010
1000
1001
0010
,  // measure 24
0001
0000
0100
0000
0010
0000
0000
1000
0001
0000
1000
0000
0100
0000
0000
0010
,  // measure 25
0001
0000
1000
0000
0001
0000
0000
0010
0100
0000
1000
0100
0010
0000
0001
0100
,  // measure 26
0010
0100
0001
0000
1000
0000
0001
0000
0100
0000
0010
0000
1000
0000
0001
0010
,  // measure 27
0000
0000
0001
0000
0200
0000
0000
0000
0000
0000
0010
0000
0310
0000
0000
0100
,  // measure 28
0010
0000
0000
0000
0000
0000
0000
0000
0000
1000
0000
0000
0100
0000
0000
0000
0000
0000
0000
0000
0000
0000
0000
0000
0010
0000
0000
0000
0001
0000
0000
0000
1000
0000
0000
0000
0001
0000
0000
0000
0000
0000
0000
0000
0000
0010
0000
0000
,  // measure 29
0100
0000
0000
0000
1000
0000
0000
0000
0001
0000
0000
0000
1000
0000
0000
0000
0000
0000
0000
0000
0000
0010
0000
0000
0100
0000
0000
0000
0010
0000
0000
0000
1000
0000
0000
0000
0001
0000
0000
0000
0000
0000
0010
0000
0000
0001
0000
0000
,  // measure 30
0010
0000
0000
0100
1000
0000
0000
0001
0100
0000
0010
0000
1000
0000
0001
1000
,  // measure 31
0001
0000
0010
0000
0200
0000
0300
2000
0000
0000
0000
0000
3002
0000
0000
0000
,  // measure 32
0000
0100
0000
0000
,  // measure 33
0000
0000
0023
0030
0000
0000
0001
0100
,  // measure 34
0010
1000
0001
0100
0010
1000
0001
0100
,  // measure 35
0010
0000
1000
0000
0001
0000
0100
0000
0010
0000
1000
0000
0001
1000
0002
0000
,  // measure 36
0000
0010
0000
0000
,  // measure 37
0000
1000
2000
3203
,  // measure 38
0000
0000
0000
0000
,  // measure 39
0000
0000
0000
0000
0000
0000
0000
0000
1300
0000
0100
0000
1000
0001
2000
0000
,  // measure 40
0000
0001
0000
0000
,  // measure 41
0000
0000
0010
0000
0020
0000
3230
0300
,  // measure 42
0000
1000
0000
0001
,  // measure 43
0010
0001
0000
0000
0100
0000
0000
0000
1100
0000
1000
0000
0001
0000
0010
0000
,  // measure 44
0100
0010
0000
0000
0001
0000
0000
0001
1000
0000
0100
0000
0001
0000
0100
0000
,  // measure 45
1000
0000
0000
0010
1000
0000
0001
1000
0001
0000
0000
0010
0000
0001
0000
1000
,  // measure 46
0100
0000
0000
1000
0000
0000
0002
0000
0013
0001
0000
0000
1000
0001
0000
0000
,  // measure 47
0010
0100
0000
0000
2000
0000
0000
3000
1001
0000
1000
0100
0000
0010
0001
1000
,  // measure 48
0001
0000
0100
0010
0200
0000
0000
0000
0301
0000
1000
0100
0010
0001
0000
1000
,  // measure 49
0010
0100
0001
0100
0020
0000
0000
0030
1010
0000
0000
0000
0001
0000
0010
0000
,  // measure 50
0002
0003
2000
3000
,  // measure 51
0020
0000
0000
0000
0000
0000
0000
0000
0130
0010
1000
0001
0100
0010
1000
0001
,  // measure 52
0100
0010
1000
0001
0100
0010
1000
0001
0100
0001
1000
0010
0100
0001
1000
0010
,  // measure 53
0100
0001
0010
0100
1000
0001
0010
0100
1000
0100
0010
0001
1000
0100
0010
0001
,  // measure 54
1000
0100
0010
0001
1000
0100
0010
0001
1000
0100
1000
0100
0010
0001
1000
0010
,  // measure 55
0100
0001
1000
0010
0100
0001
1000
0010
1000
0001
0010
0100
1000
0001
0010
0100
,  // measure 56
1000
0001
0010
0100
1000
0010
0100
0001
1000
0010
0100
0001
1000
0010
0100
0001
,  // measure 57
1000
0010
0100
0001
1000
0010
0100
0001
1000
0001
0010
0100
1000
0001
0010
0100
,  // measure 58
1000
0001
0010
0100
1000
0001
0010
0100
1000
0001
0010
0100
1000
0010
0100
0001
,  // measure 59
1000
0010
0100
0001
1000
0100
0001
0100
1000
0001
0100
0010
1000
0001
0100
0010
,  // measure 60
1000
0001
0100
0010
1000
0001
0100
0010
1000
0100
0010
0001
1000
0100
0010
0001
,  // measure 61
1000
0100
0010
0001
1000
0100
0010
0001
1000
0001
0100
0010
1000
0001
0100
0010
,  // measure 62
1000
0001
0100
0010
1000
0001
0100
0010
1000
0001
0100
0010
1000
0001
0100
0010
,  // measure 63
1000
0001
0100
0010
1000
0010
0100
0010
1000
0001
0010
0100
1000
0001
0010
0100
,  // measure 64
1000
0001
0010
0100
1000
0001
0010
0100
1000
0001
0010
0100
1000
0001
0010
0100
,  // measure 65
1000
0001
0010
0100
1000
0001
0010
0100
1000
0001
0100
0010
1000
0001
0100
0010
,  // measure 66
1000
0001
0100
0010
1000
0001
0100
0010
1000
0001
0100
0010
2000
0000
0000
0000
,  // measure 67
3100
0000
0000
0000
;
