#VERSION:0.83;
#TITLE:Embers;
#SUBTITLE:(Kai Wachi Remix);
#ARTIST:Dabin ft. Jill Harris;
#TITLETRANSLIT:;
#SUBTITLETRANSLIT:;
#ARTISTTRANSLIT:;
#GENRE:Hybrid Trap;
#ORIGIN:;
#CREDIT:;
#BANNER:embers_kw-bn.png;
#BACKGROUND:embers_kw-bg.png;
#PREVIEWVID:;
#JACKET:embers_kw-jacket.png;
#CDIMAGE:;
#DISCIMAGE:;
#LYRICSPATH:;
#CDTITLE:cdtitle.png;
#MUSIC:embers-kw.ogg;
#OFFSET:0.000000;
#SAMPLESTART:54.900002;
#SAMPLELENGTH:12.000000;
#SELECTABLE:YES;
#BPMS:0.000=140.000,
59.500=70.000,
62.000=140.000,
93.500=70.000,
101.500=140.000,
226.000=280.000,
250.000=70.000,
256.000=140.000,
286.000=70.000,
287.000=140.000,
351.000=70.000;
#STOPS:113.500=1.500;
#DELAYS:;
#WARPS:;
#TIMESIGNATURES:0.000=4=4;
#TICKCOUNTS:0.000=4;
#COMBOS:0.000=1;
#SPEEDS:0.000=1.000=0.000=0;
#SCROLLS:0.000=1.000;
#FAKES:;
#LABELS:0.000=Song Start;
#BGCHANGES:;
#KEYSOUNDS:;
#ATTACKS:
;

//---------------dance-single - ----------------
#NOTEDATA:;
#CHARTNAME:;
#STEPSTYPE:dance-single;
#DESCRIPTION:;
#CHARTSTYLE:;
#DIFFICULTY:Medium;
#METER:7;
#RADARVALUES:0.431003,0.671684,0.717734,0.025407,0.069868,475.000000,362.000000,113.000000,4.000000,0.000000,0.000000,5.000000,0.000000,0.000000,0.431003,0.671684,0.717734,0.025407,0.069868,475.000000,362.000000,113.000000,4.000000,0.000000,0.000000,5.000000,0.000000,0.000000;
#CREDIT:;
#NOTES:
// measure 0
0000
0000
0000
0000
,  // measure 1
0000
0000
0000
0000
,  // measure 2
0000
0000
0000
0000
,  // measure 3
0000
0000
0000
0000
,  // measure 4
1001
0000
0000
0101
0000
0000
0110
0000
,  // measure 5
1000
0000
0001
0100
0010
1000
0000
1000
,  // measure 6
0011
1000
0100
1000
0001
0000
1000
0000
,  // measure 7
0001
1000
0001
1000
,  // measure 8
1001
0000
0000
1000
1000
0000
0001
0010
,  // measure 9
0100
0100
1000
1000
,  // measure 10
1001
0000
0000
0100
0010
0000
0100
0010
,  // measure 11
0001
0001
1000
1000
,  // measure 12
0110
0000
0000
0001
0010
0000
1000
0000
,  // measure 13
0100
0000
0010
0000
0001
0000
1001
0100
,  // measure 14
0110
0000
0000
0000
0000
0000
1000
0000
0100
0000
0000
0000
1000
0000
0100
0001
,  // measure 15
0000
0010
0000
0101
0000
0010
0000
0000
0000
0000
1000
0000
0000
0000
1000
0000
,  // measure 16
0000
0100
0000
0100
0000
0010
0000
0010
,  // measure 17
0000
0001
1000
0001
0000
0100
0000
0010
,  // measure 18
0000
1000
0000
0001
0000
0100
0000
1000
,  // measure 19
0100
0010
0001
1001
0000
0100
0000
0010
,  // measure 20
0000
0100
0000
0010
0000
1000
0000
0001
,  // measure 21
0000
1000
0001
0001
0000
0100
0000
1000
,  // measure 22
0000
0001
0000
0010
0000
0010
0000
0001
,  // measure 23
0010
0000
0100
0000
1000
0000
1000
0000
1000
0100
0000
0001
0001
0001
0100
0010
,  // measure 24
0000
0100
0000
1000
0000
1000
0100
0000
0010
0001
0000
0100
0010
0100
1000
0000
,  // measure 25
0010
0010
0000
0001
1000
0001
1000
0000
0000
0000
0100
0000
0010
0000
0001
0000
,  // measure 26
0001
0010
0100
1000
0000
0100
0100
0010
,  // measure 27
0010
0010
0010
0100
1000
0000
1000
0001
,  // measure 28
1000
0001
1000
1001
1100
0000
0000
0000
,  // measure 29
0011
0100
0000
0000
1010
0000
0011
0000
,  // measure 30
0110
1001
1010
0000
,  // measure 31
0011
1000
0000
0000
1010
0000
0011
0000
,  // measure 32
1010
0101
0011
0000
,  // measure 33
1010
0100
0000
0000
0011
0000
1010
0000
,  // measure 34
0101
1010
0110
0000
,  // measure 35
0011
1000
0000
0000
1010
0000
0101
0000
,  // measure 36
0110
1001
1010
0001
,  // measure 37
0110
1000
1001
0004
,  // measure 38
0003
0000
0000
4000
0000
0000
3000
0001
0001
0000
0000
0000
,  // measure 39
1010
0001
0000
0000
0011
0000
1010
0100
,  // measure 40
0001
0100
1010
0000
0110
0000
0000
0000
,  // measure 41
0101
0000
1010
0400
,  // measure 42
0300
0000
0000
0040
0000
0000
0030
1000
1000
0000
0000
0000
,  // measure 43
1010
0010
0000
0000
0110
0000
1000
0000
,  // measure 44
0001
0100
0010
0000
1001
0000
0000
0100
,  // measure 45
0000
0000
0001
0000
1010
0100
0000
0100
,  // measure 46
0000
0010
0000
0010
0110
1000
0100
0001
,  // measure 47
0010
0000
1000
0001
1000
0000
0001
0000
,  // measure 48
1000
0000
0001
0000
1100
0000
0000
0011
,  // measure 49
0000
0000
0110
0000
1000
0000
1000
1000
,  // measure 50
0000
0001
0000
0001
1001
0100
0020
0000
,  // measure 51
0000
0000
0030
0002
0000
0000
0003
1000
,  // measure 52
0000
1000
0000
1000
0101
0000
0010
0000
,  // measure 53
1010
0100
1001
0100
,  // measure 54
0110
0010
0011
0010
,  // measure 55
1100
0100
1001
0101
,  // measure 56
0011
0001
1001
0000
,  // measure 57
1010
0000
1100
0000
,  // measure 58
1000
0000
1000
0000
,  // measure 59
0001
0000
0100
0000
,  // measure 60
0010
0000
0400
0000
,  // measure 61
0000
0000
0000
0000
,  // measure 62
0000
0000
0000
0300
1000
0001
0100
0010
,  // measure 63
2002
0000
0000
3003
1010
0100
0010
0000
,  // measure 64
1001
0100
0110
0010
,  // measure 65
0011
0000
1000
0000
1010
0000
0100
0010
,  // measure 66
0101
0010
1010
0100
,  // measure 67
1001
0000
0010
0000
0110
0000
0100
1000
,  // measure 68
1010
0100
0011
0010
,  // measure 69
1001
0000
0100
0000
0011
0000
1000
0100
,  // measure 70
0110
0001
1010
0100
,  // measure 71
0011
0100
1001
1010
,  // measure 72
1000
0110
0100
0011
,  // measure 73
0010
0001
0010
0000
0001
0000
0011
0000
,  // measure 74
0001
0110
0010
1100
,  // measure 75
0100
1000
0100
0000
1000
0000
1001
0000
,  // measure 76
0100
0110
0010
1001
,  // measure 77
0010
0100
1000
0000
1000
0000
0110
0000
,  // measure 78
0010
1001
0100
1001
,  // measure 79
0001
0010
0100
0000
1000
0000
1001
0000
,  // measure 80
0000
0000
0011
0100
0000
0000
1010
0000
,  // measure 81
0000
0000
0011
0000
0100
0100
0110
0000
,  // measure 82
0000
0000
0101
0010
0000
0000
1010
0000
,  // measure 83
0000
0000
0101
0000
1000
1000
1100
0000
,  // measure 84
0000
0000
0101
0010
0000
0000
0110
0000
,  // measure 85
0000
0000
0110
0000
0001
1000
1001
0000
,  // measure 86
0000
0000
0110
0001
0000
0000
0101
0000
,  // measure 87
0000
0000
0000
0000
1001
0000
0000
0000
0000
0000
0000
0000
0100
0000
0000
0010
,  // measure 88
0000
0100
0000
0000
0000
0000
0000
0000
;

//---------------dance-single - ----------------
#NOTEDATA:;
#CHARTNAME:;
#STEPSTYPE:dance-single;
#DESCRIPTION:;
#CHARTSTYLE:;
#DIFFICULTY:Challenge;
#METER:14;
#RADARVALUES:0.484538,0.671684,0.698679,0.025407,0.082571,534.000000,424.000000,110.000000,4.000000,0.000000,0.000000,5.000000,0.000000,0.000000,0.484538,0.671684,0.698679,0.025407,0.082571,534.000000,424.000000,110.000000,4.000000,0.000000,0.000000,5.000000,0.000000,0.000000;
#CREDIT:;
#NOTES:
// measure 0
0000
0000
0000
0000
,  // measure 1
0000
0000
0000
0000
,  // measure 2
0000
0000
0000
0000
,  // measure 3
0000
0000
0000
0000
,  // measure 4
1001
0000
0000
0101
0010
0000
0110
0001
,  // measure 5
1000
0100
0001
0100
0010
1000
0000
1000
,  // measure 6
0011
1000
0100
1000
0001
0000
1001
0010
,  // measure 7
0001
0000
1000
0010
0001
0000
1000
0000
,  // measure 8
1001
0000
0000
1000
1000
0000
0001
0010
,  // measure 9
0100
0000
0100
0100
1000
0000
1000
0000
,  // measure 10
1001
0000
0000
0100
0010
0000
0100
0010
,  // measure 11
0001
0000
0001
0000
1000
0000
1000
0100
,  // measure 12
0110
0000
0000
0001
0010
0000
1000
0000
,  // measure 13
0100
0000
0010
0000
0001
0000
1001
0100
,  // measure 14
0110
0000
0000
0000
0000
0000
1000
0000
0100
0000
0000
0000
1000
0000
0100
0001
,  // measure 15
0000
0010
0000
0101
0000
0010
0000
0000
0000
0000
1000
0000
0000
0000
1000
0000
,  // measure 16
0000
0100
0000
0100
0000
0010
0000
0010
,  // measure 17
0000
0001
1000
0001
0000
0100
0000
0010
,  // measure 18
0000
1000
0000
0001
0000
0100
0000
1000
,  // measure 19
0100
0010
0001
1001
0000
0100
0000
0010
,  // measure 20
0000
0100
0000
0010
0000
1000
0000
0001
,  // measure 21
0000
1000
0001
0001
0000
0100
0000
1000
,  // measure 22
0000
0001
0000
0010
0000
0010
0000
0001
,  // measure 23
0010
0000
0100
0000
1000
0000
1000
0000
1000
0100
0000
0001
0001
0001
0100
0010
,  // measure 24
0000
0100
0000
1000
0000
1000
0100
0000
0010
0001
0000
0100
0010
0100
1000
0000
,  // measure 25
0010
0010
0000
0001
1000
0001
1000
0000
0000
0000
0100
0000
0010
0000
0001
0000
,  // measure 26
0001
0010
0100
1000
0000
0100
0100
0010
,  // measure 27
0100
0010
0010
0100
1000
0000
1000
0001
,  // measure 28
1000
0001
1000
1001
1100
0000
1000
0100
,  // measure 29
0011
0100
0100
0100
1010
0000
0100
0000
,  // measure 30
0110
0000
0010
0000
1010
0000
0100
1000
,  // measure 31
0011
1000
1000
1000
1010
0000
0100
0000
,  // measure 32
1010
0000
0100
0000
0011
0000
0001
0100
,  // measure 33
1010
0100
0010
0001
0011
0000
0010
0000
,  // measure 34
0101
0000
0100
0000
0110
0000
1000
0100
,  // measure 35
0011
1000
0100
0010
1010
0000
0100
0000
,  // measure 36
0110
0000
0001
0000
1010
0000
0001
0010
,  // measure 37
0110
1000
1000
1000
1001
0000
1004
0000
,  // measure 38
0003
0000
0000
4001
0000
0000
3000
0001
0001
0000
0000
0000
,  // measure 39
1010
0001
0001
1000
0011
0000
1010
0000
,  // measure 40
0001
0100
1010
0000
0110
0000
1000
0100
,  // measure 41
0101
0010
0010
0010
1010
0000
0401
0000
,  // measure 42
0300
0000
0000
1040
0000
0000
0030
1000
1000
0000
0000
0000
,  // measure 43
1010
0010
0010
0001
0110
0000
1000
0000
,  // measure 44
0001
0000
0100
0000
0010
0000
0000
0000
1001
0000
0000
0000
0100
0000
0000
0100
,  // measure 45
0000
0000
0010
0000
0001
0000
0010
0000
1010
0000
0000
0000
0100
0000
0000
0100
,  // measure 46
0000
0010
0000
0010
0110
1000
0100
0001
,  // measure 47
0010
0001
1000
0001
1000
0000
0001
0000
,  // measure 48
1000
0010
0001
0010
1100
0000
0100
0011
,  // measure 49
0000
0010
0110
0100
1000
0000
1000
1000
,  // measure 50
0000
0001
0000
0001
1001
0100
0020
0000
,  // measure 51
0000
1000
1030
1002
0100
0000
1003
1000
,  // measure 52
0000
1000
0000
1000
0101
0000
0010
0000
,  // measure 53
1010
0100
1001
0100
,  // measure 54
0110
0010
0011
0010
,  // measure 55
1100
0100
1001
0101
,  // measure 56
0011
0001
1001
0100
,  // measure 57
1010
0100
0010
0100
,  // measure 58
1000
0100
1000
0010
,  // measure 59
0001
1000
0100
0001
,  // measure 60
0010
0100
0400
0000
,  // measure 61
0000
0000
0000
0000
,  // measure 62
0000
0000
0000
0300
1000
0001
0100
0010
,  // measure 63
2002
0000
0000
0000
0000
0000
0000
0000
0000
3003
0000
0000
1010
0000
0001
0100
0000
0000
0010
0000
0000
0000
0000
0000
,  // measure 64
1001
0100
0110
0010
,  // measure 65
0011
0000
1000
0000
1010
0000
0100
0010
,  // measure 66
0101
0010
1010
0100
,  // measure 67
1001
0000
0010
0000
0110
0000
0100
1000
,  // measure 68
1010
0100
0011
0010
,  // measure 69
1001
0000
0100
0000
0011
0000
1000
0100
,  // measure 70
0110
0001
1010
0100
,  // measure 71
0011
0100
1001
1010
,  // measure 72
1000
0110
0100
0011
,  // measure 73
0010
0001
0010
0000
0001
0000
0011
0000
,  // measure 74
0001
0110
0010
1100
,  // measure 75
0100
1000
0100
0000
1000
0000
1001
0000
,  // measure 76
0100
0110
0010
1001
,  // measure 77
0010
0100
1000
0000
1000
0000
0110
0000
,  // measure 78
0010
1001
0100
1001
,  // measure 79
0001
0010
0100
0000
1000
0000
1001
0000
,  // measure 80
0000
1000
0011
0100
0100
0000
1010
0000
,  // measure 81
0000
0000
0011
0000
0100
0100
0110
0000
,  // measure 82
0000
0000
0101
0010
0000
0000
1010
0000
,  // measure 83
0000
0000
0101
0000
1000
1000
1100
0000
,  // measure 84
0000
0010
0101
0010
0010
0000
0110
0000
,  // measure 85
0000
0000
0110
0000
0001
1000
1001
0000
,  // measure 86
0000
0000
0110
0001
0000
0000
0101
0000
,  // measure 87
0000
0000
0000
0000
1001
0000
0000
0000
0000
0010
0010
0000
0100
0000
0000
0010
,  // measure 88
0000
0100
0000
0000
0000
0000
0000
0000
;

//---------------dance-single - ----------------
#NOTEDATA:;
#CHARTNAME:;
#STEPSTYPE:dance-single;
#DESCRIPTION:;
#CHARTSTYLE:;
#DIFFICULTY:Hard;
#METER:9;
#RADARVALUES:0.436447,0.671684,0.647866,0.025407,0.085747,481.000000,379.000000,102.000000,4.000000,0.000000,0.000000,5.000000,0.000000,0.000000,0.436447,0.671684,0.647866,0.025407,0.085747,481.000000,379.000000,102.000000,4.000000,0.000000,0.000000,5.000000,0.000000,0.000000;
#CREDIT:;
#NOTES:
// measure 0
0000
0000
0000
0000
,  // measure 1
0000
0000
0000
0000
,  // measure 2
0000
0000
0000
0000
,  // measure 3
0000
0000
0000
0000
,  // measure 4
1001
0000
0000
0101
0010
0000
0110
0100
,  // measure 5
1000
0000
0000
0000
0010
0000
0001
0000
0000
0100
0000
0000
0010
0000
0000
1000
0000
0000
0000
0000
0000
1000
0000
0000
,  // measure 6
0011
1000
0100
1000
0001
0000
1000
0000
,  // measure 7
0001
1000
0001
1000
,  // measure 8
1001
0000
0000
1000
1000
0000
0001
0010
,  // measure 9
0100
0100
1000
1000
,  // measure 10
1001
0000
0000
0100
0010
0000
0100
0010
,  // measure 11
0001
0001
1000
1000
,  // measure 12
0110
0000
0000
0001
0010
0000
1000
0000
,  // measure 13
0100
0000
0010
0000
0001
0000
1001
0100
,  // measure 14
0110
0000
0000
0000
0000
0000
1000
0000
0100
0000
0000
0000
1000
0000
0100
0001
,  // measure 15
0000
0010
0000
0101
0000
0010
0000
0000
0000
0000
1000
0000
0000
0000
1000
0000
,  // measure 16
0000
0100
0000
0100
0000
0010
0000
0010
,  // measure 17
0000
0001
1000
0001
0000
0100
0000
0010
,  // measure 18
0000
1000
0000
0001
0000
0100
0000
1000
,  // measure 19
0100
0010
0001
1001
0000
0100
0000
0010
,  // measure 20
0000
0100
0000
0010
0000
1000
0000
0001
,  // measure 21
0000
1000
0001
0001
0000
0100
0000
1000
,  // measure 22
0000
0001
0000
0010
0000
0010
0000
0001
,  // measure 23
0010
0000
0100
0000
1000
0000
1000
0000
1000
0100
0000
0001
0001
0001
0100
0010
,  // measure 24
0000
0100
0000
1000
0000
1000
0100
0000
0010
0001
0000
0100
0010
0100
1000
0000
,  // measure 25
0010
0010
0000
0001
1000
0001
1000
0000
0000
0000
0100
0000
0010
0000
0001
0000
,  // measure 26
0001
0010
0100
1000
0000
0100
0100
0010
,  // measure 27
0010
0010
0010
0100
1000
0000
1000
0001
,  // measure 28
1000
0001
1000
1001
1100
0000
0000
0000
,  // measure 29
0011
0100
0000
0000
1010
0000
0100
0000
,  // measure 30
0110
0010
1010
0000
,  // measure 31
0011
1000
0000
0000
1010
0000
0100
0000
,  // measure 32
1010
0001
0011
0000
,  // measure 33
1010
0100
0000
0000
0011
0000
0001
0000
,  // measure 34
0101
0100
0110
0000
,  // measure 35
0011
0000
0000
1000
0000
0000
0000
0000
0100
0000
0100
0000
1010
0000
0000
0000
0000
0000
0100
0000
0000
0000
0000
0000
,  // measure 36
0110
1000
1010
0001
,  // measure 37
0110
1000
1001
0004
,  // measure 38
0003
0000
0000
4000
0000
0000
3000
0001
0001
0000
0000
0000
,  // measure 39
1010
0001
0000
0000
0011
0000
1010
0100
,  // measure 40
0001
0100
1010
0000
0110
0000
0000
0010
,  // measure 41
0101
0000
1010
0400
,  // measure 42
0300
0000
0000
0040
0000
0000
0030
1000
1000
0000
0000
0000
,  // measure 43
1010
0010
0000
0000
0110
0000
1000
0000
,  // measure 44
0001
0100
0010
0000
1001
0000
0000
0100
,  // measure 45
0000
0000
0001
0000
1010
0100
0000
0100
,  // measure 46
0000
0010
0000
0010
0110
1000
0100
0001
,  // measure 47
0010
0000
1000
0001
1000
0000
0001
0000
,  // measure 48
1000
0000
0001
0000
1100
0000
0000
0011
,  // measure 49
0000
0000
0110
0000
1000
0000
1000
1000
,  // measure 50
0000
0001
0000
0001
1001
0100
0020
0000
,  // measure 51
0000
0000
0030
0002
0000
0000
0003
1000
,  // measure 52
0000
1000
0000
1000
0101
0000
0010
0000
,  // measure 53
1010
0100
1001
0100
,  // measure 54
0110
0010
0011
0010
,  // measure 55
1100
0100
1001
0101
,  // measure 56
0011
0001
1000
0100
,  // measure 57
0010
0100
0010
0100
,  // measure 58
1000
0100
1000
0010
,  // measure 59
0001
1000
0100
0001
,  // measure 60
0010
1000
0400
0000
,  // measure 61
0000
0000
0000
0000
,  // measure 62
0000
0000
0000
0300
1000
0001
0100
0010
,  // measure 63
2002
0000
0000
0000
0000
0000
0000
0000
0000
3003
0000
0000
1010
0000
0001
0100
0000
0000
0010
0000
0000
0000
0000
0000
,  // measure 64
1001
0100
0110
0010
,  // measure 65
0011
0000
1000
0000
1010
0000
0100
0010
,  // measure 66
0101
0010
1010
0100
,  // measure 67
1001
0000
0010
0000
0110
0000
0100
1000
,  // measure 68
1010
0100
0011
0010
,  // measure 69
1001
0000
0100
0000
0011
0000
1000
0100
,  // measure 70
0110
0001
1010
0100
,  // measure 71
0011
0100
1001
1100
,  // measure 72
1000
0110
0100
0011
,  // measure 73
0010
0001
0010
0000
0001
0000
0011
0000
,  // measure 74
0001
0110
0010
1100
,  // measure 75
0100
1000
0100
0000
1000
0000
1001
0000
,  // measure 76
0100
0110
0010
1001
,  // measure 77
0010
0100
1000
0000
1000
0000
0110
0000
,  // measure 78
0010
1001
0100
1001
,  // measure 79
0001
0010
0100
0000
1000
0000
1001
0000
,  // measure 80
0000
0000
0011
0100
0000
0000
1010
0000
,  // measure 81
0000
0000
0011
0000
0100
0100
0110
0000
,  // measure 82
0000
0000
0101
0010
0000
0000
1010
0000
,  // measure 83
0000
0000
0101
0000
1000
1000
1100
0000
,  // measure 84
0000
0000
0101
0010
0000
0000
0110
0000
,  // measure 85
0000
0000
0110
0000
0001
1000
1001
0000
,  // measure 86
0000
0000
0110
0001
0000
0000
0101
0000
,  // measure 87
0000
0000
0000
0000
1001
0000
0000
0000
0000
0100
0100
0000
0100
0000
0000
0010
,  // measure 88
0000
0100
0000
0000
0000
0000
0000
0000
;

//---------------dance-single - ----------------
#NOTEDATA:;
#CHARTNAME:;
#STEPSTYPE:dance-single;
#DESCRIPTION:;
#CHARTSTYLE:;
#DIFFICULTY:Easy;
#METER:4;
#RADARVALUES:0.366580,0.587724,0.527185,0.069868,0.069868,404.000000,321.000000,83.000000,11.000000,0.000000,0.000000,4.000000,0.000000,0.000000,0.366580,0.587724,0.527185,0.069868,0.069868,404.000000,321.000000,83.000000,11.000000,0.000000,0.000000,4.000000,0.000000,0.000000;
#CREDIT:;
#NOTES:
// measure 0
0000
0000
0000
0000
,  // measure 1
0000
0000
0000
0000
,  // measure 2
0000
0000
0000
0000
,  // measure 3
0000
0000
0000
0000
,  // measure 4
1001
0000
0000
0101
0000
0000
0110
0000
,  // measure 5
1000
0000
0001
0000
0010
0000
0000
1000
,  // measure 6
0011
1000
0100
1000
0001
0000
0000
0000
,  // measure 7
0001
1000
0010
0100
,  // measure 8
1001
0000
0000
1000
1000
0000
0001
0010
,  // measure 9
0100
0100
1000
0010
,  // measure 10
1001
0000
0000
0100
0010
0000
0100
0010
,  // measure 11
0001
0001
1000
0001
,  // measure 12
0110
0000
0000
0001
0010
0000
1000
0000
,  // measure 13
0100
0000
0010
0000
0001
0000
1001
0100
,  // measure 14
0110
0000
0000
0000
0000
0000
1000
0000
0100
0000
0000
0000
1000
0000
0000
0001
,  // measure 15
0000
0010
0000
0101
0000
0010
0000
0000
0000
0000
1000
0000
0000
0000
0000
0000
,  // measure 16
0000
0100
0000
0000
0000
0010
0000
0000
,  // measure 17
0000
0001
1000
0001
0000
0100
0000
0000
,  // measure 18
0000
1000
0000
0010
0000
0100
0000
1000
,  // measure 19
0100
0010
0001
1001
0000
0100
0000
0000
,  // measure 20
0000
0100
0000
0000
0000
1000
0000
0000
,  // measure 21
0000
1000
0001
1000
0000
0000
0000
1000
,  // measure 22
0000
0000
0000
0010
0000
0000
0000
0001
,  // measure 23
0010
0000
0100
0000
1000
0000
1000
0000
1000
0100
0000
0001
0000
0001
0100
0010
,  // measure 24
0000
0100
0000
1000
0000
1000
0100
0000
0010
0001
0000
0100
0000
0100
1000
0000
,  // measure 25
0010
0010
0000
0001
0000
0001
2000
0000
0000
0000
0000
0000
3000
0000
0002
0000
,  // measure 26
0000
0000
0003
2000
0000
0000
3000
0020
,  // measure 27
0000
0000
0030
0200
0000
0000
0300
0002
,  // measure 28
0000
0000
0003
1001
1100
0000
0000
0000
,  // measure 29
0011
0100
0000
0000
1010
0000
0000
0000
,  // measure 30
0110
0000
1010
0000
,  // measure 31
0011
1000
0000
0000
1010
0000
0100
0000
,  // measure 32
0101
0010
0011
0000
,  // measure 33
1010
0100
0000
0000
0011
0000
0000
0000
,  // measure 34
0101
0000
0110
0000
,  // measure 35
0011
1000
0000
0000
1010
0000
0100
0000
,  // measure 36
0110
1000
1010
0001
,  // measure 37
0000
1000
0000
0004
,  // measure 38
0003
0000
0000
4000
0000
0000
3000
0001
0001
0000
0000
0000
,  // measure 39
1010
0001
0000
0000
0011
0000
1000
0000
,  // measure 40
0001
0100
1000
0000
0110
0000
0010
0000
,  // measure 41
0000
0100
0000
0400
,  // measure 42
0300
0000
0000
0040
0000
0000
0030
1000
1000
0000
0000
0000
,  // measure 43
1010
0010
0000
0000
0110
0000
1000
0000
,  // measure 44
0001
0100
0010
0000
1001
0000
0000
0100
,  // measure 45
0000
0000
0001
0000
1010
0100
0000
0100
,  // measure 46
0000
0010
0000
0010
0110
1000
0100
0001
,  // measure 47
0010
0000
1000
0001
1000
0000
0001
0000
,  // measure 48
1000
0000
0001
0000
1100
0000
0000
0011
,  // measure 49
0000
0000
0110
0000
1000
0000
1000
1000
,  // measure 50
0000
0001
0000
0001
1001
0000
0020
0000
,  // measure 51
0000
0000
0030
0002
0000
0000
0003
1000
,  // measure 52
0000
1000
0000
1000
0100
0000
0010
0000
,  // measure 53
1000
0100
0001
0100
,  // measure 54
0100
0010
0001
0010
,  // measure 55
1000
0100
1001
0101
,  // measure 56
0011
0001
1001
0000
,  // measure 57
0000
0000
1100
0000
,  // measure 58
1000
0000
1000
0000
,  // measure 59
0001
0000
0100
0000
,  // measure 60
0010
0001
0200
0000
,  // measure 61
0000
0000
0000
0000
,  // measure 62
0000
0000
0000
0300
1000
0001
0100
0010
,  // measure 63
2002
0000
0000
3003
0000
0100
0010
0000
,  // measure 64
1001
0100
0110
0010
,  // measure 65
0011
0000
1000
0000
1010
0000
0100
0010
,  // measure 66
0101
0010
1010
0100
,  // measure 67
1001
0000
0010
0000
0110
0000
0100
1000
,  // measure 68
1010
0100
0011
0010
,  // measure 69
1001
0000
0100
0000
0011
0000
1000
0100
,  // measure 70
0110
0001
1010
0100
,  // measure 71
0011
0100
1001
1010
,  // measure 72
1000
0110
0100
0011
,  // measure 73
0010
0001
0010
0000
0001
0000
0011
0000
,  // measure 74
0001
0110
0010
1100
,  // measure 75
0100
1000
0100
0000
1000
0000
1001
0000
,  // measure 76
0100
0110
0010
1001
,  // measure 77
0010
0100
1000
0000
1000
0000
0110
0000
,  // measure 78
0010
1001
0100
1001
,  // measure 79
0001
0010
0100
0000
1000
0000
1001
0000
,  // measure 80
0000
0000
0001
0100
0000
0000
1010
0000
,  // measure 81
0000
0000
0001
0000
0100
0100
0110
0000
,  // measure 82
0000
0000
0100
0010
0000
0000
1010
0000
,  // measure 83
0000
0000
0100
0000
1000
1000
1100
0000
,  // measure 84
0000
0000
0100
0010
0000
0000
0110
0000
,  // measure 85
0000
0000
0100
0000
0001
1000
1001
0000
,  // measure 86
0000
0000
0010
0001
0000
0000
0101
0000
,  // measure 87
0000
0000
0000
0000
1000
0000
0000
0000
0000
0000
0000
0000
0100
0000
0000
0010
,  // measure 88
0000
0100
0000
0000
0000
0000
0000
0000
;
