#VERSION:0.83;
#TITLE:Dreaming;
#SUBTITLE:;
#ARTIST:BT feat. Kirsty Hawkshaw;
#TITLETRANSLIT:;
#SUBTITLETRANSLIT:;
#ARTISTTRANSLIT:;
#GENRE:Trance Breaks;
#ORIGIN:;
#CREDIT:;
#BANNER:dreaming-bn.png;
#BACKGROUND:dreaming-bg.png;
#PREVIEWVID:;
#JACKET:dreaming-jacket.png;
#CDIMAGE:;
#DISCIMAGE:;
#LYRICSPATH:;
#CDTITLE:cdtitle.png;
#MUSIC:dreaming.ogg;
#OFFSET:-0.750000;
#SAMPLESTART:63.396999;
#SAMPLELENGTH:16.000000;
#SELECTABLE:YES;
#DISPLAYBPM:68.000000:136.000000;
#BPMS:0.000=68.000,
31.000=136.000,
147.000=68.000,
149.000=136.000,
189.000=68.000,
193.000=272.000,
198.000=136.000,
262.000=68.000;
#STOPS:193.000=0.100,
193.500=0.200,
194.000=0.100,
194.500=0.050,
194.750=0.050,
195.000=0.100;
#DELAYS:;
#WARPS:;
#TIMESIGNATURES:0.000=4=4;
#TICKCOUNTS:0.000=4;
#COMBOS:0.000=1;
#SPEEDS:0.000=1.000=0.000=0;
#SCROLLS:0.000=1.000;
#FAKES:;
#LABELS:0.000=Song Start;
#BGCHANGES:;
#KEYSOUNDS:;
#ATTACKS:
;

//---------------dance-single - ----------------
#NOTEDATA:;
#CHARTNAME:;
#STEPSTYPE:dance-single;
#DESCRIPTION:;
#CHARTSTYLE:;
#DIFFICULTY:Hard;
#METER:10;
#RADARVALUES:0.526825,0.896105,0.050419,0.244891,0.320520,512.000000,505.000000,7.000000,34.000000,0.000000,0.000000,2.000000,0.000000,0.000000,0.526825,0.896105,0.050419,0.244891,0.320520,512.000000,505.000000,7.000000,34.000000,0.000000,0.000000,2.000000,0.000000,0.000000;
#CREDIT:;
#DISPLAYBPM:68.000000:136.000000;
#NOTES:
// measure 0
0000
0000
0000
0000
,  // measure 1
0000
0000
0000
0000
,  // measure 2
0000
0000
0000
0000
,  // measure 3
0000
0000
0000
0000
0000
0000
0000
0000
0000
0000
0000
0000
0000
0000
0000
0000
0000
0000
0000
0000
0000
0000
0000
0000
0100
0000
1000
0000
0001
1000
0010
0000
,  // measure 4
1000
0000
0100
0000
0010
0000
0001
0000
0010
0000
0001
0000
0010
0100
0010
0000
0001
0000
1000
0000
0000
0000
1000
0000
0010
0000
0100
0000
0010
1000
0001
0000
,  // measure 5
1000
0000
0010
0000
0100
0000
0001
0000
0001
0000
0100
0000
0001
1000
0001
0000
0100
0000
1000
0000
0001
0000
1000
0000
0010
0000
0100
0000
0001
1000
0010
0000
,  // measure 6
1000
0000
0001
0000
0100
0000
0001
0000
0010
0000
0100
0000
1000
0010
1000
0000
0100
0000
1000
0000
0100
0000
0010
0000
0001
0000
1000
0000
0001
0000
0100
0000
,  // measure 7
0001
0000
0000
0000
0010
0000
0000
0000
0100
0000
1000
0000
0010
1000
0010
0000
1000
0000
0000
0000
0001
0000
0000
0000
1000
0000
0000
0000
0001
0000
0000
0000
,  // measure 8
1000
0010
0100
0010
1000
0000
0001
0000
,  // measure 9
0100
0001
2000
0000
0010
3000
0020
0000
,  // measure 10
1000
0000
0000
0130
0010
0000
0010
1000
,  // measure 11
0001
0000
0100
0000
0001
1000
0010
0000
1000
0000
0100
0000
1000
0000
0001
0000
,  // measure 12
0000
0001
0100
0000
0001
1000
0001
0000
,  // measure 13
0100
0000
0010
1000
0001
0000
0001
0100
,  // measure 14
0010
0100
0001
0010
0100
1000
0010
1000
,  // measure 15
0100
0100
1000
0000
0001
0100
0002
0000
,  // measure 16
1000
1003
2000
0000
3020
0000
0230
0000
,  // measure 17
0302
0023
0032
0203
,  // measure 18
0320
0000
2030
0000
3002
0000
1003
0001
,  // measure 19
1000
0010
0000
0100
0010
0100
0110
0000
,  // measure 20
0010
1000
0001
1000
0100
0010
0100
1000
,  // measure 21
0001
0000
0001
0100
0001
1000
1000
0001
,  // measure 22
0100
0010
1000
0100
0010
0001
0010
0100
,  // measure 23
1000
0000
0100
1000
0000
0000
0100
0000
0010
0000
0000
0010
0100
0000
0010
0000
,  // measure 24
0001
1000
0010
1000
0100
0010
0001
0000
,  // measure 25
0001
0000
0010
0000
0100
0000
0000
0000
0100
0000
0000
1000
0001
0000
1000
0000
,  // measure 26
0010
0000
1000
0001
0000
0000
0001
0000
0100
0000
0010
0000
1000
0000
0001
0000
,  // measure 27
1000
0000
0100
0000
0010
0000
0001
0000
0010
0000
0000
0010
0100
0000
0010
0000
,  // measure 28
0001
1000
0001
0100
0010
1000
0001
0000
,  // measure 29
0001
0010
1000
0010
0001
0100
0001
1000
,  // measure 30
0001
0000
0100
0010
0000
0000
0010
0000
1000
0000
0001
0000
1000
0000
0100
0000
,  // measure 31
0010
0000
0001
1000
0000
0000
1000
0000
0010
0000
0000
0010
0100
0000
0010
0000
,  // measure 32
1000
0001
0010
0100
1000
0001
1000
0010
,  // measure 33
1000
0000
0010
0100
0000
0000
0100
0000
0001
0000
1000
0000
0001
0000
0010
0000
,  // measure 34
0001
1000
0100
1000
0001
0000
0002
0000
,  // measure 35
0000
0000
1003
0001
2000
0000
3020
0000
,  // measure 36
0001
0000
0000
0100
1000
0000
2030
0000
,  // measure 37
0000
0000
0010
3000
1000
0001
1000
0000
0010
0000
0100
0000
0010
0000
0100
0000
,  // measure 38
0001
0000
1000
0000
0010
1000
0010
0000
0100
0000
0000
0100
0001
0000
2000
0000
,  // measure 39
3001
0000
2000
0000
3100
1000
0001
0000
1000
0000
0001
0000
0001
0000
0001
0000
,  // measure 40
0001
0000
0100
0001
0100
0000
0010
0000
1000
0000
0000
1000
0001
0000
0200
0000
,  // measure 41
0310
0000
0200
0000
0301
0010
0001
0000
1000
0000
0010
0000
0100
0000
0100
0000
,  // measure 42
0100
0000
0001
0010
0001
0000
1000
0000
0010
0000
0100
0001
1000
0000
1000
0000
,  // measure 43
0010
0000
0000
0000
0100
0000
0000
0000
0010
0000
0000
0000
0100
0000
0000
0010
0000
0000
0100
0000
0000
0000
0000
0000
0001
0000
0000
0000
0000
0000
1000
0000
0000
0000
0000
0000
0010
0000
0000
0000
0000
0000
0010
0000
0000
0000
0000
0000
,  // measure 44
0100
0000
0000
0000
0000
0000
0001
0000
0000
1000
0000
0000
0001
0000
0000
0000
0000
0000
0100
0000
0000
0000
0000
0000
0010
0000
0000
0000
0000
0000
1000
0000
0000
0000
0000
0000
0001
0000
0000
0000
1000
0000
0000
0000
0001
0000
0000
0000
,  // measure 45
1000
0000
0000
0000
0001
0000
0000
0000
1000
0000
0000
0000
0001
0000
0000
1000
0000
0000
0010
0000
0000
0000
0000
0000
1000
0000
0000
0000
0000
0000
0001
0000
0000
0000
0000
0000
0001
0000
0000
0000
0000
0000
0001
0000
0000
0000
0000
0000
,  // measure 46
0001
0000
0100
0000
0010
0000
1000
0000
0001
0000
0100
0010
0100
0000
0002
0000
,  // measure 47
1003
0000
0002
0000
0103
0001
1000
0010
1000
0100
1000
0010
1000
0002
0000
0000
,  // measure 48
0003
2000
3000
0020
1030
0000
0001
0000
0100
0000
0010
0100
0020
0000
0000
0000
,  // measure 49
0000
1000
0000
0030
0110
0100
0001
1000
,  // measure 50
0001
0000
0100
0000
0001
0000
0010
0000
0001
0000
0100
0000
0001
0000
1000
0100
,  // measure 51
1000
0001
1000
0010
2000
0000
0010
0000
,  // measure 52
0000
0000
0001
3001
0002
0000
1000
0003
,  // measure 53
1000
0001
1000
0010
0100
0001
1000
1000
,  // measure 54
0100
0000
0010
0000
0001
0000
0010
0000
0001
0000
0010
0000
0100
0000
1000
0010
,  // measure 55
1000
0001
0100
0010
0200
0000
0001
0000
,  // measure 56
0000
0000
0010
0310
0020
0000
1000
0030
,  // measure 57
2000
0000
0000
0000
0000
0000
3010
0000
1000
0000
0001
0000
1001
0000
0000
1000
0000
0000
0001
0000
0000
1000
0000
0000
,  // measure 58
0010
0000
0100
0000
0001
0000
1000
0000
0010
0000
1000
0000
0010
0100
0000
0100
,  // measure 59
0001
0000
1000
0000
0001
0000
0100
0000
0010
0000
1000
0000
1000
0010
0000
0010
,  // measure 60
0100
0000
0001
0000
1000
0000
0010
0000
1000
0010
1000
0010
1000
0000
0001
0100
,  // measure 61
0001
0100
0001
0000
0010
0000
0000
0000
0011
0000
0001
0000
1000
0000
0001
0000
,  // measure 62
0100
0000
0010
0000
0400
0000
0000
0000
0310
0000
1000
0000
0001
0010
0000
0010
,  // measure 63
0100
0000
0010
0000
0001
0000
1000
0000
0001
0000
0010
0000
0100
1000
0000
1000
,  // measure 64
0001
0000
1000
0000
0010
0000
0100
0000
0101
0000
0001
0000
0011
0000
0001
1000
,  // measure 65
0010
0000
0100
0000
0040
0000
0000
0030
0110
0000
0000
0000
0000
0000
0001
0000
,  // measure 66
1000
0000
0010
0100
2000
0000
0000
0000
,  // measure 67
0200
3300
0000
0000
;
