#TITLE:Demo Bling;
#SUBTITLE:;
#ARTIST:Bruce Greene;
#TITLETRANSLIT:;
#SUBTITLETRANSLIT:;
#ARTISTTRANSLIT:;
#GENRE:Parody Pop;
#CREDIT:;
#BANNER:demo bling-bn.png;
#BACKGROUND:demo bling-bg.png;
#LYRICSPATH:;
#CDTITLE:cdtitle.png;
#MUSIC:demo bling.ogg;
#OFFSET:-0.037000;
#SAMPLESTART:27.498999;
#SAMPLELENGTH:13.000000;
#SELECTABLE:YES;
#BPMS:0.000000=135.000000
,92.000000=67.500000
,93.000000=135.000000
,121.000000=67.500000
,122.000000=135.000000
,154.000000=67.500000
,170.000000=135.000000
,199.000000=67.500000
;
#STOPS:92.000000=0.889000,
121.000000=0.889000,
196.833328=0.889000,
267.250000=0.850000
;
#BGCHANGES:
;
#KEYSOUNDS:;
#ATTACKS:;

//---------------dance-single - ----------------
#NOTES:
     dance-single:
     :
     Hard:
     8:
     0.453386,0.663948,0.059211,0.035527,0.299015,536.000000,526.000000,10.000000,6.000000,5.000000,0.000000,0.453386,0.663948,0.059211,0.035527,0.299015,536.000000,526.000000,10.000000,6.000000,5.000000,0.000000:
// measure 0
0000
0000
0000
0000
,  // measure 1
0000
0000
0000
0000
,  // measure 2
0000
0000
0000
0000
,  // measure 3
0000
0000
0000
0000
,  // measure 4
0000
0000
0000
0000
,  // measure 5
0000
0000
0000
0000
,  // measure 6
0000
0000
0000
0000
,  // measure 7
0000
0000
0000
0000
,  // measure 8
1001
0000
1000
0000
0001
0000
1000
0100
,  // measure 9
0001
0100
0010
0001
1000
0001
1000
0010
,  // measure 10
2000
0000
0001
3000
0002
0010
0010
0003
,  // measure 11
0020
0000
0031
0000
0100
0000
0010
0000
1000
0000
0000
0100
0000
0000
1000
0000
,  // measure 12
0010
0000
0100
0000
0010
0000
1000
0100
,  // measure 13
0001
0100
0010
0001
1000
0010
0100
0001
,  // measure 14
0002
0000
1000
0003
2000
0100
0100
3000
,  // measure 15
0200
0000
1300
0000
0100
0000
0010
0000
0001
0000
0000
0100
0000
0000
0001
0000
,  // measure 16
1000
0100
1000
0000
0001
0000
0100
1000
,  // measure 17
0100
0010
0100
0001
0100
0000
0001
0100
,  // measure 18
0001
0010
0100
0000
1000
0001
1000
0000
,  // measure 19
0001
0000
0100
0000
1000
0000
0100
0000
0001
0000
0000
0100
0000
0000
0001
0000
,  // measure 20
1000
0010
1000
0000
0001
0000
0100
1000
,  // measure 21
0100
0010
0100
1000
0100
0001
0100
0010
,  // measure 22
0100
0001
0010
0000
0001
0000
1000
0001
,  // measure 23
1000
0000
0110
0000
0010
0100
0010
0000
,  // measure 24
4000
0000
3001
1000
0001
0010
0100
1000
,  // measure 25
0001
1000
0010
0000
0010
0000
1000
0100
,  // measure 26
0040
0000
0000
0000
0130
0000
0010
0000
0001
0000
0010
0000
0100
0000
0000
0010
,  // measure 27
0000
0100
1000
0000
1000
0000
0001
0100
,  // measure 28
0004
0000
1003
0001
0010
0100
1000
0010
,  // measure 29
0100
0001
0100
0000
0100
0000
0100
0010
,  // measure 30
4000
3000
1100
1000
,  // measure 31
0001
0100
0004
0000
1003
0001
0010
0001
,  // measure 32
1000
0100
0010
0100
1000
0001
1000
0000
,  // measure 33
0010
0100
0040
0000
0130
0010
0001
0010
,  // measure 34
0100
0000
0000
0010
0000
0000
1000
0000
0001
0000
0000
0000
0001
0000
0000
0000
,  // measure 35
0100
0000
0010
0000
0400
0000
0000
0000
0301
0100
0001
0000
0000
0000
0001
0000
,  // measure 36
1000
0000
0100
0000
0010
0000
0100
0000
1000
0000
0000
0001
1000
0000
0000
0000
,  // measure 37
0010
0100
0004
0000
1003
0001
0010
0100
,  // measure 38
0010
0000
0001
0000
1000
0000
0001
0000
1001
0000
1000
0000
0001
0000
0100
0010
,  // measure 39
0100
0010
0100
0000
0001
1000
0001
1000
0001
0000
0100
0000
0010
1000
1000
0000
,  // measure 40
1000
0000
0001
0000
0100
0010
0001
0010
0100
0000
0100
0000
0010
0000
1000
0001
,  // measure 41
1000
0001
1000
0000
0001
0010
0001
1000
0100
0000
1000
0000
0010
0100
1000
0000
,  // measure 42
0010
0000
0100
0000
0010
0001
0010
0100
0110
0000
0100
0000
0010
0000
0000
0000
,  // measure 43
0001
0000
1000
0010
1000
0010
1000
0000
,  // measure 44
0001
0010
0001
0100
0001
0010
0001
0000
,  // measure 45
1000
0100
0010
0100
1000
0100
0010
0000
,  // measure 46
0001
0000
0000
0001
0000
0000
1000
0000
0010
0000
0100
0000
0010
0000
0000
0000
,  // measure 47
1000
0000
0001
0010
0001
0010
0001
0000
,  // measure 48
1000
0010
1000
0100
0010
0100
1000
0000
,  // measure 49
0001
0000
0100
0000
000M
0000
M000
0000
00M0
0000
0M00
0000
1010
1000
0100
1000
,  // measure 50
0010
0000
0100
0000
0010
0000
0001
0000
0010
0000
0000
0000
0100
0000
0000
0010
0100
0000
0000
0010
0100
0000
0000
0000
0001
0000
0010
0000
0001
0000
0010
0000
,  // measure 51
0100
0000
1000
0000
0100
0000
1000
0000
0001
0000
0000
0000
1000
0000
0000
0010
0100
0000
0000
0010
0100
0000
0000
0000
0110
0000
0100
0000
0010
0000
0100
0000
,  // measure 52
1000
0100
0010
0001
0010
0000
0100
0001
1000
0001
0100
0000
0000
0100
0010
0100
,  // measure 53
1000
0100
0010
0000
1000
0001
1000
0100
0010
0100
0010
0000
0011
0000
0000
0000
,  // measure 54
0001
0010
0001
0010
0001
0010
0001
0000
0000
0000
0000
0000
1000
0100
1000
0100
1000
0100
1000
0000
0000
0000
0000
0000
,  // measure 55
0001
0000
0001
0100
0001
0100
0001
0000
1000
0010
1000
0000
0001
0000
0000
0100
0010
0100
0001
0000
0000
0000
0000
0000
,  // measure 56
0100
0000
0000
0000
0010
0000
0100
0000
0000
0000
0000
0000
0010
0000
0000
1000
0000
0000
0010
0000
0000
0001
0000
0000
0010
0000
0000
0100
0000
0000
0010
0000
0000
0000
0000
0000
1000
0000
0000
0001
0000
0000
0010
0000
0000
0100
0000
0000
,  // measure 57
1000
0100
1000
0000
0000
0000
0000
0000
0101
0000
0001
0000
1000
0000
0010
0100
,  // measure 58
0010
0001
0010
0100
0010
1000
0100
0010
0001
0000
0100
0000
0010
0100
0100
0000
,  // measure 59
0001
0000
1000
0000
0010
0100
0010
0001
0010
0000
1000
0000
0100
0000
1000
0010
,  // measure 60
1000
0010
1000
0010
1000
0100
0010
0001
1000
0000
0001
0000
0100
0010
0100
0000
,  // measure 61
0001
0000
0000
0001
0010
0100
0010
0001
0011
0000
0001
0000
1000
0000
0000
0000
,  // measure 62
0001
0010
0100
0010
0001
0010
0100
0010
,  // measure 63
0001
1000
0100
0010
0100
1000
0100
0000
,  // measure 64
1000
0001
1000
0000
0010
0100
0010
0001
,  // measure 65
0010
0000
0000
1000
0000
0000
0001
0000
1000
0000
0100
0000
0010
0000
0000
0000
,  // measure 66
0100
0010
0100
1000
0100
1000
0100
1000
,  // measure 67
0100
0010
0001
0010
0100
0001
0100
0100
,  // measure 68
0010
0001
1000
0000
0001
0000
1000
0010
,  // measure 69
0100
0010
0100
0010
0100
0000
0001
0000
1000
0010
1000
0010
1000
0000
0010
0000
,  // measure 70
0100
1000
0100
0010
0100
0000
0001
0000
1000
0001
1000
0001
1000
0000
0010
0000
,  // measure 71
0100
0010
0100
0010
0100
0000
0001
0000
1000
0100
1000
0100
1000
0000
0001
0000
,  // measure 72
0100
0000
0001
0000
0100
0000
0001
0000
0100
0000
0000
00M0
0000
0000
0000
0000
0000
0000
0000
0000
0000
0000
0000
0000
0000
0000
0000
0000
0000
0000
0000
0000
;
