#TITLE:Cosmic Rays from APOLLO;
#SUBTITLE:;
#ARTIST:Hommarju ft. 根本凪;
#TITLETRANSLIT:;
#SUBTITLETRANSLIT:;
#ARTISTTRANSLIT:Hommarju ft. Nemoto Nagi;
#GENRE:Electro House;
#CREDIT:;
#BANNER:crfA-bn.png;
#BACKGROUND:crfA-bg.png;
#LYRICSPATH:;
#CDTITLE:cdtitle.png;
#MUSIC:crfA.ogg;
#OFFSET:0.000000;
#SAMPLESTART:102.844994;
#SAMPLELENGTH:12.000000;
#SELECTABLE:YES;
#BPMS:0.000000=66.521004
,18.000000=133.042007
,46.000000=66.521004
,48.000000=133.042007
,176.000000=66.521004
,184.000000=133.042007
,196.000000=66.521004
,198.000000=133.042007
,258.000000=66.521004
,260.000000=133.042007
,324.000000=66.521004
;
#STOPS:
;
#BGCHANGES:;
#KEYSOUNDS:;
#ATTACKS:;

//---------------dance-single - ----------------
#NOTES:
     dance-single:
     :
     Hard:
     10:
     0.555965,0.804968,0.294595,0.005168,0.258417,753.000000,696.000000,57.000000,1.000000,0.000000,0.000000,0.555965,0.804968,0.294595,0.005168,0.258417,753.000000,696.000000,57.000000,1.000000,0.000000,0.000000:
0000
0000
0000
0000
0000
0000
0000
0000
1010
0100
1000
0010
1000
0100
0000
0001
,
0000
0010
0100
0010
1000
0001
0000
0000
0010
0001
0010
0100
0010
1000
0000
0100
,
0000
0010
0001
0010
0101
0000
0000
0000
0101
0010
0100
0010
1000
0100
0000
0010
,
0000
0001
0010
0100
1000
0010
0000
0000
0100
0001
0100
0010
0001
1000
0000
0100
,
0000
1000
0100
0010
0001
0000
0000
0000
0101
0000
0000
0000
0011
0000
0000
0000
,
0101
0011
0101
0011
,
0101
0000
0010
0100
1010
0000
1100
0000
,
1010
1100
1010
1100
,
1010
0000
0000
0100
0010
0000
0100
0000
0001
0000
1000
0000
0001
0000
0100
0000
,
0001
1000
0001
0010
0100
1000
0100
1000
,
0010
0100
1000
0000
0104
0000
0100
0000
,
0100
0000
0000
0000
0100
0000
0000
0000
0403
0000
0000
0000
0000
0300
0010
0000
,
1010
0100
1000
0100
0010
0001
0010
1000
,
0100
0000
1000
0000
0010
0000
0001
0000
0100
0010
0001
0010
1000
0010
0001
0000
,
0010
1000
0001
1000
0100
0010
0001
1000
,
0010
0000
1000
0000
0100
0000
0001
0000
0001
0100
0001
0100
0001
0010
1000
0000
,
1010
0100
0010
0100
0001
0010
0100
1000
,
0010
0000
1000
0000
0100
0000
1000
0000
0010
1000
0001
1000
0100
1000
0010
0000
,
1000
0100
0010
0001
0010
0001
0100
1000
,
0010
0000
0100
0000
0010
0000
0100
0000
0001
0010
0100
1000
0100
1000
0001
0000
,
1001
0010
0001
0100
0001
0010
0001
0100
,
1000
0010
1000
0100
1000
0010
0100
0001
,
0010
0001
0010
0100
1000
0010
1000
0100
,
1000
0010
1000
0100
0010
0000
0001
0000
,
0101
0010
0001
0100
0001
0010
0100
1000
,
0100
0001
0010
0001
0100
0001
0010
0100
,
0001
0010
1000
0100
0000
0010
0001
0010
,
0000
0100
1000
0100
0000
0001
0000
0000
,
0101
0010
1000
0100
1000
0010
1000
0100
,
0001
0010
0100
0010
1000
0100
0010
1000
,
0010
0100
0001
0010
1000
0010
0100
1000
,
0100
1000
0010
0001
0100
0000
1000
0000
,
1010
0100
1000
0010
1000
0100
0010
0001
,
0010
0001
0100
0010
1000
0000
1000
0000
,
1010
0000
0100
0010
0000
0001
0100
0010
,
0000
0000
1000
0000
0100
0000
1000
0100
1000
0000
0001
0100
0001
0000
0010
0000
,
0011
0100
0000
0010
0000
1000
0000
0010
,
0000
0100
0000
0001
0000
0010
0000
1000
,
0000
0010
0000
0100
0000
0001
0000
0010
,
0000
1000
0000
0100
0000
0010
0000
0001
,
0011
0010
0000
0100
0000
1000
0000
0010
,
0000
1000
0000
0100
0000
0001
0010
0000
,
0100
0000
0010
1000
0000
0100
0010
0001
,
0000
0010
0100
0010
1000
0000
0010
0000
,
1010
0000
0110
0000
1010
0000
0110
0000
1010
0000
0110
0000
1010
0000
0100
0010
,
0101
0000
0000
0000
0110
0000
0000
0000
0101
0000
0000
0000
0110
0000
0000
0000
0101
0000
0000
0000
0110
0000
0000
0000
0101
0000
0000
0100
0010
0000
0100
0000
,
0001
0010
0001
0010
0100
1000
0010
1000
,
0100
1000
0010
0100
0001
0010
0100
1000
,
4010
0001
0010
0001
,
3040
0000
0000
0000
0000
0030
0100
0000
0110
0000
0010
0000
0100
0000
1000
0000
,
0100
0001
0000
0010
0000
0001
0010
0100
,
0010
1000
0100
0000
0100
0010
0100
0001
,
0010
1000
0000
0100
0000
1000
0010
0100
,
0001
0000
0010
0000
0001
0010
0100
0010
,
1000
0100
0000
1000
0000
0100
0010
0100
,
0001
0010
1000
0000
1000
0100
1000
0010
,
0100
0001
0000
0010
0000
0001
0010
0100
,
1000
0000
0010
0000
1010
0100
0010
0100
,
0001
0100
0000
0010
0000
0001
0010
0100
,
0010
1000
0010
0000
0100
0010
0001
0010
,
0100
1000
0000
0100
0000
1000
0100
0010
,
0100
0000
0001
0000
0010
0001
0010
0100
,
1000
0010
0000
0100
0000
0001
0010
1000
,
0100
0010
0100
0000
0001
0010
0001
0010
,
0100
1000
0010
0000
4000
0000
0000
3010
,
1010
0100
0010
0100
0001
0010
0100
0010
,
1000
0000
0100
0000
0010
0000
0100
0000
0001
0010
0001
0100
0001
0010
1000
0000
,
0100
1000
0010
0100
0001
0010
0100
1000
,
0010
0000
0100
0000
0010
0000
0001
0000
0010
0001
0100
0001
0010
0001
1000
0000
,
0010
0100
1000
0010
0001
0010
0100
0010
,
1000
0000
0100
0000
0001
0000
0010
0000
1000
0010
1000
0100
1000
0001
1000
0000
,
0010
0100
1000
0010
0100
0001
0010
1000
,
0100
0000
0010
0000
0100
0000
0001
0000
0010
1000
0001
1000
0010
1000
0100
0000
,
1000
0100
1000
0010
0100
0010
0001
0010
,
0100
0000
0010
0000
1000
0000
0100
0000
1000
0010
0100
0010
1000
0100
0010
0000
,
0100
0001
0010
0100
0010
0100
1000
0100
,
0001
0000
0010
0000
1000
0000
0100
0000
1000
0100
0010
0100
0010
0100
0001
0000
,
0010
1000
0010
0100
0010
1000
0100
0001
,
0100
0000
0010
0000
0001
0000
0100
0000
0010
1000
0010
0100
0010
1000
0010
0000
,
0100
0001
0100
0010
0001
0010
1000
0100
,
1000
0000
0010
0000
0100
0000
0001
0000
0001
0010
0100
0010
1000
0010
0100
0000
,
0110
0010
0100
1000
0100
1000
0010
1000
0100
0010
0001
0010
0001
0010
0100
1000
,
1010
0100
1000
0100
0010
0100
0001
0010
0100
0010
1000
0100
0010
0001
0010
0100
,
1000
0010
1000
0100
1000
0100
0010
0100
0001
0010
0001
0100
0010
0100
1000
0010
,
0101
0010
0001
0010
0100
1000
0100
1000
0100
0001
0010
0100
0010
0100
1000
0100
,
1010
0100
1000
0100
0010
0001
0011
0000
,
1100
0100
1000
0010
0100
0001
0101
0000
,
1010
0100
0010
0001
0010
0100
1010
0000
,
0101
0010
0100
0010
1010
0000
0201
0000
,
0300
0000
0000
0000
;

//---------------dance-single - ----------------
#NOTES:
     dance-single:
     :
     Challenge:
     12:
     0.601003,0.781969,0.232575,0.005168,0.338526,814.000000,769.000000,45.000000,1.000000,15.000000,0.000000,0.601003,0.781969,0.232575,0.005168,0.338526,814.000000,769.000000,45.000000,1.000000,15.000000,0.000000:
// measure 0
0000
0000
0000
0000
0000
0000
0000
0000
1010
0100
1000
0010
1000
0100
0000
0001
,  // measure 1
0000
0010
0100
0010
1000
0001
0000
0000
0010
0001
0010
0100
0010
1000
0000
0100
,  // measure 2
0000
0010
0001
0010
M1M1
0000
0000
0000
1M1M
0100
0001
0100
0010
0100
0000
0010
,  // measure 3
0000
0001
0010
0100
1000
0010
0000
0000
0100
0001
0100
0010
0001
1000
0000
0100
,  // measure 4
0000
1000
0010
0100
0001
0000
0000
0000
0101
0000
0010
0000
0100
0000
1000
0000
,  // measure 5
1010
0100
0001
0010
0101
0000
0010
1000
,  // measure 6
1010
0000
0100
0100
0110
1000
0100
0001
,  // measure 7
0101
0010
0001
0100
1010
0100
0001
0010
,  // measure 8
0011
0000
0000
0001
0010
0000
0100
0000
0001
0000
1000
0000
0001
0000
0100
0000
,  // measure 9
0001
1000
0001
0010
0100
1000
0100
0010
,  // measure 10
0001
0100
1000
0010
0104
0M00
1000
M000
,  // measure 11
0100
0000
0M00
0000
1000
0000
M000
0000
0403
0000
0000
0000
0000
0300
0M10
1000
,  // measure 12
1010
0010
0100
0000
1000
0000
0100
0000
0010
0000
0001
0000
0010
0000
1000
0000
,  // measure 13
0100
0000
1000
0000
0010
0000
0001
0000
0010
0100
1000
0100
0010
0100
0001
0000
,  // measure 14
1000
0010
0001
0000
0010
0000
1000
0000
0100
0000
0010
0000
0001
0000
1000
0000
,  // measure 15
0010
0000
1000
0000
0100
0000
0001
0000
0001
0100
0001
0100
0001
0010
1000
0000
,  // measure 16
0010
0100
1000
0000
0010
0000
0100
0000
0001
0000
0010
0000
0100
0000
1000
0000
,  // measure 17
0010
0000
1000
0000
0100
0000
1000
0000
0010
1000
0001
1000
0100
1000
0010
0000
,  // measure 18
1000
0010
0100
0000
0010
0000
0001
0000
0010
0000
1000
0000
0100
0000
0001
0000
,  // measure 19
0010
0000
0100
0000
0010
0000
0100
0000
0001
0010
0100
1000
0100
1000
0001
0000
,  // measure 20
1001
0010
0001
0100
0001
0010
0001
0100
,  // measure 21
1000
0010
1000
0100
1000
0010
0100
0001
,  // measure 22
0010
0001
0010
0100
1000
0010
1000
0100
,  // measure 23
1000
0010
1000
0100
0010
0000
0001
0000
,  // measure 24
0101
0010
0001
0100
0001
0010
0100
1000
,  // measure 25
0100
0001
0010
0001
0100
0001
0010
0100
,  // measure 26
0001
0010
1000
0100
0000
0010
0001
0010
,  // measure 27
0000
0100
1000
0100
0000
0001
0000
0000
,  // measure 28
0101
0010
1000
0100
1000
0010
1000
0100
,  // measure 29
0001
0010
0100
0010
1000
0100
0010
1000
,  // measure 30
0010
0100
0001
0010
1000
0010
0100
1000
,  // measure 31
0100
1000
0010
0001
0100
0000
1000
0000
,  // measure 32
1010
0100
1000
0010
1000
0100
0010
0001
,  // measure 33
0010
0001
0100
0010
1000
0000
1000
0000
,  // measure 34
1010
0000
0100
0010
0000
0001
0100
0010
,  // measure 35
0000
0000
1000
0000
0100
0000
1000
0100
0010
0001
0010
0100
1000
0000
0010
0000
,  // measure 36
1010
0100
1000
0010
0001
1000
0100
0010
,  // measure 37
0001
0100
0010
1000
0100
0010
0001
0010
,  // measure 38
0100
0010
0001
0100
0010
0001
0010
0100
,  // measure 39
0010
1000
0100
0001
0010
0100
0010
0001
,  // measure 40
0011
0010
0001
0100
0010
1000
0100
0010
,  // measure 41
0100
1000
0010
0100
0001
0010
1000
0010
,  // measure 42
0100
1000
0010
1000
0010
0100
0010
0001
,  // measure 43
0100
0010
0100
0010
1000
0100
0010
0100
,  // measure 44
1010
0000
0110
0000
1010
0000
0110
0000
0101
0000
0110
0000
0101
0000
0100
0010
,  // measure 45
0110
0000
0000
0000
0101
0000
0000
0000
0110
0000
0000
0000
0101
0000
0000
0000
0110
0000
0000
0000
1010
0000
0000
0000
0110
0000
0000
0100
0010
0000
0100
0000
,  // measure 46
0001
0010
0001
0010
0100
1000
0010
1000
,  // measure 47
0100
1000
0010
0100
0001
0010
0100
1000
,  // measure 48
4010
00M0
0001
000M
0010
00M0
0001
000M
,  // measure 49
3040
0000
0000
0000
0000
0030
01M0
0001
0101
0000
0010
0000
0100
0000
1000
0000
,  // measure 50
0100
0001
0000
0010
0000
0001
0010
0100
,  // measure 51
0010
1000
0100
0000
0100
0010
0100
0001
,  // measure 52
0010
1000
0000
0100
0000
1000
0010
0100
,  // measure 53
0001
0000
0010
0000
0001
0010
0100
0010
,  // measure 54
1000
0100
0000
1000
0000
0100
0010
0100
,  // measure 55
0001
0010
1000
0000
1000
0100
1000
0010
,  // measure 56
0100
0001
0000
0010
0000
0001
0010
0100
,  // measure 57
1000
0000
0010
0000
1010
0100
0010
0100
,  // measure 58
0001
0100
0000
0010
0000
0001
0010
0100
,  // measure 59
0010
1000
0010
0000
0100
0010
0001
0010
,  // measure 60
0100
1000
0000
0100
0000
1000
0100
0010
,  // measure 61
0100
0000
0001
0000
0010
0001
0010
0100
,  // measure 62
1000
0010
0000
0100
0000
0001
0010
1000
,  // measure 63
0100
0010
0100
0000
0001
0010
0001
0010
,  // measure 64
0100
0000
1000
0000
0100
0000
0001
0000
4000
0000
0000
0000
0000
3000
M010
0100
,  // measure 65
0110
1000
0010
0000
0010
0000
0100
0000
0001
0000
0010
0000
0100
0000
0010
0000
,  // measure 66
1000
0000
0100
0000
0010
0000
0100
0000
0001
0010
0001
0100
0001
0010
1000
0000
,  // measure 67
0100
0010
1000
0000
0010
0000
0100
0000
0001
0000
0010
0000
0100
0000
1000
0000
,  // measure 68
0010
0000
0100
0000
0010
0000
0001
0000
0010
0001
0100
0001
0010
0001
1000
0000
,  // measure 69
0010
1000
0100
0000
1000
0000
0010
0000
0001
0000
0010
0000
0100
0000
0010
0000
,  // measure 70
1000
0000
0100
0000
0001
0000
0010
0000
1000
0010
1000
0100
1000
0001
1000
0000
,  // measure 71
0100
0010
0001
0000
1000
0000
0010
0000
0100
0000
0001
0000
0010
0000
1000
0000
,  // measure 72
0100
0000
0010
0000
0100
0000
0001
0000
0010
1000
0001
1000
0010
1000
0100
0000
,  // measure 73
1000
0010
0100
0000
1000
0000
0010
0000
0100
0000
0010
0000
0001
0000
0010
0000
,  // measure 74
0100
0000
0010
0000
1000
0000
0100
0000
1000
0010
0100
0010
1000
0100
0010
0000
,  // measure 75
0100
0010
0001
0000
0010
0000
0100
0000
0010
0000
0100
0000
1000
0000
0100
0000
,  // measure 76
0001
0000
0010
0000
1000
0000
0100
0000
1000
0100
0010
0100
0010
0100
0001
0000
,  // measure 77
0010
0100
1000
0000
0010
0000
0100
0000
0010
0000
1000
0000
0100
0000
0001
0000
,  // measure 78
0100
0000
0010
0000
0001
0000
0100
0000
0010
1000
0010
0100
0010
1000
0010
0000
,  // measure 79
0100
0010
0001
0000
0100
0000
0010
0000
0001
0000
0010
0000
1000
0000
0100
0000
,  // measure 80
1000
0000
0010
0000
0100
0000
0001
0000
0001
0010
0100
0010
1000
0010
0100
0000
,  // measure 81
0110
0010
0100
1000
0100
1000
0010
1000
0100
0010
0001
0010
0001
0010
0100
1000
,  // measure 82
0010
0100
1000
0100
0010
0100
0001
0010
0100
0010
1000
0100
0010
0001
0010
0100
,  // measure 83
1000
0010
1000
0100
1000
0100
0010
0100
0001
0010
0001
0100
0010
0100
1000
0010
,  // measure 84
0100
0010
0001
0010
0100
1000
0100
1000
0100
0001
0010
0100
0010
0100
1000
0100
,  // measure 85
1010
0010
0100
0000
1000
0100
0010
0001
0010
0001
0100
0010
1000
0100
1000
0010
,  // measure 86
1000
0100
0010
0100
0001
0010
1000
0100
0010
0100
0001
0010
0100
0010
1000
0100
,  // measure 87
1100
0100
0010
0001
0010
0100
1010
0000
,  // measure 88
0101
0010
0100
0010
1010
0000
0201
0000
,  // measure 89
0300
0000
0000
0000
;
