#TITLE:Braveheart;
#SUBTITLE:;
#ARTIST:Neon Jungle;
#TITLETRANSLIT:;
#SUBTITLETRANSLIT:;
#ARTISTTRANSLIT:;
#GENRE:Electro House;
#CREDIT:;
#BANNER:braveheart-bn.png;
#BACKGROUND:braveheart-bg.png;
#LYRICSPATH:;
#CDTITLE:cdtitle.png;
#MUSIC:braveheart.ogg;
#OFFSET:0.100000;
#SAMPLESTART:30.816999;
#SAMPLELENGTH:30.000000;
#SELECTABLE:YES;
#DISPLAYBPM:64.000000:128.000000;
#BPMS:0.000000=128.000000
,32.000000=64.000000
,33.000000=128.000000
,65.000000=64.000000
,81.000000=128.000000
,145.000000=64.000000
,153.000000=128.000000
,201.000000=64.000000
,217.000000=128.000000
,249.000000=64.000000
,250.000000=32.000000
,251.000000=128.000000
;
#STOPS:250.750000=0.950000
;
#BGCHANGES:0.229=braveheart.avi=1.000=1=0=1===CrossFade==,
283.000=braveheart-bg.png=1.000=1=0=1===CrossFade==,
99999=-nosongbg-=1.000=0=0=0 // don't automatically add -songbackground-
;
#KEYSOUNDS:;
#ATTACKS:;

//---------------dance-single - ----------------
#NOTES:
     dance-single:
     :
     Hard:
     10:
     0.517502,0.588139,0.179206,0.025601,0.448014,566.000000,538.000000,28.000000,4.000000,0.000000,0.000000,0.517502,0.588139,0.179206,0.025601,0.448014,566.000000,538.000000,28.000000,4.000000,0.000000,0.000000:
0000
0000
1001
0100
,
0001
0000
0100
0000
0001
0000
0000
0000
0010
0000
0000
1000
0100
0000
1000
0000
,
0010
1000
0100
0001
0010
0000
0010
0000
,
0001
0000
0100
0000
1000
0000
0000
0000
0100
0000
0000
0001
0100
0000
0001
0000
,
0010
0000
0001
0000
1000
0100
0010
0001
1000
0000
0000
0000
0100
0000
0000
0000
,
0001
0000
0000
0000
0010
0000
0100
0000
1000
0000
0000
0001
0100
0000
0010
0000
,
0100
0001
0100
0010
1000
0000
0100
0000
,
0001
0000
0010
0000
0100
0000
1000
0000
0100
0000
0000
1000
0010
0000
0001
0000
,
0000
1000
0100
0010
0001
0000
0000
0000
0100
0000
0000
0000
0001
0000
1000
0000
,
0100
0000
0000
0000
0010
0000
0000
1000
0010
0000
1000
0000
0100
0000
0010
0000
,
0001
0100
0001
0000
0010
0000
1000
0100
,
0001
0000
0000
0000
0010
0000
0000
0100
0010
0000
1000
0000
0100
0000
0001
0000
,
0001
0010
0100
1000
0100
0000
0000
0000
0001
0000
0000
0000
0010
0000
0000
0000
,
1000
0000
0100
0000
0010
0000
0000
0001
1000
0000
0001
0000
0010
0000
0100
0000
,
1000
0010
0100
0000
1000
0000
0001
0010
,
0100
0000
1000
0000
0010
0000
0000
1000
0010
0000
0100
0000
0004
0000
0000
0000
,
1003
0000
0100
0000
0010
0000
0001
0000
1001
0000
0000
0000
0010
0000
0000
1000
0000
0100
0000
0000
1000
0000
0010
0000
0100
0000
0000
0001
0000
0000
0010
0000
,
0000
0100
0000
0000
1000
0000
0010
0000
0100
0000
0000
0000
0001
0000
0000
0100
0000
0010
0000
0000
1000
0000
0100
0000
0000
0010
0000
0001
0000
0000
0100
0000
,
0000
0010
0000
0000
1000
0000
0010
0000
0100
0000
0000
0000
0001
0000
0000
0000
0100
0000
0000
0000
0010
0000
1000
0000
0000
0000
0200
0000
0000
0000
0001
0000
,
0000
0001
0000
0000
0310
0000
0100
0000
1000
0000
0000
0000
0010
0000
0000
0100
0000
0001
0000
0000
0010
0000
1000
0000
0100
0000
0000
1000
0000
0000
0100
0000
,
0000
0010
0000
0000
0100
0000
0001
0000
0101
0000
0000
0000
0000
0000
0000
0000
0010
0000
0000
0000
0000
0000
0010
0000
0100
0000
0000
0000
0000
0000
0000
0000
,
1000
0000
0100
0000
0001
0000
0000
0010
0000
0000
0100
0000
0000
0010
0000
0000
,
1000
0010
0100
0001
0100
0010
0100
0000
,
0010
0100
0010
1000
0010
0100
0010
0000
,
1000
2010
0010
0010
,
3010
0002
0100
0000
0100
0000
0103
0000
,
0001
1000
0100
0010
0100
0001
0100
0000
,
0010
1000
0010
0100
0010
1000
0100
0000
,
0001
0000
0000
0000
0101
0000
0000
0000
0010
0000
0000
0001
0100
0000
0000
0000
,
0010
0000
1000
0000
1100
0000
0000
1100
0000
0000
0011
0000
0000
0011
0000
0000
,
0001
0100
0010
1000
0010
0100
1000
0000
,
0100
0000
0001
0000
0100
0000
0001
1000
0010
1000
0010
1000
0010
0000
0000
0000
,
0100
0000
0000
0000
0110
0000
0000
0000
0001
0000
0000
1000
0010
0000
0000
0100
,
0000
0000
0001
0000
0011
0000
0000
0011
0000
0000
1100
0000
0000
1100
0000
0000
,
1000
0010
0100
1000
0100
0010
0001
0000
,
0010
0000
1000
0000
0010
0000
1000
0010
0100
0010
0100
0010
0100
0000
0000
0000
,
0001
0000
0000
0000
0000
0000
0000
0000
1001
0000
0000
0000
0100
0000
0000
0001
0000
0100
0000
0000
0010
0000
1000
0000
0100
0000
0000
0000
0001
0000
0000
0100
,
0000
0010
0000
0000
1000
0000
0001
0000
0010
0000
0000
0000
1000
0000
0000
0010
0000
0100
0000
0000
0001
0000
0100
0000
0010
0000
0000
0000
0010
0000
0000
0000
,
0010
0000
0010
0100
1001
0000
0000
1000
0000
0000
0001
0000
0010
0000
0000
0100
,
0000
0000
0010
0000
1000
0000
0000
0100
0000
0000
0010
0000
1000
0000
0000
0100
,
0000
0000
0010
0000
1000
0001
0000
0000
0100
0000
0010
0000
0100
0001
0000
0000
,
0010
0000
0100
0000
1000
0000
0100
0001
0100
0000
0001
0000
0001
0000
0010
0000
,
0100
0000
1000
0000
1001
0000
0000
0100
0000
0000
0001
0000
0010
0000
0000
1000
,
0000
0000
0010
0000
0100
0000
0000
1000
0010
0000
0100
0001
0100
0000
0000
0010
,
0000
0000
1000
0100
0001
0000
0010
0001
0010
0000
0100
0000
1000
0000
0000
0000
,
0100
0000
0001
0000
0010
0000
1000
0100
0001
0000
0010
0000
0100
0000
0000
0000
,
1000
0000
0100
0000
0001
0000
0010
0000
0100
0000
0010
0000
1000
0001
0000
0000
,
0010
0000
0100
0000
1000
0000
0010
0000
1000
0000
0001
0000
0100
0001
0010
0000
,
1000
0000
0100
0000
0001
0000
0000
0100
0000
0000
0010
0000
1000
0000
0000
0100
,
0000
0000
0001
0000
0010
0000
0000
0100
0000
0000
0001
0000
0400
0000
0000
0000
,
0304
0000
0000
0000
0000
0000
0000
0000
1003
0000
0000
0000
0010
0000
0000
1000
0000
0100
0000
0000
0001
0000
0010
0000
0100
0000
0000
1000
0000
0000
0010
0000
,
0000
0100
0000
0000
0010
0000
0001
0000
0100
0000
0000
0000
0010
0000
0000
1000
0000
0010
0000
0000
0001
0000
0100
0000
0010
0000
0000
1000
0000
0000
0100
0000
,
0000
0001
0000
0000
0010
0000
0100
0000
0010
0000
0000
0000
0100
0000
0000
0000
1000
0000
0000
0000
0100
0000
0001
0000
0000
0000
0002
0000
0000
0000
1000
0000
,
0000
0100
0000
0000
1003
0000
0010
0000
0001
0000
0000
0000
0010
0000
0000
0100
0000
0001
0000
0000
0010
0000
1000
0000
0100
0000
0000
0010
0000
0000
0100
0000
,
0000
0001
0000
0000
0010
0000
1000
0000
1010
0000
0000
0000
0000
0000
0000
0000
0100
0000
0000
0000
0000
0000
1000
0000
0010
0000
0000
0000
0000
0000
0100
0000
,
0000
0000
0001
0000
0010
0000
0000
0100
0000
0000
0010
0000
0000
1000
0000
0000
,
0100
0010
0001
0100
0001
0010
0001
0000
,
1000
0001
1000
0010
1000
0001
0100
0000
,
0010
0000
0000
0000
0110
0000
0000
0000
1000
0000
0000
0001
1000
0000
0000
0000
,
0100
0000
0001
0000
0010
0000
0000
0001
0000
0000
0010
0000
0000
0100
0000
0000
,
1000
0001
1000
0010
1000
0001
1000
0000
,
0001
0100
0001
1000
0001
0100
0010
0000
,
0100
0000
0000
0000
0110
0000
0010
0000
0100
0000
0000
0000
1001
0000
0000
0010
,
0001
0000
0010
0000
0100
0000
0010
0000
1000
0001
0000
0000
1001
0000
0000
0010
,
1000
0000
0100
0000
1000
0000
0010
0000
0100
0001
0000
0000
0101
0000
0000
0001
,
0010
0000
0100
0000
0010
0000
1000
0000
0100
1000
0000
0000
1100
0000
0000
1000
,
0010
0000
0100
0000
0010
0000
0001
0000
1000
0001
1000
0001
1001
0000
0000
0010
,
0001
0000
1000
0000
0010
0000
0100
0000
0010
1000
0000
0000
1010
0000
0000
0100
,
0010
0000
0001
0000
0010
0000
1000
0000
0100
0001
0000
0000
0101
0000
0000
0001
,
0010
0000
1000
0000
0010
0000
0100
0000
1000
0100
0000
0000
1100
0000
0000
0010
,
1000
0000
0100
0000
0001
0000
0010
0000
1000
0100
0010
0001
0000
0000
0000
0000
;

//---------------dance-single - ----------------
#NOTES:
     dance-single:
     :
     Beginner:
     2:
     0.192920,0.316970,0.089603,0.134404,0.112004,211.000000,197.000000,14.000000,21.000000,0.000000,0.000000,0.192920,0.316970,0.089603,0.134404,0.112004,211.000000,197.000000,14.000000,21.000000,0.000000,0.000000:
0000
0000
1100
0000
,
1000
0100
0001
0000
0010
0000
0000
0000
,
1000
0000
0010
0000
,
0001
0100
1000
0000
0010
0000
0000
0000
,
1000
0000
0010
0000
,
0001
0000
0000
0100
0200
0000
0000
0000
,
0310
0000
1000
0000
,
0100
0001
0000
0200
0000
0000
0000
0000
,
0300
0000
0101
0000
0000
0000
0001
1000
,
0100
0010
0000
0100
,
0000
0000
0001
0000
0000
0000
1000
0100
,
0001
0010
0000
0100
,
0000
1000
0000
0001
,
0000
0010
0020
0000
0000
0000
1030
0000
,
0000
0000
0100
0000
0000
0000
0010
1000
,
0000
0020
0000
0000
0000
0000
0030
0000
,
0000
0000
0000
0000
1010
0000
0000
0000
0100
0000
0000
0010
0000
0020
0000
0000
,
0030
0000
0000
1000
0000
2000
0000
0000
0000
3100
0000
0001
0000
0002
0000
0000
,
0003
0000
0000
0000
1000
0000
0000
0000
0010
0000
0000
0100
0000
0200
0000
0000
,
0000
0000
0300
1000
0000
2000
0000
0000
0000
3100
0000
0001
0000
0002
0000
0000
,
0003
1001
0000
0100
,
0000
0001
0000
0010
,
0000
0100
0000
1000
,
0000
0010
0000
0010
,
0010
1000
0000
0010
,
0000
0001
0000
1000
,
0000
0100
0000
0010
,
0000
1000
0000
0100
,
0000
0110
0000
1000
,
0000
0010
0000
0100
,
0000
0001
0000
0100
,
0000
0001
0000
1000
,
1000
1001
0000
0010
,
0000
0001
0000
1000
,
0000
0100
0000
0001
,
0000
0010
0000
0100
,
0100
0000
0000
0000
0110
0000
0000
0000
0000
0000
1000
0001
1000
0000
0000
0000
,
0000
0000
0010
0100
0010
0000
0000
0000
0000
0000
0001
1000
0001
0000
0000
0000
,
0010
0000
1010
0000
0000
0100
0000
0000
,
0001
0000
0000
0000
0000
0000
0100
0000
0000
0000
0000
0000
1000
0000
0000
0100
,
0000
0010
0001
0000
0000
0010
0000
0000
,
0200
0000
0000
0300
,
0000
0000
1001
0000
0000
0001
0001
0000
,
1000
0000
0000
0000
0000
0000
0100
0000
0000
0000
0000
0000
0001
0000
0000
0010
,
0000
0100
1000
0000
0000
1000
1000
0000
,
0010
0000
0000
0000
0000
0000
0001
0000
0000
0000
0000
0000
1000
0000
0000
0100
,
0000
0010
0001
0000
0000
0100
0100
0000
,
0010
0000
0000
0000
0000
0000
0100
0000
0000
0000
0000
0000
0001
0000
0000
0010
,
0000
0100
1000
0000
0000
0000
0001
0000
,
0000
0100
0000
2020
,
0000
0000
0000
0000
3030
0000
0000
0000
0100
0000
0000
0010
0000
0020
0000
0000
,
0030
0000
0000
1000
0000
2000
0000
0000
3000
0100
0000
0001
0000
0002
0000
0000
,
0003
0000
0000
0000
0010
0000
0000
0000
1000
0000
0000
0100
0000
0200
0000
0000
,
0000
0000
0300
1000
0000
2000
0000
0000
3000
0100
0000
0001
0000
0002
0000
0000
,
0003
1001
0000
0010
,
0000
0001
0000
1000
,
0000
0100
0000
0010
,
0000
0100
0000
0010
,
0010
0100
0000
1000
,
0000
0010
0000
0010
,
0000
0100
0000
0010
,
0000
0001
0000
0100
,
0100
0000
0000
0000
0220
0000
0000
0000
0000
0000
0000
0330
0110
0000
0000
0000
,
0000
0100
0000
0010
,
0000
1000
0000
0001
,
0000
0100
0000
1000
,
0000
0010
0000
1010
,
0000
0010
0000
1000
,
0000
0100
0000
0001
,
0000
0010
0000
1000
,
0000
0001
0000
0100
;

//---------------dance-single - ----------------
#NOTES:
     dance-single:
     :
     Easy:
     4:
     0.258751,0.316690,0.096003,0.179206,0.115204,283.000000,268.000000,15.000000,28.000000,0.000000,0.000000,0.258751,0.316690,0.096003,0.179206,0.115204,283.000000,268.000000,15.000000,28.000000,0.000000,0.000000:
0000
0000
1010
0100
,
1000
0100
0001
0000
0010
0000
0000
0000
,
1000
0000
0010
0100
,
0001
0100
1000
0000
0010
0000
0000
0000
,
1000
0000
0010
1000
,
0001
0000
0000
0100
0020
0000
0000
0000
,
1030
0000
0010
1000
,
0100
0001
0000
0020
0000
0000
0000
0000
,
0030
0000
0101
0000
0010
0000
0001
0010
,
0100
0010
0000
0100
,
0000
0000
0001
0000
0010
0000
1000
0100
,
0001
0010
0000
0100
,
0000
1000
0100
0001
,
0000
0010
0020
0000
0000
0000
1030
0000
,
0000
0000
0100
0000
0001
0000
0010
1000
,
0000
0200
0000
0000
0000
0000
0300
0000
,
0000
0000
0000
0000
0101
0000
0010
0000
0100
0000
0000
0010
0000
0020
0000
0000
,
0030
0000
0000
1000
0000
2000
0000
0000
0000
3100
0000
0001
0000
0002
0000
0000
,
0003
0000
0000
0000
1000
0000
0100
0000
0010
0000
0000
0100
0000
0200
0000
0000
,
0000
0000
0300
1000
0000
2000
0000
0000
0000
3100
0000
0001
0000
0002
0000
0000
,
0003
2001
0000
0100
,
3000
0002
0010
0000
0000
0000
0010
0003
,
0000
0100
0000
1000
,
0100
0010
0001
0000
0000
0000
0010
0000
,
0010
2000
0000
0010
,
3000
0002
0100
0000
0000
0000
1003
0000
,
0000
0100
0000
0010
,
0001
0100
1000
0000
0000
0000
0100
0000
,
0100
1100
0010
1000
,
0100
0010
0001
0100
,
0010
0001
1000
0100
,
0010
1000
0001
1000
0100
0000
1000
0000
,
1000
1001
0100
0010
,
1000
0001
0010
1000
,
0010
0100
1000
0001
,
0100
0001
1000
0001
0010
0000
0100
0000
,
0100
0000
0000
0000
0000
0000
0000
0000
0110
0000
0000
0000
0010
0000
0000
0100
0000
0000
0000
0000
0000
0000
0000
0000
1000
0000
0000
0000
0100
0000
0000
0001
,
0000
0000
0000
0000
0000
0000
0000
0000
0010
0000
0000
0000
0100
0000
0000
1000
0000
0000
0000
0000
0000
0000
0000
0000
0100
0000
0000
0000
0000
0000
0000
0000
,
0010
0000
0101
0000
0000
0100
0000
0000
,
0001
0000
0100
0000
1000
0000
0010
0000
0000
0000
0000
0000
1000
0000
0000
0100
,
0000
0010
0001
0000
0001
0010
1000
0000
,
0100
0010
0001
0000
1000
0000
0000
0000
,
0000
0000
1001
0000
0100
0001
0010
0000
,
1000
0000
0100
0000
0001
0000
0100
0000
0000
0000
0000
0000
0001
0000
0000
0010
,
0000
0100
1000
0000
0000
1000
1000
0000
,
0010
0000
0000
0000
0000
0000
0001
0000
0000
0000
0000
0000
1000
0000
0000
0100
,
0000
0010
0001
0000
0000
0100
0100
0000
,
0010
0000
0100
0000
0001
0000
0100
0000
0000
0000
0000
0000
0001
0000
0000
0010
,
0000
0100
1000
0000
0000
0000
0001
0000
,
0000
0000
0000
0000
0100
0000
0000
1000
0000
0000
0100
0000
2020
0000
0000
0000
,
0000
0000
0000
3030
1000
0000
0100
0000
0001
0000
0000
0010
0000
0020
0000
0000
,
0030
0000
0000
1000
0000
2000
0000
0000
3000
0100
0000
0001
0000
0002
0000
0000
,
0003
0000
0000
0000
0001
0000
0010
0000
1000
0000
0000
0100
0000
0200
0000
0000
,
0000
0000
0300
1000
0000
2000
0000
0000
3000
0100
0000
0001
0000
0002
0000
0000
,
0003
2001
0000
0010
,
3000
0002
1000
0000
0000
0000
0103
0000
,
0000
0001
0000
0010
,
1000
0100
0001
0000
0000
0000
0010
0000
,
0010
2100
0000
0010
,
3000
0002
0100
0000
0000
0000
0013
0000
,
0000
0001
0000
0100
,
0001
0010
1000
0000
0000
0000
0100
0000
,
0100
0000
0000
0000
0220
0000
0000
0000
0000
0000
0000
0330
1001
0000
0000
0000
,
0000
0000
0100
0000
1000
0100
0001
0000
,
0000
0000
1000
0000
0001
0010
0100
0000
,
0000
0000
0100
0000
0001
0010
1000
0000
,
0000
0000
0000
0000
0010
0000
0000
0000
0004
0000
0000
0003
1001
0000
0000
0000
,
0000
0000
0010
0000
0100
0001
1000
0000
,
0000
0000
0100
0000
1000
0010
0001
0000
,
0000
0000
0010
0000
0001
0100
1000
0000
,
0000
0000
0000
0000
0001
0000
0000
0000
4000
0000
0000
3000
0000
0000
0000
0000
;

//---------------dance-single - ----------------
#NOTES:
     dance-single:
     :
     Medium:
     8:
     0.471787,0.542897,0.166405,0.076802,0.313610,516.000000,490.000000,26.000000,12.000000,0.000000,0.000000,0.471787,0.542897,0.166405,0.076802,0.313610,516.000000,490.000000,26.000000,12.000000,0.000000,0.000000:
// measure 0
0000
0000
1001
0100
,  // measure 1
0001
0000
0100
0000
0001
0000
0000
0000
0010
0000
0000
1000
0100
0000
1000
0000
,  // measure 2
0010
1000
0100
0001
0010
0000
0010
0000
,  // measure 3
0001
0000
0100
0000
1000
0000
0000
0000
0100
0000
0000
0001
0100
0000
0001
0000
,  // measure 4
0010
0001
1000
0010
1000
0000
0100
0000
,  // measure 5
0001
0000
0000
0000
0010
0000
0100
0000
1000
0000
0000
0001
0100
0000
0010
0000
,  // measure 6
0100
0001
0100
0010
1000
0000
0100
0000
,  // measure 7
0001
0000
0010
0000
0100
0000
1000
0000
0100
0000
0000
1000
0010
0000
0001
0000
,  // measure 8
0000
0010
0100
0010
1000
0000
0000
0000
0100
0000
0000
0000
0001
0000
1000
0000
,  // measure 9
0100
0000
0000
0000
0010
0000
0000
1000
0010
0000
1000
0000
0100
0000
0010
0000
,  // measure 10
0001
0100
0001
0000
0010
0000
1000
0100
,  // measure 11
0001
0000
0000
0000
0010
0000
0000
0100
0010
0000
1000
0000
0100
0000
0001
0000
,  // measure 12
0001
0010
0100
0000
0001
0000
0010
0000
,  // measure 13
1000
0000
0100
0000
0010
0000
0000
0001
1000
0000
0001
0000
0010
0000
0100
0000
,  // measure 14
1000
0010
0100
0000
1000
0000
0001
0010
,  // measure 15
0100
0000
1000
0000
0010
0000
0000
1000
0010
0000
0100
0000
0004
0000
0000
0000
,  // measure 16
4003
0000
0000
0000
3100
0000
0010
0000
0100
0000
1000
0010
0000
0200
0000
0000
,  // measure 17
0300
0000
0000
0000
1000
0000
0010
0000
0100
0000
0000
0000
0001
0000
0000
0100
0000
0010
0000
0000
1000
0000
0100
0000
0000
0010
0000
0001
0000
0000
0100
0000
,  // measure 18
0000
0010
0000
0000
1000
0000
0010
0000
0100
0000
0000
0000
0001
0000
0000
0000
0100
0000
0000
0000
0010
0000
1000
0000
0000
0000
0200
0000
0000
0000
0001
0000
,  // measure 19
0000
0001
0000
0000
0310
0000
0100
0000
1000
0000
0000
0000
0010
0000
0000
0100
0000
0001
0000
0000
0010
0000
1000
0000
0100
0000
0000
1000
0000
0000
0100
0000
,  // measure 20
0000
0010
0000
0000
0100
0000
0001
0000
0210
0000
0000
0000
0000
0000
0000
0000
0010
0000
0000
0000
0000
0000
0000
0000
0010
0000
0000
0000
0000
0000
0000
0000
,  // measure 21
0310
2000
0001
0000
0001
0000
3001
0000
,  // measure 22
1000
0100
0010
0001
0100
0001
1000
0000
,  // measure 23
0010
0100
0010
1000
0010
0100
0010
0000
,  // measure 24
0001
1020
1000
1000
,  // measure 25
1030
0002
0100
0000
0100
0000
0103
0000
,  // measure 26
0001
1000
0100
0010
0100
0001
0100
0000
,  // measure 27
0010
1000
0010
0100
0010
1000
0100
0000
,  // measure 28
0010
0000
0000
0000
1001
0000
0000
0000
0010
0000
0000
0001
0100
0000
0000
0000
,  // measure 29
0010
0000
1000
0000
1100
0000
0000
1100
0000
0000
0011
0000
0000
0011
0000
0000
,  // measure 30
0001
0100
0010
1000
0010
0100
1000
0000
,  // measure 31
0100
0000
0001
0000
0100
0000
0001
4000
0000
0000
0000
0000
3010
0000
0000
0000
,  // measure 32
0100
0000
0000
0000
0110
0000
0000
0000
0001
0000
0000
1000
0010
0000
0000
0100
,  // measure 33
0000
0000
0001
0000
0011
0000
0000
0011
0000
0000
1100
0000
0000
1100
0000
0000
,  // measure 34
1000
0010
0100
1000
0100
0010
0001
0000
,  // measure 35
0010
0000
1000
0000
0010
0000
1000
0040
0000
0000
0000
0000
0130
0000
0000
0000
,  // measure 36
0001
0000
0000
0000
1001
0000
0100
0000
0000
0000
0001
0010
0100
0000
0010
0000
,  // measure 37
0000
0000
1000
0001
0010
0000
1000
0000
0000
0000
0001
0100
1000
0000
0010
0000
,  // measure 38
0100
0000
0001
0000
0101
0000
0000
1000
0000
0000
0001
0000
0010
0000
0000
0100
,  // measure 39
0000
0000
0010
0000
1000
0000
0000
0100
0000
0000
0010
0000
1000
0000
0000
0100
,  // measure 40
0000
0000
0010
0000
1000
0001
0000
0000
0100
0000
0010
0000
0100
0001
0000
0000
,  // measure 41
0010
0100
1000
0100
0010
0001
1000
0010
,  // measure 42
0100
0000
1000
0000
1001
0000
0000
0100
0000
0000
0001
0000
0010
0000
0000
1000
,  // measure 43
0000
0000
0010
0000
0100
0000
0000
1000
0000
0000
0100
0000
0001
0000
0000
0010
,  // measure 44
0000
0000
1000
0000
0001
0000
0000
0100
0000
0000
0010
0000
1000
0000
0000
0000
,  // measure 45
0100
0000
0001
0000
0010
0000
1000
0100
0001
0000
0010
0000
0100
0000
0000
0000
,  // measure 46
1000
0000
0100
0000
0001
0000
0010
0000
0100
0000
0010
0000
1000
0001
0000
0000
,  // measure 47
0010
0000
0100
0000
1000
0000
0010
0000
1000
0000
0001
0000
0100
0001
0010
0000
,  // measure 48
1000
0000
0100
0000
0001
0000
0000
0100
0000
0000
0010
0000
1000
0000
0000
0100
,  // measure 49
0000
0000
0001
0000
0010
0000
0000
0100
0000
0000
0001
0000
0400
0000
0000
0000
,  // measure 50
0304
0000
0000
0000
1003
0000
0010
0000
0100
0000
0001
0010
0000
0020
0000
0000
,  // measure 51
0030
0000
0000
0000
0010
0000
0001
0000
0100
0000
0000
0000
0010
0000
0000
1000
0000
0010
0000
0000
0001
0000
0100
0000
0010
0000
0000
1000
0000
0000
0100
0000
,  // measure 52
0000
0001
0000
0000
0010
0000
0100
0000
0010
0000
0000
0000
0100
0000
0000
0000
1000
0000
0000
0000
0100
0000
0001
0000
0000
0000
0002
0000
0000
0000
1000
0000
,  // measure 53
0000
0100
0000
0000
1003
0000
0010
0000
0001
0000
0000
0000
0010
0000
0000
0100
0000
0001
0000
0000
0010
0000
1000
0000
0100
0000
0000
0010
0000
0000
0100
0000
,  // measure 54
0000
0001
0000
0000
0010
0000
1000
0000
2010
0000
0000
0000
0000
0000
0000
0000
0010
0000
0000
0000
0000
0000
0000
0000
0010
0000
0000
0000
0000
0000
0000
0000
,  // measure 55
3010
0200
0001
0000
0001
0000
0301
0000
,  // measure 56
0100
0010
0001
0100
0001
0010
0001
0000
,  // measure 57
1000
0001
1000
0010
1000
0001
0100
0000
,  // measure 58
0010
1020
1000
1000
,  // measure 59
1030
0002
0100
0000
0100
0000
0103
0000
,  // measure 60
1000
0001
1000
0010
1000
0001
1000
0000
,  // measure 61
0001
0100
0001
1000
0001
0100
0010
0000
,  // measure 62
0100
0000
0000
0000
0101
0000
0010
0000
1000
0000
0000
0000
1001
0000
0000
0001
,  // measure 63
1000
0000
0010
0000
0100
0000
0010
0000
1000
0001
0000
0000
1001
0000
0000
0010
,  // measure 64
1000
0000
0100
0000
1000
0000
0010
0000
0100
0001
0000
0000
0101
0000
0000
0001
,  // measure 65
0010
0000
0100
0000
0010
0000
1000
0000
0100
1000
0000
0000
1100
0000
0000
1000
,  // measure 66
0010
0000
0100
0000
0010
0000
0001
0000
0004
0000
0000
0000
1003
0000
0000
0010
,  // measure 67
0001
0000
1000
0000
0010
0000
0100
0000
0010
1000
0000
0000
1010
0000
0000
0100
,  // measure 68
0010
0000
0001
0000
0010
0000
1000
0000
0100
0001
0000
0000
0101
0000
0000
0001
,  // measure 69
0010
0000
1000
0000
0010
0000
0100
0000
1000
0100
0000
0000
1100
0000
0000
0010
,  // measure 70
1000
0000
0100
0000
0001
0000
0010
0000
0400
0000
0000
0300
0000
0000
0000
0000
;
