#VERSION:0.83;
#TITLE:Booty Bounce;
#SUBTITLE:;
#ARTIST:DEV;
#TITLETRANSLIT:;
#SUBTITLETRANSLIT:;
#ARTISTTRANSLIT:;
#GENRE:Electropop;
#ORIGIN:;
#CREDIT:;
#BANNER:Booty Bounce-bn.png;
#BACKGROUND:Booty Bounce-bg.png;
#PREVIEWVID:;
#JACKET:Booty Bounce-jacket.png;
#CDIMAGE:;
#DISCIMAGE:;
#LYRICSPATH:;
#CDTITLE:cdtitle.png;
#MUSIC:Booty Bounce.ogg;
#OFFSET:-0.007000;
#SAMPLESTART:7.228000;
#SAMPLELENGTH:23.500000;
#SELECTABLE:YES;
#BPMS:0.000=125.000;
#STOPS:;
#DELAYS:;
#WARPS:;
#TIMESIGNATURES:0.000=4=4;
#TICKCOUNTS:0.000=4;
#COMBOS:0.000=1;
#SPEEDS:0.000=1.000=0.000=0;
#SCROLLS:0.000=1.000;
#FAKES:;
#LABELS:0.000=Song Start;
#BGCHANGES:0.000=Booty Bounce.avi=1.000=0=0=0=StretchNoLoop====,
176.500=Booty Bounce-bg.png=1.000=0=0=1=====,
99999=-nosongbg-=1.000=0=0=0 // don't automatically add -songbackground-
;
#KEYSOUNDS:;
#ATTACKS:
;

//---------------dance-single - feeling like a G6----------------
#NOTEDATA:;
#CHARTNAME:X-Scale 12;
#STEPSTYPE:dance-single;
#DESCRIPTION:feeling like a G6;
#CHARTSTYLE:;
#DIFFICULTY:Hard;
#METER:8;
#RADARVALUES:0.507521,0.514199,0.035059,0.268786,0.210354,304.000000,301.000000,3.000000,23.000000,0.000000,0.000000,0.000000,0.000000,0.000000,0.507521,0.514199,0.035059,0.268786,0.210354,304.000000,301.000000,3.000000,23.000000,0.000000,0.000000,0.000000,0.000000,0.000000;
#CREDIT:;
#NOTES:
// measure 0
0000
0000
0000
0000
,  // measure 1
0000
0000
0000
0000
,  // measure 2
0000
0000
0000
0000
,  // measure 3
0000
0000
0000
0000
,  // measure 4
1001
0000
0000
1000
0100
0000
1000
0000
0100
0000
0001
0000
0100
0000
0010
0000
,  // measure 5
0001
0000
0000
0100
0001
0000
1000
0000
0010
0000
0100
0000
0010
0000
1000
0000
,  // measure 6
0001
0000
0000
0010
0100
0000
0010
0000
0001
0000
1000
0000
0010
0000
1000
0000
,  // measure 7
0001
0000
0000
0010
0100
0000
1000
0000
0020
0000
0000
0000
0000
0000
0000
0000
,  // measure 8
0130
0010
1000
0001
0020
0000
0130
0010
,  // measure 9
0001
1000
0010
1000
0002
0000
0013
1000
,  // measure 10
0010
0100
0010
0001
2000
0000
3001
0100
,  // measure 11
0010
0001
0010
1000
0002
0000
0013
0100
,  // measure 12
0010
0001
1000
0010
0200
0000
1300
0100
,  // measure 13
0001
0100
0010
0100
0002
0000
0013
0100
,  // measure 14
1000
0001
0100
0001
2000
0000
3100
1000
,  // measure 15
1100
0000
0000
0100
0010
0000
0001
0000
0100
0001
0100
0000
0010
0100
0010
0100
,  // measure 16
0010
0000
0000
0100
0000
0000
0001
0000
0000
0000
0100
0000
0010
0000
1000
0000
,  // measure 17
0001
0000
0000
0010
0000
0000
0100
0000
0000
0000
1000
0000
0100
0000
0010
0000
,  // measure 18
0001
0000
0000
1000
0000
0000
0001
0000
0000
0000
0100
0000
0001
0000
1000
0000
,  // measure 19
0010
0000
0000
0100
0000
0000
0010
0000
0000
0000
1000
0000
0000
0000
0001
1000
,  // measure 20
0001
0000
0000
0010
0001
0000
1000
0000
0010
0000
0100
0000
0001
0000
0010
0100
,  // measure 21
0010
0000
0000
0001
1000
0000
0010
0000
1000
0000
0100
0000
0010
0000
0001
0000
,  // measure 22
0001
0010
0000
0010
0000
0000
0100
0000
1000
0100
1000
0000
0001
0000
0100
0000
,  // measure 23
0002
0000
0000
0000
0000
0000
1003
0001
,  // measure 24
0010
1000
0010
0100
2000
0000
3010
0100
,  // measure 25
0002
0000
1003
0010
0001
0010
1000
0100
,  // measure 26
0001
0100
1000
0010
0100
0010
0001
0010
,  // measure 27
2000
0000
3010
1000
0001
0010
1000
0010
,  // measure 28
0001
0000
0000
0100
0001
0000
1000
0000
0000
0000
0010
0000
1000
0000
0001
0000
,  // measure 29
0100
0000
0000
0010
0100
0000
0001
0000
0000
0000
0010
0000
0100
0000
0010
0000
,  // measure 30
0001
1000
0001
0000
0010
0000
0100
0000
1000
0100
1000
0000
0001
0000
0100
0000
,  // measure 31
1001
0000
1000
0010
2000
0000
3002
0000
,  // measure 32
0013
0000
0000
0100
0010
0000
0100
0000
1000
0000
0001
0000
0100
0000
0001
0000
,  // measure 33
1000
0000
0000
0100
0010
0000
0001
0000
1000
0000
0001
0000
0100
0000
0010
0000
,  // measure 34
0100
0000
0000
0001
0010
0000
0001
0000
1000
0000
0100
0000
0001
0000
0100
0000
,  // measure 35
1000
0000
0000
0100
0010
0000
0001
0000
2000
0000
0000
0000
0010
0000
0000
0000
,  // measure 36
3100
1000
0100
0000
1000
0000
0001
0000
0020
0000
0100
0000
0130
0000
0010
0000
,  // measure 37
0001
0100
0001
0000
0010
0000
0100
0000
2000
0000
0001
0000
3001
0000
0010
0000
,  // measure 38
0100
0010
0100
0000
1000
0000
0001
0000
0200
0000
0010
0000
0310
0000
0100
0000
,  // measure 39
0001
1000
0001
0000
0100
0000
0010
0000
2000
0000
0100
0000
3100
0000
0010
0000
,  // measure 40
0001
0010
0001
0000
0100
0000
1000
0000
0200
0000
0010
0000
0310
0000
0100
0000
,  // measure 41
0001
0010
0001
0000
1000
0000
0100
0000
0020
0000
0001
0000
0031
0000
0010
0000
,  // measure 42
0100
1000
0100
0000
0010
0000
0100
0000
2000
0000
0010
0000
3010
0000
1000
0000
,  // measure 43
0001
0000
0000
0001
1000
0000
0010
0000
0100
0010
0100
0000
0002
0000
0000
0000
,  // measure 44
0003
0000
0000
0000
;

//---------------dance-single - booty bouncin----------------
#NOTEDATA:;
#CHARTNAME:X-Scale 9;
#STEPSTYPE:dance-single;
#DESCRIPTION:booty bouncin;
#CHARTSTYLE:;
#DIFFICULTY:Medium;
#METER:6;
#RADARVALUES:0.415700,0.437069,0.058432,0.338904,0.093491,249.000000,244.000000,5.000000,29.000000,0.000000,0.000000,0.000000,0.000000,0.000000,0.415700,0.437069,0.058432,0.338904,0.093491,249.000000,244.000000,5.000000,29.000000,0.000000,0.000000,0.000000,0.000000,0.000000;
#CREDIT:;
#NOTES:
// measure 0
0000
0000
0000
0000
,  // measure 1
0000
0000
0000
0000
,  // measure 2
0000
0000
0000
0000
,  // measure 3
0000
0000
0000
0000
,  // measure 4
1100
0000
1000
0100
0000
0100
0001
1000
,  // measure 5
0001
0000
0010
0100
0000
0100
1000
0001
,  // measure 6
0100
0000
0001
0010
0000
0010
1000
0100
,  // measure 7
0010
0000
0001
1000
0002
0000
0003
0000
,  // measure 8
0101
0000
0100
0010
0200
0000
0301
0000
,  // measure 9
0010
0000
0100
1000
0200
0000
0310
0000
,  // measure 10
0001
0000
1000
0010
2000
0000
3100
0000
,  // measure 11
0010
0000
0001
0010
0002
0000
0103
0000
,  // measure 12
0010
0000
1000
0010
0002
0000
0013
0000
,  // measure 13
1000
0000
0001
0010
2000
0000
3010
0000
,  // measure 14
0001
0000
1000
0010
0200
0000
0301
1000
,  // measure 15
0000
1000
0100
0010
0002
0000
1003
0001
,  // measure 16
1000
0000
0000
0100
0000
0000
0100
0000
0000
0000
0010
0000
0100
0000
1000
0000
,  // measure 17
0001
0000
0000
0100
0000
0000
0100
0000
0000
0000
0001
0000
1000
0000
0001
0000
,  // measure 18
0010
0000
0000
0100
0000
0000
0100
0000
0000
0000
1000
0000
0100
0000
1000
0000
,  // measure 19
0001
0000
0000
0010
0000
0000
0010
0000
0000
0000
0100
0000
0000
0000
0100
0000
,  // measure 20
2100
0000
3001
1000
0010
1000
0001
0010
,  // measure 21
0200
0000
1300
0100
0001
0100
0010
0001
,  // measure 22
2000
0000
3010
1000
0001
1000
0010
0100
,  // measure 23
0220
0000
0000
0000
0000
0000
0000
0330
,  // measure 24
0100
0010
0100
0000
0001
0100
0001
0010
,  // measure 25
0100
0000
0100
0010
0001
1000
0001
0000
,  // measure 26
0010
0100
1000
0000
0001
1000
0010
1000
,  // measure 27
0001
0000
0100
0010
0001
0010
0100
0010
,  // measure 28
1000
0001
0100
0010
2000
0000
3100
0010
,  // measure 29
0002
0023
2030
3200
,  // measure 30
0301
0000
1000
0010
0100
0010
1000
0000
,  // measure 31
1001
0000
0002
0100
,  // measure 32
1003
0000
0000
0100
1000
0000
0001
0000
0000
0000
0100
0000
0010
0000
1000
0000
,  // measure 33
0001
0000
0000
0010
0100
0000
0010
0000
0000
0000
0001
0000
1000
0000
0010
0000
,  // measure 34
0100
0000
0000
0001
0010
0000
0001
0000
0000
0000
1000
0000
0100
0000
0010
0000
,  // measure 35
0001
0000
0000
0010
0100
0000
0010
0000
0002
0000
0000
0000
0000
0000
0000
0000
,  // measure 36
1003
0000
0001
0000
0100
0000
0010
0000
2000
0000
0000
0000
3010
0000
1000
0010
,  // measure 37
1000
0000
0100
0000
0001
0000
0100
0000
2000
0000
0000
0000
3010
0000
1000
0010
,  // measure 38
1000
0000
0001
0000
0010
0000
0100
0000
2000
0000
0000
0000
3001
0000
0010
0001
,  // measure 39
0010
0000
0100
0000
0010
0000
0001
0000
0200
0000
0000
0000
0310
0000
0100
0010
,  // measure 40
0100
0000
0001
0000
1000
0000
0100
0000
0020
0000
0000
0000
0031
0000
0100
0001
,  // measure 41
0100
0000
0010
0000
1000
0000
0001
0000
0020
0000
0000
0000
0130
0000
1000
0100
,  // measure 42
1000
0001
0100
0010
0200
0000
0301
0100
,  // measure 43
0001
0000
0000
1000
0010
0000
1000
0000
0000
0001
0100
0000
0002
0000
0000
0000
,  // measure 44
0003
0000
0000
0000
;

//---------------dance-single - DJ playing that record on----------------
#NOTEDATA:;
#CHARTNAME:X-Scale 6;
#STEPSTYPE:dance-single;
#DESCRIPTION:DJ playing that record on;
#CHARTSTYLE:;
#DIFFICULTY:Easy;
#METER:4;
#RADARVALUES:0.337234,0.359939,0.105177,0.362276,0.000000,202.000000,193.000000,9.000000,31.000000,0.000000,0.000000,0.000000,0.000000,0.000000,0.337234,0.359939,0.105177,0.362276,0.000000,202.000000,193.000000,9.000000,31.000000,0.000000,0.000000,0.000000,0.000000,0.000000;
#CREDIT:;
#NOTES:
0000
0000
0000
0000
,
0000
0000
0000
0000
,
0000
0000
0000
0000
,
0000
0000
0000
0000
,
0001
0000
1000
0000
0001
0000
1000
0010
,
1000
0000
0001
0010
0001
0000
0100
0000
,
0010
0000
0100
0000
0010
0000
1000
0100
,
1000
0000
0001
0100
0002
0000
0000
0000
,
1003
0000
0010
1000
0002
0000
0013
0000
,
0100
0000
1000
0100
0020
0000
0031
0000
,
0010
0000
0100
0010
0002
0000
1003
0000
,
0010
0000
1000
0001
0200
0000
0310
0000
,
0100
0000
0001
1000
0020
0000
0130
0000
,
0001
0000
0010
0100
2000
0000
3001
0000
,
1000
0000
0100
0010
0002
0000
1003
0000
,
0010
0000
0010
1000
0002
0000
0003
0000
,
0100
0101
0000
1001
,
1000
1100
0000
0110
,
0010
0101
0000
1001
,
0010
0101
0000
0000
,
0210
0000
0310
0100
0000
0100
0001
1000
,
0200
0000
0310
0001
0000
0001
1000
0010
,
0200
0000
0301
0100
0000
0100
0010
1000
,
1002
0000
0000
0000
,
0013
0000
0001
0100
0000
0100
0010
1000
,
0001
0000
0010
0001
0000
0001
1000
0100
,
0010
0000
0100
1000
0000
1000
0001
0010
,
0100
0000
1000
0010
0000
0010
0100
0001
,
1000
0000
0010
1000
0002
0000
0103
0010
,
2000
3200
0320
0032
,
1003
0000
0010
1000
0000
1000
0001
0100
,
0020
0000
1030
0010
2000
0000
3002
0000
,
0013
0000
0001
0000
0010
0000
0100
0010
,
0100
0000
1000
0100
1000
0000
0001
0000
,
0100
0000
0001
0000
1000
0000
0010
1000
,
0010
0000
0100
0001
0200
0000
0000
0000
,
0301
0000
0100
0001
2000
0000
3100
0000
,
0010
0000
0001
0010
0200
0000
1300
0000
,
0100
0000
1000
0001
0200
0000
0310
0000
,
0100
0000
0001
1000
0020
0000
0130
0000
,
0001
0000
0010
0100
2000
0000
3001
0000
,
1000
0000
0100
0010
0002
0000
1003
0000
,
0001
0000
0100
0010
2000
0000
3001
0100
,
0000
0100
0010
1000
0002
0000
2000
0000
,
3003
0000
0000
0000
;

//---------------dance-single - ----------------
#NOTEDATA:;
#CHARTNAME:X-Scale 2;
#STEPSTYPE:dance-single;
#DESCRIPTION:;
#CHARTSTYLE:;
#DIFFICULTY:Beginner;
#METER:1;
#RADARVALUES:0.105177,0.127819,0.000000,0.000000,0.000000,63.000000,63.000000,0.000000,0.000000,0.000000,0.000000,0.000000,0.000000,0.000000,0.105177,0.127819,0.000000,0.000000,0.000000,63.000000,63.000000,0.000000,0.000000,0.000000,0.000000,0.000000,0.000000,0.000000;
#CREDIT:;
#NOTES:
0000
0000
0000
0000
,
0000
0000
0000
0000
,
0000
0000
0000
0000
,
0000
0000
0000
0000
,
1000
0000
0000
0000
,
0001
0000
0000
0000
,
1000
0000
0000
0000
,
0001
0000
0000
0000
,
0000
1000
0000
0100
,
0000
1000
0000
0100
,
0000
0010
0000
0001
,
0000
0010
0000
0001
,
0000
0100
0000
0010
,
0000
0100
0000
0010
,
0000
1000
0000
0001
,
0000
1000
0000
0000
,
0001
0000
0000
0000
,
0010
0000
0000
0000
,
0100
0000
0000
0000
,
1000
0000
0000
0000
,
0000
0001
0000
0100
,
0000
0001
0000
1000
,
0000
0001
0000
0100
,
0000
0000
0000
0000
,
0000
0001
0000
0100
,
0000
0001
0000
0100
,
0000
0010
0000
1000
,
0000
0010
0000
1000
,
0000
0100
0000
0010
,
0000
0100
0000
0010
,
0000
0001
0000
1000
,
0000
0000
0000
0000
,
0001
0000
0000
0000
,
1000
0000
0000
0000
,
0001
0000
0000
0000
,
1000
0000
0000
0000
,
0000
0001
0000
0010
,
0000
0001
0000
1000
,
0000
0001
0000
0100
,
0000
0001
0000
1000
,
0000
0100
0000
0010
,
0000
0100
0000
1000
,
0000
0100
0000
0010
,
0000
0001
0000
0001
;
