#TITLE:BOY NEXT DOOR;
#SUBTITLE:;
#ARTIST:GFOTY;
#TITLETRANSLIT:;
#SUBTITLETRANSLIT:;
#ARTISTTRANSLIT:;
#GENRE:Euro Trance;
#CREDIT:;
#BANNER:BOY NEXT DOOR-bn.png;
#BACKGROUND:BOY NEXT DOOR-bg.png;
#LYRICSPATH:;
#CDTITLE:cdtitle.png;
#MUSIC:BOY NEXT DOOR.ogg;
#OFFSET:-0.003000;
#SAMPLESTART:14.225000;
#SAMPLELENGTH:14.222000;
#SELECTABLE:YES;
#BPMS:0.000000=135.000000
;
#STOPS:
;
#BGCHANGES:;
#KEYSOUNDS:;
#ATTACKS:;

//---------------dance-single - ----------------
#NOTES:
     dance-single:
     X-Scale 11:
     Hard:
     8:
     0.612615,0.641838,0.234590,0.328426,1.018120,457.000000,432.000000,25.000000,35.000000,0.000000,0.000000,0.612615,0.641838,0.234590,0.328426,1.018120,457.000000,432.000000,25.000000,35.000000,0.000000,0.000000:
// measure 0
0000
0000
0000
0000
,  // measure 1
0000
0000
0000
0000
,  // measure 2
0000
0000
0000
0000
,  // measure 3
0000
0000
0000
0000
,  // measure 4
0002
0000
0000
0000
0000
0000
0000
0000
0000
0003
0000
0000
2000
0000
0000
0000
0000
0000
0000
0000
0010
3000
0000
0000
2000
0000
0000
0000
0000
0000
0000
0000
0000
3000
0000
0000
0200
0000
0000
0000
0000
0000
0000
0000
0010
0300
0000
0000
,  // measure 5
0200
0000
0000
0300
0020
0030
0002
0000
1000
0000
0000
0000
0010
0000
0000
0003
,  // measure 6
2000
0000
0000
0000
0000
0000
0000
0000
0000
3000
0000
0000
0002
0000
0000
0000
0000
0000
0000
0000
0010
0003
0000
0000
0002
0000
0000
0000
0000
0000
0000
0000
0000
0003
0000
0000
2000
0000
0000
0000
0000
0000
0000
0000
0100
3000
0000
0000
,  // measure 7
1000
0000
0000
0001
1000
0100
0010
1001
0100
0010
0001
1000
,  // measure 8
1001
0000
1000
0100
0000
0100
0010
0000
0010
0001
0000
0001
,  // measure 9
1000
0000
0000
0000
0010
0000
0100
0000
0000
0001
0000
0000
1000
0000
0000
0000
0010
0000
1000
0000
0001
0000
1000
0000
,  // measure 10
0010
0000
1000
0010
0000
0010
0100
0000
0100
0001
0000
0001
,  // measure 11
1000
0000
0000
0000
0010
0000
0100
0000
0000
0001
0000
0000
1000
0000
0000
0000
0100
0000
1000
0000
0001
0000
1000
0000
,  // measure 12
0010
0000
0100
0001
0000
0001
1000
0000
1000
0010
0000
0010
,  // measure 13
0100
0000
0000
0000
0100
0000
0001
0000
0000
1000
0000
0000
0010
0000
0100
0000
0001
0000
1000
0000
0000
0000
0000
0000
,  // measure 14
0010
0000
1000
0001
0000
0001
0010
0000
0010
0100
0000
0100
,  // measure 15
2000
0000
0000
3000
0002
0003
0020
0000
0000
0000
0000
0000
0000
0000
0000
0030
,  // measure 16
0011
0010
0001
0010
0100
1000
0001
1000
0010
0100
0001
1000
,  // measure 17
0100
0000
0100
2000
0000
3001
0200
0000
0300
0020
0000
0030
,  // measure 18
1000
0010
0100
0001
0010
0001
1000
0001
0010
0100
1000
0001
,  // measure 19
1000
0000
0100
0010
0000
0001
2000
0000
3000
0002
0000
0000
,  // measure 20
1000
0000
1003
0001
1000
0100
0010
0001
1000
0010
0100
0010
,  // measure 21
1000
0000
0001
0010
0000
0010
0002
0000
0003
2000
0000
0000
,  // measure 22
0010
0000
3010
1000
0001
0010
0001
1000
0100
0010
0001
1000
,  // measure 23
0010
0000
0100
0010
0000
1000
0200
0000
0300
0020
0000
0030
,  // measure 24
0110
1001
0101
1100
,  // measure 25
1002
0000
0003
2100
0000
3100
0020
0000
0030
0001
0010
0001
,  // measure 26
0010
0110
1100
0101
,  // measure 27
1002
0000
0003
0020
0000
0130
0020
0000
0000
0031
0010
0001
,  // measure 28
0010
0000
0100
1000
0000
1000
0001
0000
0001
0100
0000
0100
,  // measure 29
0020
0000
1030
2000
0000
3100
0200
0000
0310
0100
1000
0100
,  // measure 30
1000
0000
0001
0010
0000
0010
0001
0000
1000
0100
0000
0100
,  // measure 31
0020
0000
0031
0002
0000
1003
2000
0000
3010
1000
0100
1000
,  // measure 32
0100
0000
0000
0000
0000
1000
0100
1000
0001
0100
0000
0001
0000
0000
0000
0000
,  // measure 33
0101
0000
1000
0100
0000
1000
0001
0000
0010
0100
0000
0010
,  // measure 34
0001
0000
1000
0100
0000
1000
0001
0000
0010
0100
1000
0001
,  // measure 35
1000
0000
1000
0010
0000
0100
0010
0000
1000
0100
0000
0010
,  // measure 36
0001
0000
1000
0001
0000
0010
0100
0000
0010
0001
1000
0001
,  // measure 37
0100
0000
0000
0010
0000
1000
0001
0000
0010
0100
0000
0010
,  // measure 38
0001
0000
1000
0010
0000
0100
0001
0000
0010
0100
1000
0001
,  // measure 39
0100
0000
0000
0010
0000
1000
0100
0000
0010
0001
0000
1000
,  // measure 40
0001
0000
0100
0010
0000
1000
0100
0000
0000
0010
0001
1000
,  // measure 41
1001
1000
0001
1000
0000
0000
0010
0100
0001
1000
0100
0000
,  // measure 42
0010
0001
1000
0001
0000
0100
0010
0001
0010
1000
0001
0000
,  // measure 43
0100
0010
1000
0001
0000
0000
1000
0100
0010
0001
0000
0000
,  // measure 44
1000
0010
0100
0001
0010
0100
1000
0001
0100
0010
0000
0000
,  // measure 45
1000
0100
0010
0001
0000
1000
0010
0100
1000
0100
0001
0000
,  // measure 46
1000
0010
0100
0001
0010
0100
1000
0001
1000
0010
0000
0000
,  // measure 47
0100
0010
1000
0001
0000
0000
1000
0100
0010
0001
1000
0000
,  // measure 48
0010
0100
0001
1000
0100
0010
0001
1000
0001
0100
0010
1000
,  // measure 49
1010
0010
0010
0010
0000
0100
0010
0000
1000
0100
0000
0010
,  // measure 50
0011
0000
0000
1010
0000
0000
1001
0000
0000
0001
0100
0010
,  // measure 51
1000
0000
0001
0010
0000
0100
1000
0000
0001
1000
0000
0100
,  // measure 52
0110
0000
0000
0011
0000
0000
1010
0000
0000
1000
0100
0010
,  // measure 53
0001
0000
1000
0010
0000
0100
0001
0000
0010
0100
0000
0010
,  // measure 54
0011
0000
0001
1001
0000
1000
1100
0000
0100
0010
0100
0010
,  // measure 55
0100
1000
0001
1000
0000
0100
0010
0001
1000
0001
0000
0000
,  // measure 56
0010
0100
1000
0001
0100
0010
1000
0001
0010
0100
1000
0001
,  // measure 57
1000
0000
0000
0000
;
