#TITLE:All to Myself;
#SUBTITLE:;
#ARTIST:Nolan van Lith & Amy Guess;
#TITLETRANSLIT:;
#SUBTITLETRANSLIT:;
#ARTISTTRANSLIT:;
#GENRE:Commercial House;
#CREDIT:;
#BANNER:AtM-bn.png;
#BACKGROUND:AtM-bg.png;
#LYRICSPATH:;
#CDTITLE:cdtitle.png;
#MUSIC:all to myself.ogg;
#OFFSET:-0.007000;
#SAMPLESTART:76.889999;
#SAMPLELENGTH:12.000000;
#SELECTABLE:YES;
#BPMS:0.000000=64.000000
,50.000000=128.000000
,82.000000=64.000000
,90.000000=128.000000
;
#STOPS:
;
#BGCHANGES:;
#KEYSOUNDS:;
#ATTACKS:;

//---------------dance-single - ----------------
#NOTES:
     dance-single:
     X-Scale 11:
     Hard:
     8:
     0.446755,0.503778,0.036154,0.153653,0.239518,346.000000,342.000000,4.000000,17.000000,0.000000,0.000000,0.446755,0.503778,0.036154,0.153653,0.239518,346.000000,342.000000,4.000000,17.000000,0.000000,0.000000:
// measure 0
0000
0000
0000
0000
0000
0000
0000
0000
2000
0000
0000
0000
0000
0000
3001
2000
,  // measure 1
0000
0000
0000
0000
0000
3200
0000
0000
0320
0000
0000
0000
0000
0000
0031
0020
,  // measure 2
0000
0000
0000
0000
0000
0230
0000
0000
1300
0000
0100
0000
0010
0000
0001
0000
,  // measure 3
1000
0010
0100
0001
1000
0100
0010
0001
,  // measure 4
0100
0000
0010
0000
1000
0100
0010
0100
1000
0000
0010
0000
0100
0000
0001
0100
,  // measure 5
0001
0000
0100
0010
0001
0010
0100
0001
1000
0000
0100
0000
1000
0000
0010
1000
,  // measure 6
0010
0000
0100
0001
0010
0100
0010
0001
1000
0000
0010
0000
1000
0100
0010
0100
,  // measure 7
1000
0000
0001
0100
0010
0001
0010
0100
0001
0000
1000
0000
0100
0000
1000
0010
,  // measure 8
0000
0000
0000
1000
0010
0100
0001
0010
0001
0000
1000
0000
0100
0000
0010
0100
,  // measure 9
0010
0000
0001
0100
1000
0100
0001
0010
0100
0000
0010
0000
0001
0000
1000
0001
,  // measure 10
1000
0000
0100
0010
0001
1000
0010
1000
0001
0000
0100
0000
0001
0000
0010
0100
,  // measure 11
0010
0000
0001
1000
0010
0100
0001
0000
0100
0000
0001
0000
0010
0000
0100
0010
,  // measure 12
0000
0000
0001
1000
0100
0010
0001
0000
1001
0000
1000
0000
0010
0000
1000
0000
,  // measure 13
0100
0000
0010
0002
0100
0000
0013
0001
,  // measure 14
0100
0001
0010
0000
0100
1000
0010
1000
,  // measure 15
0100
0000
0001
0100
1000
0010
1000
0002
,  // measure 16
0100
0000
0013
0000
0001
0010
0100
1000
,  // measure 17
0010
0000
1000
0100
0001
0000
1000
0010
,  // measure 18
0001
0010
0100
0000
0001
0100
1000
0010
,  // measure 19
1000
0000
0001
0100
0010
0000
1000
0100
,  // measure 20
0010
0000
0001
0000
0100
0000
0010
0000
2000
0000
0010
0000
0010
0000
3100
2000
,  // measure 21
0001
0000
3001
0000
1000
0100
0010
0002
0100
0000
0103
0000
0001
0000
0001
1000
,  // measure 22
0001
0000
1000
0010
1000
0200
0000
0000
0301
0000
0100
0000
1000
0000
0100
0000
,  // measure 23
0010
0001
1000
0010
0100
0001
0010
0001
,  // measure 24
0100
0000
0010
0000
1000
0000
0010
0000
0100
0001
0100
0001
0100
0010
0100
0010
,  // measure 25
0100
0001
1000
0001
1000
0100
1000
0100
1000
0000
0100
0000
0010
0000
0001
0000
,  // measure 26
0100
0001
1001
0000
1100
0100
1000
0001
,  // measure 27
0100
0000
0001
0010
1000
0000
0001
0100
,  // measure 28
1000
0020
0100
0000
0130
0010
1000
0001
,  // measure 29
0010
0000
0001
0010
1000
0000
0001
0100
,  // measure 30
1000
0020
0100
0000
0130
0010
1000
0100
,  // measure 31
0010
0000
0001
0100
1000
0000
0001
0010
,  // measure 32
1000
0200
0010
0000
0310
0100
1000
0001
,  // measure 33
1000
0000
0001
0100
1000
0000
0001
0010
,  // measure 34
1000
0010
1000
0010
1000
0000
0000
0000
0101
0000
0100
0000
0001
0000
1000
0000
,  // measure 35
0010
0000
1000
0010
0001
0000
1000
0100
,  // measure 36
0001
0020
0100
0000
0130
0010
0001
1000
,  // measure 37
0010
0000
1000
0010
0100
0001
1000
0100
,  // measure 38
0010
0001
0100
0001
0010
0100
1000
0001
,  // measure 39
1000
0000
0001
0100
1000
0000
0001
0010
,  // measure 40
1000
0100
1000
0010
0100
0001
0010
0100
,  // measure 41
1000
0000
0001
1000
0100
0010
0100
1000
,  // measure 42
0001
0100
0001
0020
0000
0000
0000
0030
;
