#VERSION:0.83;
#TITLE:1997 DIANA;
#SUBTITLE:;
#ARTIST:BROCKHAMPTON;
#TITLETRANSLIT:;
#SUBTITLETRANSLIT:;
#ARTISTTRANSLIT:;
#GENRE:Hip-Hop;
#ORIGIN:;
#CREDIT:;
#BANNER:1997 DIANA-bn.png;
#BACKGROUND:1997 DIANA-bg.png;
#PREVIEWVID:;
#JACKET:1997 DIANA-jacket.png;
#CDIMAGE:;
#DISCIMAGE:;
#LYRICSPATH:;
#CDTITLE:cdtitle.png;
#MUSIC:1997 DIANA.ogg;
#OFFSET:-0.187000;
#SAMPLESTART:29.091999;
#SAMPLELENGTH:28.000000;
#SELECTABLE:YES;
#BPMS:0.000=137.000;
#STOPS:158.000=1.314;
#DELAYS:;
#WARPS:;
#TIMESIGNATURES:0.000=4=4;
#TICKCOUNTS:0.000=4;
#COMBOS:0.000=1;
#SPEEDS:0.000=1.000=0.000=0;
#SCROLLS:0.000=1.000;
#FAKES:;
#LABELS:0.000=Song Start;
#BGCHANGES:-0.187=1997 DIANA.avi=1.000=1=0=0=StretchNoLoop==CrossFade==,
99999=-nosongbg-=1.000=0=0=0 // don't automatically add -songbackground-
;
#KEYSOUNDS:;
#ATTACKS:
;

//---------------dance-single - ----------------
#NOTEDATA:;
#CHARTNAME:X-Scale 15;
#STEPSTYPE:dance-single;
#DESCRIPTION:;
#CHARTSTYLE:;
#DIFFICULTY:Hard;
#METER:10;
#RADARVALUES:0.715750,0.761332,0.087066,0.213707,0.617377,633.000000,622.000000,11.000000,27.000000,14.000000,0.000000,0.000000,0.000000,0.000000,0.715750,0.761332,0.087066,0.213707,0.617377,633.000000,622.000000,11.000000,27.000000,14.000000,0.000000,0.000000,0.000000,0.000000;
#CREDIT:;
#NOTES:
// measure 0
0000
0000
0000
0000
0000
0000
0000
0000
1000
0000
0100
0000
0010
0000
0001
0100
,  // measure 1
0001
0000
1000
0000
0010
0000
0100
0000
0100
0000
0001
0100
0010
0000
0010
1000
,  // measure 2
0100
0000
1000
0000
0100
0000
1000
0000
0100
0000
0010
0000
0001
0000
1000
0001
,  // measure 3
1000
0000
0010
0000
0100
0000
0001
0000
0001
0000
1000
0010
0100
0000
0100
0001
,  // measure 4
0010
0100
0010
0100
0010
0002
1003
0002
,  // measure 5
0013
0100
1000
0010
1000
0200
0310
0200
,  // measure 6
1300
0010
1000
0010
1000
0200
0301
0200
,  // measure 7
1300
0010
0100
0001
0010
2000
3001
0200
,  // measure 8
1300
0000
0001
0000
1000
0000
1000
0000
1010
0000
0010
0100
0010
0000
1000
0000
,  // measure 9
0001
0000
0100
0010
1000
0000
0001
0010
0100
0010
0001
1000
0010
0100
0001
1000
,  // measure 10
0000
1000
0100
0010
0001
0000
0100
0000
0001
0100
0010
0100
0001
0000
0010
0100
,  // measure 11
1000
0000
0010
0000
1000
0000
0100
0000
0010
0000
0001
0000
1000
0100
0010
0100
,  // measure 12
1000
0000
0001
0100
00M0
0100
1000
0000
0010
0100
0001
0100
0010
0000
1000
0100
,  // measure 13
0010
0000
0001
0100
000M
0000
0100
0000
1000
0000
0010
0000
0100
0000
0001
0010
,  // measure 14
0100
0000
0010
0000
0001
0010
0001
0000
1000
0100
0010
0000
0001
0100
0010
0000
,  // measure 15
1000
0000
0001
0100
0001
0000
0010
0000
0100
0010
0100
0000
1000
0000
0001
0100
,  // measure 16
0001
0000
0001
0000
0010
0100
1000
0000
1001
0000
0001
0000
0010
0000
0100
0000
,  // measure 17
0010
0001
1000
0000
0001
0100
1000
0001
,  // measure 18
0010
1000
0100
0000
1000
0010
0001
0010
,  // measure 19
1000
0000
0100
0000
0010
0000
0000
0000
0001
0000
0010
0000
0002
0000
0100
0003
,  // measure 20
0100
0000
0001
0010
0100
1000
0010
0100
0001
0000
0001
0000
0010
0000
0010
0000
,  // measure 21
0200
0000
0000
0000
1300
0100
0000
0000
1000
0000
0010
0000
0001
0000
0010
0000
,  // measure 22
2000
0000
0000
0000
3001
1000
0000
0000
0010
0000
0100
0000
0010
0000
0001
0000
,  // measure 23
0020
0000
0000
0000
1030
0010
0000
0000
1000
0000
0100
0000
0010
0000
0001
0000
,  // measure 24
2000
0000
3100
0100
0110
0000
0010
0001
,  // measure 25
1000
0100
0020
0000
1030
0010
0001
0100
,  // measure 26
0001
0010
0100
0010
0001
1000
0010
1000
,  // measure 27
0100
0010
0002
0000
1003
0100
0001
0100
,  // measure 28
0010
0000
0001
0000
1000
0010
1000
0010
1000
0000
0000
0000
0100
0000
0001
0000
,  // measure 29
0100
1000
0100
0000
0011
0100
0001
0010
,  // measure 30
0100
1000
0001
0000
1100
0010
0100
0001
,  // measure 31
0010
0100
1000
0010
1000
0001
0100
0010
,  // measure 32
1000
0000
0000
0000
0000
0000
0100
0000
0000
0000
0000
0000
0010
0000
0000
0001
0000
0000
0010
0000
0000
0001
0000
0000
0010
0000
0000
0000
0001
0000
0000
0000
1000
0000
0000
0000
0010
0000
0000
0000
0100
0000
0000
0000
0001
0000
0000
0000
,  // measure 33
1000
0000
0000
MMMM
0000
0000
0011
0001
0100
0010
1000
0100
,  // measure 34
0010
0001
1000
0001
0010
0100
0010
0001
1000
0010
1000
0100
,  // measure 35
0010
0000
0000
0000
0100
0000
0000
0000
1000
0000
0000
0000
0001
0000
0000
0000
0000
0000
0010
0000
0000
0000
0000
0000
0001
0000
0000
0010
0000
0000
0100
0000
0000
0000
0000
0000
0010
0000
0000
0000
0000
0000
0001
0000
0000
0000
0000
0000
,  // measure 36
1000
0000
0000
0100
0000
0000
0010
0000
0000
0000
0000
0000
0100
0000
0000
0010
0000
0000
0000
0000
0000
0000
0000
0000
1001
0000
0000
0000
0001
0000
0000
0000
1000
0000
0000
0000
0001
0000
0000
0000
0010
0000
0000
0000
0100
0000
0000
0000
,  // measure 37
1000
0010
0000
MMMM
0000
0000
1010
1000
0100
1000
0001
0010
,  // measure 38
0001
0000
0100
0000
0000
0000
1000
0000
0000
0100
0000
0000
0001
0000
0100
0000
0010
0000
1000
0000
0000
0000
0100
0000
,  // measure 39
1000
0100
0000
0000
0010
0000
0100
0000
1000
0000
0001
0100
0001
0000
0100
0010
,  // measure 40
0000
1000
0001
0000
0100
0001
0000
0000
1000
0100
0010
0100
1000
0000
0001
0010
,  // measure 41
0000
0001
0100
0000
0010
1000
0000
0000
0011
0000
0200
0000
0301
0000
1000
0100
,  // measure 42
0000
1000
0010
0000
0100
0001
0000
0000
0001
0010
0100
0010
0001
0000
0000
1000
,  // measure 43
0000
0010
1000
0000
0001
0000
0000
1000
0000
0010
1000
0000
0101
0000
0010
0000
,  // measure 44
1000
0000
0100
0000
0010
0000
0100
0000
1000
0100
0010
0100
2000
0000
3100
0000
,  // measure 45
1000
0001
0100
0010
0001
0010
0200
0301
,  // measure 46
1000
0100
1000
0010
0100
0001
0010
0100
,  // measure 47
1000
0000
0100
0000
0010
0000
0001
0000
1000
0100
0010
0100
1000
0000
0000
0000
,  // measure 48
0001
0100
0010
1000
0100
0010
0002
0000
0000
0103
0000
0000
,  // measure 49
0001
0010
0100
1000
0010
0100
0002
0000
0000
0013
0000
0000
,  // measure 50
0001
1000
0100
0010
0100
1000
0002
0000
0000
1003
0000
0000
,  // measure 51
0001
0000
0000
0000
0010
0000
0000
0000
0100
0000
0000
0000
1000
0000
0000
0000
0001
0000
0000
0000
0100
0000
0000
0000
0001
0000
0000
0010
0000
0000
0001
0000
0000
0010
0000
0000
0001
0000
0000
0000
0000
0000
0010
0000
0000
0000
0000
0000
,  // measure 52
0100
0001
0100
1000
0100
0010
0002
0000
0000
1003
0000
0000
,  // measure 53
0100
0010
0001
1000
0010
0100
0002
0000
0000
0013
0000
0000
,  // measure 54
1000
0001
0010
0100
0010
0001
1000
0010
0100
0001
1000
0010
,  // measure 55
1000
0000
0100
0000
0010
0000
0001
0000
0100
0000
0010
0000
2000
0000
0000
0000
0000
0000
3001
0000
0000
0001
0000
0000
,  // measure 56
1000
0000
0100
0010
0001
0000
0100
0000
0001
0000
0010
0000
0001
0000
1000
0010
,  // measure 57
0100
0000
0001
0010
0100
0000
1000
0000
0100
0000
1000
0000
0100
0000
0010
0000
,  // measure 58
0001
0000
1000
0010
0100
0000
0100
0000
0001
0000
0010
0000
0100
0000
1000
0001
,  // measure 59
1000
0000
0001
0010
0100
0000
0010
0000
0100
0000
0010
0000
0100
0000
1000
0000
,  // measure 60
0001
0000
0100
0010
0100
0000
0001
0000
0010
0000
0100
0000
1000
0000
0001
0100
,  // measure 61
0010
0000
1000
0010
0100
0000
0001
0000
0100
0000
0001
0000
0100
0000
0010
0000
,  // measure 62
1000
0000
0001
0010
0100
0000
0010
0000
0001
0000
1000
0000
0100
0000
0010
0100
,  // measure 63
1000
0000
0001
0100
0010
0000
1000
0000
0010
0000
0010
0000
2000
0000
0001
0000
,  // measure 64
3001
1000
0100
0001
1000
0010
0001
1000
,  // measure 65
0001
0100
0001
0010
0100
1000
0011
0010
,  // measure 66
0100
0020
0001
0000
1000
0030
0001
0010
,  // measure 67
0001
0000
1000
0010
1000
0000
0010
0100
0001
0000
0001
0000
0100
0000
0010
0000
,  // measure 68
1000
0000
0001
0010
0100
0000
0010
0000
0001
0000
1000
0000
0010
0000
1000
0000
,  // measure 69
0100
0010
0001
0010
0200
0000
0000
0000
0000
0000
0000
0000
0000
0000
0000
0000
,  // measure 70
0000
0000
0300
0000
,  // measure 71
0000
MMMM
0000
0000
;
