#VERSION:0.83;
#TITLE:wishlist (umru + gupi rmxc);
#SUBTITLE:;
#ARTIST:slimeater + gothjosh;
#TITLETRANSLIT:;
#SUBTITLETRANSLIT:;
#ARTISTTRANSLIT:;
#GENRE:Hyperpop;
#ORIGIN:;
#CREDIT:;
#BANNER:wishlist (umru + gupi rmxc)-bn.png;
#BACKGROUND:wishlist (umru + gupi rmxc)-bg.png;
#PREVIEWVID:;
#JACKET:wishlist (umru + gupi rmxc)-jacket.png;
#CDIMAGE:;
#DISCIMAGE:;
#LYRICSPATH:;
#CDTITLE:cdtitle.png;
#MUSIC:wishlist (umru + gupi rmxc).ogg;
#OFFSET:-0.003000;
#SAMPLESTART:61.317001;
#SAMPLELENGTH:14.015000;
#SELECTABLE:YES;
#BPMS:0.000=137.000;
#STOPS:;
#DELAYS:;
#WARPS:;
#TIMESIGNATURES:0.000=4=4;
#TICKCOUNTS:0.000=4;
#COMBOS:0.000=1;
#SPEEDS:0.000=1.000=0.000=0;
#SCROLLS:0.000=1.000;
#FAKES:;
#LABELS:0.000=Song Start;
#BGCHANGES:;
#KEYSOUNDS:;
#ATTACKS:
;

//---------------dance-single - ----------------
#NOTEDATA:;
#CHARTNAME:X-Scale 14;
#STEPSTYPE:dance-single;
#DESCRIPTION:;
#CHARTSTYLE:;
#DIFFICULTY:Hard;
#METER:9;
#RADARVALUES:0.604220,0.625478,0.251643,0.338750,0.430697,437.000000,411.000000,26.000000,35.000000,0.000000,0.000000,0.000000,0.000000,0.000000,0.604220,0.625478,0.251643,0.338750,0.430697,437.000000,411.000000,26.000000,35.000000,0.000000,0.000000,0.000000,0.000000,0.000000;
#CREDIT:iamthek3n;
#NOTES:
// measure 0
0000
0000
0000
0000
,  // measure 1
0000
0000
0000
0000
,  // measure 2
0000
0000
0000
0000
,  // measure 3
1000
0000
1100
0002
0000
0003
0101
0000
,  // measure 4
0001
0000
0000
0000
1001
0000
2000
0000
0000
0000
3000
0000
0010
2000
0000
3000
,  // measure 5
1000
0000
1001
0002
0000
0003
0011
0000
,  // measure 6
0010
0000
0000
0000
0101
0000
0002
0000
0000
0000
2003
0000
3000
0020
0000
0030
,  // measure 7
2000
3000
1001
0001
0100
0010
1000
0100
,  // measure 8
0020
0000
1030
0010
0001
0100
0002
0000
,  // measure 9
2003
0000
3010
1000
0001
1000
0020
0000
,  // measure 10
0130
0000
0010
0100
0010
0000
1000
0000
0001
0000
0001
0100
0002
0000
0000
0000
,  // measure 11
0013
0000
0100
0000
1000
0000
0020
0000
0000
0000
0130
0010
0100
0000
0001
0010
,  // measure 12
0001
0000
1000
0000
0010
0000
2000
0000
0000
0000
3100
0010
0100
0000
1000
0100
,  // measure 13
1000
0000
0001
0000
0100
0000
0002
0000
0000
0000
0013
0001
0010
0000
0100
1000
,  // measure 14
0100
0000
1000
0000
0001
0000
0200
0000
0000
0000
0310
0100
0010
0000
1000
0000
,  // measure 15
1010
0000
1001
0002
0000
0103
0101
0000
,  // measure 16
1001
0000
0000
0000
1100
0000
0200
0000
0000
0000
0300
0000
1000
0100
0000
0000
,  // measure 17
1010
0000
0000
0000
1000
0001
0000
0000
0020
0000
0000
0000
0031
0100
0000
0000
,  // measure 18
0110
0000
0000
0101
0000
0000
0001
1000
0001
0000
0100
0000
0200
0000
0000
0000
,  // measure 19
0310
1000
0000
1000
0000
1000
0001
0000
0000
0000
0100
0000
0001
0000
0010
0100
,  // measure 20
0010
0100
0000
1000
0000
0001
0100
0000
0200
0000
0000
0000
0310
0000
1000
0000
,  // measure 21
0100
0000
0000
1000
0000
0000
0001
0000
0001
0000
0000
0000
0010
0000
0100
0000
,  // measure 22
1000
0000
0000
0010
0000
0000
1000
0000
1000
0000
0100
0000
0001
0000
0100
0000
,  // measure 23
1000
0100
0000
1000
0000
0001
0100
0000
0001
0000
0000
0000
1000
0000
0010
0100
,  // measure 24
0010
0100
0000
0001
0000
1000
0001
0000
0100
0000
0010
0000
1000
0000
0001
0000
,  // measure 25
0100
0000
0000
0010
0000
0000
1000
0000
1000
0000
0000
0000
0100
0000
0010
0000
,  // measure 26
0001
0000
2000
3000
0001
1000
0001
0000
,  // measure 27
1001
0000
0000
1000
0100
1000
0100
0000
1100
0000
0000
0000
1001
0000
0001
0100
,  // measure 28
0001
0000
0000
0010
0100
0010
0100
0000
1000
0000
0100
0000
0001
0000
0100
0000
,  // measure 29
1000
0000
0000
0010
1000
0000
0001
0000
1001
0000
0000
0000
0110
0000
0100
0000
,  // measure 30
0001
0000
0000
0010
0100
0000
1000
0000
0010
0000
1000
0000
0002
0000
0000
0000
,  // measure 31
0103
0000
0000
0001
1000
0001
1000
0000
1001
0000
0000
0000
1100
0000
0100
1000
,  // measure 32
0100
0000
0000
0010
0001
0010
0001
0000
1000
0000
0100
0000
1000
0000
0001
0000
,  // measure 33
0100
0000
0000
0010
0100
0000
0001
0000
1000
0000
0000
0000
0100
0000
0010
0000
,  // measure 34
0001
0010
1000
0010
0100
1000
0001
1000
,  // measure 35
1010
0000
1000
0001
0010
1000
0010
0001
,  // measure 36
0010
0000
0000
0100
1000
0000
0010
0000
1000
0000
0001
0000
0100
0000
0001
0000
,  // measure 37
1000
0000
0000
0100
1000
0000
0010
0000
0001
0000
0010
0000
0100
0000
0010
0000
,  // measure 38
1000
0000
0000
0001
0100
0000
0001
0000
0100
0000
0100
0000
1000
0000
0100
0000
,  // measure 39
1000
0100
1000
0000
1100
0000
0100
0000
0010
0000
0001
0000
1000
0000
0001
0000
,  // measure 40
0100
0000
0000
0010
0100
0000
0001
0000
0010
0000
1000
0000
0001
0000
0100
0000
,  // measure 41
1000
0000
1001
0001
0100
0001
1000
0001
,  // measure 42
0100
0000
0010
0000
0110
0000
0000
0100
0000
0100
0001
0000
0010
0000
0100
0000
,  // measure 43
1000
0100
1000
0100
0000
0000
0010
0001
0010
0000
0000
0000
0001
0000
1000
0000
,  // measure 44
0001
0000
0000
0010
0000
0000
1000
0000
0000
0100
0000
0000
0001
0000
1000
0000
,  // measure 45
0001
1000
0001
0000
0000
0000
0100
0010
0100
0000
0000
0000
0001
0000
1000
0000
,  // measure 46
0010
0000
1000
0010
1000
0010
0000
0100
0001
0100
0000
0001
1000
0000
0100
0000
,  // measure 47
1000
0100
1000
0000
0000
0000
0001
0100
0001
0000
0000
0000
1000
0000
0010
0000
,  // measure 48
0001
0000
0000
0010
0000
0000
2000
0000
0000
0000
0000
0000
3010
0000
1000
0000
,  // measure 49
0001
0010
0001
0000
0000
0000
1000
0010
1000
0000
0000
0000
0100
0000
0010
0000
,  // measure 50
0001
0000
1000
0001
1000
0001
0000
0100
0010
1000
0000
0010
1000
0000
0001
0000
,  // measure 51
1000
0100
1000
0000
0000
0000
0001
0100
0001
0000
0000
0000
0010
0000
0000
0000
,  // measure 52
0100
0000
0000
0010
0000
0000
0002
0000
0000
0000
1003
0000
0010
0000
0100
0000
,  // measure 53
0001
0100
0001
0100
0000
0000
0001
0010
0001
0000
1000
0000
0100
0000
1000
0000
,  // measure 54
0001
0000
0100
0010
0100
0010
0000
1000
0100
1000
0000
0001
0100
0000
0001
0000
,  // measure 55
0100
0010
0100
0000
0000
0000
0001
0100
0001
0000
0000
0000
0010
0000
0000
0000
,  // measure 56
0100
0000
0000
0010
0000
0000
0002
0000
0000
0000
0003
0000
1000
0000
0001
0000
,  // measure 57
2000
0200
3300
0000
0002
0200
0303
0000
,  // measure 58
2000
0020
3030
0000
0002
0020
0033
0000
;

//---------------dance-single - ----------------
#NOTEDATA:;
#CHARTNAME:X-Scale 10;
#STEPSTYPE:dance-single;
#DESCRIPTION:;
#CHARTSTYLE:;
#DIFFICULTY:Medium;
#METER:7;
#RADARVALUES:0.467337,0.568616,0.261322,0.338750,0.179054,338.000000,311.000000,27.000000,35.000000,0.000000,0.000000,0.000000,0.000000,0.000000,0.467337,0.568616,0.261322,0.338750,0.179054,338.000000,311.000000,27.000000,35.000000,0.000000,0.000000,0.000000,0.000000,0.000000;
#CREDIT:iamthek3n;
#NOTES:
0000
0000
0000
0000
,
0000
0000
0000
0000
,
0000
0000
0000
0000
,
0001
0000
0000
1000
0100
1000
0100
1000
,
0100
0000
0000
0010
0001
1000
0001
0010
,
0001
0000
0000
1000
0100
1000
0100
1000
,
0100
0000
0000
1000
0001
1000
0001
1000
,
0001
0000
0000
0010
0001
1000
0010
0100
,
0001
0000
0000
1000
0010
1000
0002
0000
,
0103
0000
0010
1000
0001
0100
0020
0000
,
1030
0000
0000
1000
0000
0000
1000
0000
0000
0000
0001
0000
1001
0000
0000
0000
,
0110
0000
0100
0002
0000
1003
0001
0100
,
0001
0000
0010
0200
0000
1300
0100
1000
,
0001
0000
0100
0020
0000
1030
0001
0010
,
0100
0000
1000
0020
0000
1030
0001
0100
,
0001
0000
0010
0100
0020
0000
0032
0000
,
1003
1000
1000
0020
0000
0130
0002
0000
,
1003
0001
0100
0001
2000
0000
3020
0000
,
0031
0000
0000
0010
0000
0000
1000
0000
0000
0000
1000
0000
0200
0000
0000
0000
,
0310
0000
0000
0010
0000
0010
0001
0000
0000
0000
1000
0000
0010
0000
1000
0000
,
0001
0000
0000
0010
0000
0000
0200
0000
0000
0000
0000
0000
0301
0000
0100
0000
,
1000
0010
1000
0000
0001
0000
0100
0010
,
1000
0000
0100
0000
1000
0100
0001
0100
,
1000
0000
0010
0000
1000
0000
0001
0010
,
0100
0000
0000
0010
0000
0000
0002
0000
0000
0000
0000
0000
0103
0000
0001
0000
,
1000
0000
0010
0000
1000
0000
0001
0010
,
0100
0000
1000
0000
1000
0100
1000
0000
,
1001
0000
0000
0001
0000
0001
1000
0000
1001
0000
0000
0000
0110
0000
0000
0000
,
1001
0000
0000
1000
0000
1000
0010
0000
1010
0000
0000
0000
0011
0000
0000
0000
,
1010
0000
0000
1000
0100
0000
1000
0000
1100
0000
0000
0000
0110
0000
0000
0000
,
0101
0000
0000
0001
0100
0000
0001
0000
1001
0000
0000
0000
0110
0000
0000
0000
,
1100
0000
0000
1000
0000
1000
0010
0000
1010
0000
0000
0000
0101
0000
0000
0000
,
0011
0000
0000
0001
0000
0001
0100
0000
0101
0000
0000
0000
0110
0000
0000
0000
,
1001
0000
0000
1000
0100
0000
1000
0000
1100
0000
0000
0000
1001
0000
0000
0000
,
0101
0100
0001
1000
0002
0000
2003
0000
,
3001
0000
1001
1000
0010
0001
1000
0100
,
0001
0000
0000
0010
0000
0000
0010
0000
0100
0000
1000
0000
0001
0000
0100
0000
,
0010
0000
0000
1000
0000
0000
1000
0000
0001
0000
0100
0000
0001
0000
1000
0000
,
0001
0000
0000
0010
0000
0000
0010
0000
0100
0000
0010
0000
0001
0000
1000
0000
,
0010
1000
0010
0000
1010
0000
1000
0000
0002
0000
0000
0000
0023
0000
0000
0000
,
0230
0000
0000
2300
0000
0000
3001
0000
,
1001
0000
1000
0010
0100
0001
0010
0100
,
1000
0000
0000
0001
0000
0000
0100
0000
0001
0100
0001
0000
1000
0000
1000
0000
,
0100
0000
0000
1000
0000
0000
0001
0000
,
0100
0000
0000
0001
0000
0000
1000
0000
0000
0001
0000
0000
0100
0000
0010
0000
,
0100
0000
0000
0001
0000
0000
0010
0100
,
0010
0000
0000
0000
0001
0000
0000
1000
0010
1000
0000
0100
0010
0000
0100
0000
,
1000
0000
0000
1000
0000
0000
0010
1000
,
0001
0000
0000
0010
0000
0000
0200
0000
0000
0000
0000
0000
0301
0000
0100
0000
,
1000
0000
0000
0001
0000
0000
1000
0100
,
0010
0000
0000
0000
0001
0000
0000
0001
0010
0001
0000
1000
0010
0000
1000
0000
,
0200
2300
3002
2003
,
3020
0000
0000
2030
0000
0000
3001
1000
,
0002
0000
0000
0000
0000
0000
0023
0000
0000
0000
0000
0000
0130
0010
0100
0010
,
0100
0000
0000
1000
0000
0000
0001
0000
0000
0100
0000
0000
0001
0000
0000
0000
,
1000
0010
1000
0001
,
0100
0000
0000
0010
0000
0000
2000
0000
0000
0000
0000
0000
3001
0000
1000
0000
,
0002
0003
2000
3000
,
0002
0003
2000
3000
;

//---------------dance-single - ----------------
#NOTEDATA:;
#CHARTNAME:X-Scale 6;
#STEPSTYPE:dance-single;
#DESCRIPTION:;
#CHARTSTYLE:;
#DIFFICULTY:Easy;
#METER:4;
#RADARVALUES:0.295888,0.396338,0.029036,0.387143,0.000000,214.000000,211.000000,3.000000,40.000000,0.000000,0.000000,0.000000,0.000000,0.000000,0.295888,0.396338,0.029036,0.387143,0.000000,214.000000,211.000000,3.000000,40.000000,0.000000,0.000000,0.000000,0.000000,0.000000;
#CREDIT:iamthek3n;
#NOTES:
0000
0000
0000
0000
,
0000
0000
0000
0000
,
0000
0000
0000
0000
,
2000
0000
0001
0001
,
0001
0000
0000
0010
0000
0000
0001
0000
,
3001
0000
1000
1000
,
1000
0000
0000
0010
0000
0000
1000
0000
,
0001
0000
0000
0100
0000
0000
0001
0000
,
0001
0000
0000
0010
0000
0000
0100
0000
,
0100
0000
0000
1000
0000
0000
0001
0000
,
0001
0000
0000
0100
0000
0000
0001
0000
,
0001
0000
0010
0200
0000
0300
1000
0000
,
0001
0000
1000
0020
0000
0030
1000
0000
,
0001
0000
0100
0002
0000
0003
0010
0000
,
0100
0000
1000
0200
0000
0300
1000
0000
,
0001
0000
0100
0001
2000
0000
3020
0000
,
0230
0000
0000
0302
0000
0013
0200
0000
,
0310
0000
0100
1000
0002
0000
2003
0000
,
3020
0000
0000
2030
0000
3100
0020
0000
,
0031
0000
0000
0000
,
1000
0000
0000
0002
0000
0000
0013
0100
,
1000
0000
0010
0000
1000
0000
0100
0010
,
0001
0000
0100
0000
0001
0000
0010
0100
,
1000
0001
1000
0001
,
0100
0000
0000
0020
0000
0000
0130
0010
,
1000
0000
0001
0000
1000
0000
0010
1000
,
0001
0000
2002
3003
1000
0001
1000
0000
,
0010
1000
0001
0100
,
0001
0000
0010
0000
0001
0000
1000
0100
,
0010
0000
0001
0000
1000
0000
0001
0010
,
0100
1000
0001
1000
,
0010
0100
0001
1000
,
0001
0000
0100
0000
0010
0000
0100
0001
,
0010
0000
0100
0000
1000
0000
0010
1000
,
0100
1000
0001
0100
,
1001
0000
0000
0001
1000
0001
1000
0001
,
1000
0000
0000
0100
0010
0100
0010
0100
,
0010
0000
0000
0001
0100
0001
0100
0001
,
0100
0000
0000
0000
0010
0010
1000
0010
,
1000
2001
3002
0203
,
0320
0000
0000
0230
0000
0000
0001
0000
,
0302
0000
0000
2003
0000
0000
3100
1000
,
0020
0000
0000
2030
0000
0000
3100
0000
,
1000
0000
0000
1000
0000
0000
1000
0000
,
0001
0000
0000
0001
0000
0000
0001
0000
,
0100
0000
0000
0100
0000
0000
0100
0000
,
0010
0000
0000
0010
0000
0000
0010
0000
,
1000
0000
0000
1000
0000
0000
1000
0000
,
0100
0000
0000
0100
0000
0000
0100
0000
,
0010
0000
0000
0010
0000
0000
0010
0000
,
0001
0000
0000
0001
0000
0000
0001
0000
,
2000
3020
0230
0320
,
2030
0000
0000
3002
0000
0000
0103
0000
,
0002
0000
0000
0023
0000
0000
0230
0000
,
1300
0000
0000
0001
0000
0000
1000
0000
,
2000
3200
0320
0000
,
0031
0000
0000
0100
0000
0000
0001
0000
,
0001
0000
1000
0000
,
0001
0000
1000
0000
;

//---------------dance-single - ----------------
#NOTEDATA:;
#CHARTNAME:X-Scale 1;
#STEPSTYPE:dance-single;
#DESCRIPTION:;
#CHARTSTYLE:;
#DIFFICULTY:Beginner;
#METER:1;
#RADARVALUES:0.105082,0.137920,0.000000,0.000000,0.000000,76.000000,76.000000,0.000000,0.000000,0.000000,0.000000,0.000000,0.000000,0.000000,0.105082,0.137920,0.000000,0.000000,0.000000,76.000000,76.000000,0.000000,0.000000,0.000000,0.000000,0.000000,0.000000,0.000000;
#CREDIT:iamthek3n;
#NOTES:
0000
0000
0000
0000
,
0000
0000
0000
0000
,
0000
0000
0000
0000
,
0001
0000
0000
0000
,
0010
0000
0000
0000
,
0100
0000
0000
0000
,
1000
0000
0000
0000
,
0010
0000
0000
0000
,
0100
0000
0000
0000
,
0001
0000
0000
0000
,
1000
0000
0000
0000
,
0000
0001
0000
0100
,
0000
0001
0000
1000
,
0000
0001
0000
0100
,
0000
0001
0000
0010
,
0000
0100
0000
0010
,
0000
0001
0000
0010
,
0000
0100
0000
0010
,
0000
0000
0000
0000
,
0000
0000
0000
0000
,
1000
0000
0000
0000
,
0100
0000
0000
0000
,
1000
0000
0000
0000
,
0001
0000
0000
0000
,
1000
0000
0000
0000
,
0100
0000
0000
0000
,
1000
0000
0000
0000
,
0001
0000
0100
0000
,
0001
0000
1000
0000
,
0001
0000
0100
0000
,
0001
0000
0010
0000
,
0100
0000
0010
0000
,
0001
0000
0010
0000
,
0100
0000
1000
0000
,
0001
0000
1000
0000
,
0000
0001
0000
0010
,
0000
0001
0000
0010
,
0000
0100
0000
1000
,
0000
0100
0000
1000
,
0000
0010
0000
0100
,
0000
0010
0000
0100
,
0000
0001
0000
1000
,
0000
0001
0000
1000
,
1000
0000
0000
0000
,
0100
0000
0000
0000
,
0010
0000
0000
0000
,
0001
0000
0000
0000
,
0100
0000
0000
0000
,
0010
0000
0000
0000
,
1000
0000
0000
0000
,
0001
0000
0000
0000
,
0010
0000
0000
0000
,
0001
0000
0000
0000
,
1000
0000
0000
0000
,
0010
0000
0000
0000
,
1000
0000
0000
0000
,
0001
0000
0000
0000
,
1000
0000
0000
0000
;
