#VERSION:0.83;
#TITLE:unravel;
#SUBTITLE:;
#ARTIST:TK from 凛として時雨;
#TITLETRANSLIT:;
#SUBTITLETRANSLIT:;
#ARTISTTRANSLIT:TK from Ling tosite Sigure;
#GENRE:Post-Hardcore;
#ORIGIN:;
#CREDIT:;
#BANNER:unravel-bn.png;
#BACKGROUND:unravel-bg.png;
#PREVIEWVID:;
#JACKET:unravel-jacket.png;
#CDIMAGE:;
#DISCIMAGE:;
#LYRICSPATH:;
#CDTITLE:cdtitle.png;
#MUSIC:unravel.ogg;
#OFFSET:-0.335000;
#SAMPLESTART:61.854000;
#SAMPLELENGTH:25.900000;
#SELECTABLE:YES;
#BPMS:0.000=135.000;
#STOPS:;
#DELAYS:;
#WARPS:;
#TIMESIGNATURES:0.000=4=4;
#TICKCOUNTS:0.000=4;
#COMBOS:0.000=1;
#SPEEDS:0.000=1.000=0.000=0;
#SCROLLS:0.000=1.000;
#FAKES:;
#LABELS:0.000=Song Start;
#BGCHANGES:
;
#KEYSOUNDS:;
#ATTACKS:
;

//---------------dance-single - ----------------
#NOTEDATA:;
#CHARTNAME:X-Scale 15;
#STEPSTYPE:dance-single;
#DESCRIPTION:;
#CHARTSTYLE:;
#DIFFICULTY:Hard;
#METER:10;
#RADARVALUES:0.664763,0.808089,0.239434,0.426817,0.702686,447.000000,424.000000,23.000000,41.000000,0.000000,0.000000,0.000000,0.000000,0.000000,0.664763,0.808089,0.239434,0.426817,0.702686,447.000000,424.000000,23.000000,41.000000,0.000000,0.000000,0.000000,0.000000,0.000000;
#CREDIT:;
#NOTES:
// measure 0
0000
0000
0000
0000
,  // measure 1
0000
0000
0000
0000
,  // measure 2
0000
0000
0000
0000
,  // measure 3
0000
0000
0000
0000
,  // measure 4
0000
0000
0100
0000
1100
0000
0000
0000
1000
0000
0002
0000
0000
0003
0100
0000
,  // measure 5
0020
0000
0000
0030
1000
0000
0100
0000
0010
0000
0001
0000
1000
0000
0100
0000
,  // measure 6
0010
0000
0001
0000
2000
0000
0000
3000
0010
0000
0200
0000
0000
0300
0001
0000
,  // measure 7
0002
0000
1003
0001
0100
0000
0010
0100
0000
0000
0010
0100
0001
1000
0010
0000
,  // measure 8
0100
0000
0001
0000
0120
0000
0000
0030
0200
0000
0000
0300
0001
0000
0010
0000
,  // measure 9
1000
0000
0010
0001
0010
0000
0002
0000
0000
0003
2000
0000
0000
3000
0020
0000
,  // measure 10
0130
0010
0100
0010
0100
0000
0000
0000
0001
0000
1000
0000
0200
0000
0000
0300
,  // measure 11
0010
0000
0001
0010
0001
0000
1000
0010
0000
1000
0010
0000
0100
0000
0000
0001
,  // measure 12
0100
0000
0010
0000
0102
0000
0000
0003
1000
0000
0200
0000
0000
0300
0010
0000
,  // measure 13
0200
0000
0000
0300
1000
0000
0001
0100
0000
0001
0100
0000
0010
0000
1000
0001
,  // measure 14
0000
0000
1000
0000
0200
0000
0000
0300
0010
0000
0002
0000
0000
0003
1000
0000
,  // measure 15
0002
0000
0003
0000
1001
0000
0000
1000
0000
1000
0010
0000
0110
0000
0000
0100
,  // measure 16
0010
1000
0001
1000
0100
0010
0000
0010
0001
0000
1000
0001
1000
0010
0000
0010
,  // measure 17
0200
0000
0000
0000
0000
0000
0000
0000
0000
0300
0000
0000
0110
0000
0000
0010
0000
0000
0000
0000
0000
0010
0000
0000
0000
0000
0000
0010
0000
0000
1000
0000
0000
0000
0000
0000
0001
0000
0010
0000
0100
0000
0010
0000
0001
0000
0010
0000
,  // measure 18
0200
0000
0000
0300
0110
0010
0000
0100
0010
0000
0001
1000
0010
1000
0001
0010
,  // measure 19
0100
0010
0001
1000
0010
1000
0000
0001
0010
0000
0100
0010
0001
1000
0001
0100
,  // measure 20
0010
0000
1000
0010
1000
0001
0000
0010
0100
0000
1000
0001
1000
0010
0100
0010
,  // measure 21
1000
0001
1000
0100
0010
0001
0000
0100
0001
0000
1000
0100
0010
0001
1000
0001
,  // measure 22
0100
0010
1000
0001
1001
0000
0000
1000
0000
0000
0001
0000
0010
0001
0000
1000
,  // measure 23
0001
0000
0010
0000
0201
0000
0300
0002
0000
0003
2000
0000
3000
0000
0000
0000
,  // measure 24
0100
0000
1000
0000
0002
0000
0003
0020
0000
0030
0200
0000
0300
0000
0010
0000
,  // measure 25
0000
0010
0001
0000
2000
0000
3000
0020
0000
0030
2000
0000
3000
0000
0002
0000
,  // measure 26
0003
0000
0100
0001
0100
0000
0000
0000
0000
0000
0010
0000
0000
0010
0100
0000
,  // measure 27
0000
0000
0001
0000
1001
0000
1000
0200
0000
0300
0110
0000
0000
0000
0020
0000
,  // measure 28
0030
0000
0001
0010
0002
0000
0003
2000
0000
3000
0020
0000
0030
0000
2000
0000
,  // measure 29
3000
0100
1000
0000
0001
0000
0000
0000
0100
0000
0101
0000
0000
0000
0001
0000
,  // measure 30
1000
0100
1000
0000
1100
0000
0000
0000
0100
0000
0010
0000
0001
0000
0001
0010
,  // measure 31
0001
0000
1000
0000
1001
0000
0001
0100
0000
0000
0001
0000
1000
0000
0100
0010
,  // measure 32
0000
0000
0001
1000
0001
0000
0100
0010
0000
0000
0100
0000
0001
0000
0010
0100
,  // measure 33
0010
0000
0001
0000
1000
0000
0100
1000
0000
0000
0001
0000
0100
0000
0010
0000
,  // measure 34
1000
0000
0010
0000
0100
0000
0010
0000
1000
0000
0100
0000
0010
0000
0000
0000
0000
0000
0000
0000
0000
0000
0000
0000
0000
0000
0000
0000
0000
0000
0001
0000
0000
0000
0000
0000
0010
0000
0000
1000
0000
0000
0010
0000
0000
0001
0000
0000
,  // measure 35
0020
0000
0000
0030
0011
0000
0000
0010
0100
0000
0010
0000
0101
0000
0000
1000
,  // measure 36
0001
0000
0010
0100
1000
0000
0000
0100
0010
0000
0100
0000
1010
1000
0000
0001
,  // measure 37
1000
0000
0100
0010
0001
0000
0000
1000
0001
0000
0010
0000
0101
0000
0100
0010
,  // measure 38
0000
0100
0010
1000
0001
0000
0000
0010
0001
0000
1000
0000
1001
0000
0001
0100
,  // measure 39
0001
1000
0001
0100
0010
0000
0000
1000
0100
0000
0010
0000
0101
0000
0001
0000
,  // measure 40
0000
1000
0001
1000
0010
0000
0000
0100
0010
0000
0100
0000
0101
0000
0001
0010
,  // measure 41
0100
0010
0001
1000
0001
0000
0000
1000
0100
0000
1000
0000
1001
0000
0000
0010
,  // measure 42
0001
1000
0001
0010
0001
0000
0000
0010
0100
0000
0010
0000
0101
0000
0001
0000
,  // measure 43
1000
0100
0010
0001
1000
0000
0001
0010
0001
0000
1000
0000
0100
0000
1000
0000
,  // measure 44
0010
0100
0001
0100
0010
0000
0100
0000
0001
0000
1000
0000
0001
0100
0001
0000
,  // measure 45
0010
0000
0100
0010
0100
0000
1000
0100
1000
0000
0001
0000
0100
0000
0010
0000
,  // measure 46
0100
0000
0001
0100
0001
0000
0010
0000
0100
0000
1000
0000
0001
1000
0001
0010
,  // measure 47
0100
0010
0001
1000
0010
0000
0010
0000
0100
0000
0100
0000
0001
0000
0001
0000
,  // measure 48
1000
0000
1000
0001
2000
0000
0000
3000
0100
0000
0020
0000
0030
0000
0002
0000
,  // measure 49
0003
0000
2000
0000
3100
1000
0000
0001
1000
0000
0100
0000
0010
0100
0010
0000
,  // measure 50
0001
0010
0100
1000
0001
0000
0100
0001
1000
0000
0010
0000
0100
0010
1000
0000
,  // measure 51
0001
0010
0100
2000
0000
0000
0000
0000
0000
0000
0000
0000
3000
0000
0000
0000
;

//---------------dance-single - ----------------
#NOTEDATA:;
#CHARTNAME:X-Scale 11;
#STEPSTYPE:dance-single;
#DESCRIPTION:;
#CHARTSTYLE:;
#DIFFICULTY:Medium;
#METER:7;
#RADARVALUES:0.498201,0.646471,0.260254,0.353945,0.395586,335.000000,310.000000,25.000000,34.000000,0.000000,0.000000,0.000000,0.000000,0.000000,0.498201,0.646471,0.260254,0.353945,0.395586,335.000000,310.000000,25.000000,34.000000,0.000000,0.000000,0.000000,0.000000,0.000000;
#CREDIT:;
#NOTES:
// measure 0
0000
0000
0000
0000
,  // measure 1
0000
0000
0000
0000
,  // measure 2
0000
0000
0000
0000
,  // measure 3
0000
0000
0000
0000
,  // measure 4
0000
0000
0101
0000
0000
0001
0000
1000
,  // measure 5
0002
0000
0013
0000
0001
0010
0000
0100
,  // measure 6
1000
0001
1001
0000
0000
1000
0000
0010
,  // measure 7
0020
0000
0000
0000
0130
0000
0000
0010
0000
0000
0100
0000
0000
0000
0001
0000
,  // measure 8
0010
0100
2000
0000
3200
0000
2300
3002
,  // measure 9
0003
2000
0000
3200
0000
2300
0000
3002
,  // measure 10
0003
0100
0101
0000
0001
1000
0100
0000
,  // measure 11
0010
0000
0001
0000
1000
0000
0000
0000
0010
0000
1000
0000
0001
0000
0000
0010
,  // measure 12
0000
0100
1100
0000
1000
0001
0000
0100
,  // measure 13
0002
0000
0000
0000
1003
0000
0000
0000
0001
0000
1000
0000
0100
0000
0000
0010
,  // measure 14
0000
0100
1000
0000
0001
1000
0000
0100
,  // measure 15
0010
0000
0000
0000
0101
0000
0000
0001
0000
0001
1000
0000
1001
0000
0000
0000
,  // measure 16
1000
0100
1000
0100
1000
0000
0000
0001
0000
0000
0100
0000
0100
0000
0000
0010
,  // measure 17
0200
0000
0000
0000
0000
0000
0000
0000
0000
0300
0000
0000
0101
0000
0000
0000
0000
0000
0000
0000
0000
0001
0000
0000
0000
0000
0000
0001
0000
0000
1000
0000
0000
0000
0000
0000
0100
0000
0000
0000
0000
0000
1000
0000
0100
0000
1000
0000
,  // measure 18
0200
0000
0000
0000
0000
0000
0000
0000
0000
0000
0300
0000
0100
0000
0000
0010
0000
0000
0000
0000
0000
0010
0000
0000
0001
0000
0000
0000
0000
0000
1000
0000
0000
0000
0000
0000
0001
0000
0000
0100
0000
0000
0001
0000
0000
0000
0000
0000
,  // measure 19
1000
0010
1000
0000
0100
0010
0000
0010
0001
0000
0000
0000
1000
0010
1000
0000
,  // measure 20
0001
0100
0001
0000
1000
0010
0000
0010
0100
0000
0001
0000
1000
0001
1000
0000
,  // measure 21
0010
0100
0010
0000
1000
0001
0000
0001
0010
0000
0100
0000
0010
0001
0010
0000
,  // measure 22
0001
0010
0001
0000
0011
0000
0000
0001
0000
0000
1000
0000
0001
0100
0000
0010
,  // measure 23
1000
0000
0100
0000
1100
0000
0000
0001
0000
0000
1001
0000
0000
0000
0000
0000
,  // measure 24
0001
0000
0100
0000
0101
0000
0000
0010
0000
0000
0110
0000
0000
0000
0100
0000
,  // measure 25
0000
0010
0100
0000
0101
0000
0000
0010
0000
0000
1002
0000
0003
0000
2000
0000
,  // measure 26
3000
0000
0200
0000
1300
0000
0000
0000
0000
0000
1000
0000
0000
0001
0100
0000
,  // measure 27
0000
0000
0001
0000
0101
0000
0001
0100
0000
0000
1010
0000
0000
0000
1000
0000
,  // measure 28
0000
0000
0001
0000
0011
0000
0000
0100
0000
0000
0001
0000
0000
0000
1000
0000
,  // measure 29
0000
1000
0001
0000
1001
0000
0000
0000
1000
0000
1100
0000
0000
0000
0100
0000
,  // measure 30
1000
0002
1000
0003
0000
0020
0000
0030
,  // measure 31
0002
0000
0000
0003
1001
0000
1000
0100
0000
0000
0010
0000
0100
0000
1000
0001
,  // measure 32
0000
0000
0100
0000
0010
0000
0100
0001
0000
0000
1000
0000
0001
0000
0100
0010
,  // measure 33
0000
0000
0100
0000
0001
0000
0010
0100
0000
0000
1000
0000
0200
0000
0300
0020
,  // measure 34
0000
0030
0002
0000
0003
0000
0000
0000
0000
0000
1000
0000
0200
0000
0000
0000
,  // measure 35
0310
0000
0100
0000
1100
0000
0000
1000
0000
0000
0001
0000
0100
0000
0000
0010
,  // measure 36
0000
0000
0100
0000
0001
0000
0000
0010
0000
0000
0100
0000
0000
0000
0010
0000
,  // measure 37
0000
0000
0001
0010
0100
0000
0000
1000
0000
0000
0001
0000
0100
0000
0001
0000
,  // measure 38
0000
0000
1000
0000
0100
0000
0000
1000
0000
0000
0001
0000
0100
0000
0010
0000
,  // measure 39
0000
1000
0010
1000
0001
0000
0000
0010
0000
0000
0100
0000
0010
0000
0001
0000
,  // measure 40
0000
0000
1000
0000
0020
0000
0000
0000
0130
0000
0002
0000
0000
0003
2000
0000
,  // measure 41
0000
3000
0002
0000
0100
0000
0000
0100
0000
0000
0103
0000
0101
0000
0000
0001
,  // measure 42
0000
0000
1000
0000
0100
0000
0000
1000
0000
0000
0002
0000
0000
0003
0200
0000
,  // measure 43
0000
0000
0310
0000
1000
0000
0001
0100
0000
0000
1000
0000
0100
0000
0010
0100
,  // measure 44
0000
0000
0001
0100
0001
0000
0000
0010
0000
0000
0100
0000
0000
1000
0100
0000
,  // measure 45
1000
0000
0001
0100
0001
0000
0010
0100
0000
0000
0010
0000
0001
0000
1000
0001
,  // measure 46
0000
0000
0100
0001
1000
0000
0000
0100
0000
0000
1000
0000
0001
0000
0100
0000
,  // measure 47
0010
0100
0010
0100
0010
0000
0100
0000
0010
0000
0100
0000
0001
0000
1000
0000
,  // measure 48
0001
0000
1000
0000
2002
0000
0000
0000
0000
0000
0000
3003
0220
0000
0000
0000
,  // measure 49
0000
0000
0000
0330
1001
0000
0000
1000
0000
0000
0001
0000
0000
0010
0001
0000
,  // measure 50
1000
0000
0010
0000
0001
0000
0000
0010
0000
0000
0100
0000
0000
0010
0100
0000
,  // measure 51
0001
1000
0001
2000
0000
0000
0000
0000
0000
0000
0000
0000
3000
0000
0000
0000
;

//---------------dance-single - ----------------
#NOTEDATA:;
#CHARTNAME:X-Scale 5;
#STEPSTYPE:dance-single;
#DESCRIPTION:;
#CHARTSTYLE:;
#DIFFICULTY:Easy;
#METER:3;
#RADARVALUES:0.251331,0.320112,0.145742,0.072871,0.000000,169.000000,155.000000,14.000000,7.000000,0.000000,0.000000,0.000000,0.000000,0.000000,0.251331,0.320112,0.145742,0.072871,0.000000,169.000000,155.000000,14.000000,7.000000,0.000000,0.000000,0.000000,0.000000,0.000000;
#CREDIT:;
#NOTES:
// measure 0
0000
0000
0000
0000
,  // measure 1
0000
0000
0000
0000
,  // measure 2
0000
0000
0000
0000
,  // measure 3
0000
0000
0000
0000
,  // measure 4
0000
0012
0000
0000
,  // measure 5
0000
1003
0001
1000
,  // measure 6
0001
0000
1001
0000
0000
0100
0000
0000
,  // measure 7
1000
0001
0100
0001
,  // measure 8
1000
0100
0010
0000
0001
0000
0010
0001
,  // measure 9
0000
1000
0000
0010
0000
1000
0000
0001
,  // measure 10
0000
0011
0000
0010
,  // measure 11
0000
0100
0000
1000
,  // measure 12
0000
0000
1010
0000
0000
1000
0000
0000
,  // measure 13
0001
0000
0011
0000
0000
0010
0000
0000
,  // measure 14
0100
1000
0001
0000
1000
0100
0000
1000
,  // measure 15
0001
1001
0000
1000
,  // measure 16
0002
0013
0000
0010
,  // measure 17
0000
0011
0000
0001
,  // measure 18
2000
3100
1000
0001
,  // measure 19
1000
0100
0010
0100
,  // measure 20
1000
0001
0100
0001
,  // measure 21
1000
0010
0100
0010
,  // measure 22
1000
1010
0000
0001
,  // measure 23
0000
0000
1001
0000
0000
0001
0000
0000
,  // measure 24
0000
0000
1000
0000
0000
1000
0000
0000
,  // measure 25
0000
0000
0100
0000
0000
0100
0000
0000
,  // measure 26
0000
0000
0010
0000
0000
0010
0000
0000
,  // measure 27
0000
0000
0001
0000
0000
0001
0000
0000
,  // measure 28
0000
0000
0100
0000
0000
0200
0000
0320
,  // measure 29
0030
0000
1000
0000
0000
1000
0000
0000
,  // measure 30
0000
0000
0001
0000
0000
0002
0000
0003
,  // measure 31
0000
1001
1000
0100
,  // measure 32
0010
0001
1000
0100
,  // measure 33
0010
0001
1000
0100
,  // measure 34
0010
0001
0000
0000
,  // measure 35
0000
0000
1001
0000
0000
0010
1000
0000
,  // measure 36
0100
0000
1000
0000
0000
0100
0010
0000
,  // measure 37
0001
0000
1000
0000
0000
0001
0100
0000
,  // measure 38
0010
0000
0100
0000
0000
0001
0010
0000
,  // measure 39
0100
0000
0010
0000
0000
0001
1000
0000
,  // measure 40
0100
0000
1000
0000
0000
0010
0100
0000
,  // measure 41
0010
0000
0100
0000
0000
0001
1000
0000
,  // measure 42
0001
0000
1000
0000
0000
0100
0010
0000
,  // measure 43
0100
0010
0001
0010
,  // measure 44
0001
1000
0001
0000
0100
0000
0001
0000
,  // measure 45
0100
0010
0100
0000
0001
0000
0100
0000
,  // measure 46
0001
0010
0100
0000
0010
0000
0100
0000
,  // measure 47
0010
0001
1000
0000
1000
0000
0001
0000
,  // measure 48
0001
1001
0000
0110
,  // measure 49
0000
2001
0000
0100
,  // measure 50
0000
0001
0000
0010
,  // measure 51
0000
3000
0000
0000
;

//---------------dance-single - ----------------
#NOTEDATA:;
#CHARTNAME:X-Scale 2;
#STEPSTYPE:dance-single;
#DESCRIPTION:;
#CHARTSTYLE:;
#DIFFICULTY:Beginner;
#METER:2;
#RADARVALUES:0.133845,0.256350,0.104102,0.000000,0.000000,90.000000,80.000000,10.000000,0.000000,0.000000,0.000000,0.000000,0.000000,0.000000,0.133845,0.256350,0.104102,0.000000,0.000000,90.000000,80.000000,10.000000,0.000000,0.000000,0.000000,0.000000,0.000000,0.000000;
#CREDIT:;
#NOTES:
// measure 0
0000
0000
0000
0000
,  // measure 1
0000
0000
0000
0000
,  // measure 2
0000
0000
0000
0000
,  // measure 3
0000
0000
0000
0000
,  // measure 4
0000
1000
0000
0000
,  // measure 5
0000
0100
0000
0000
,  // measure 6
0000
1000
0000
0000
,  // measure 7
0000
0100
0000
0000
,  // measure 8
0000
0010
0000
0000
,  // measure 9
0000
0001
0000
0000
,  // measure 10
0000
0010
0000
0000
,  // measure 11
0000
0001
0000
0000
,  // measure 12
0000
1000
0000
0000
,  // measure 13
0000
0001
0000
0000
,  // measure 14
0000
1000
0000
0000
,  // measure 15
0000
1001
0000
0110
,  // measure 16
0000
1001
0000
0000
,  // measure 17
0000
1001
0000
0110
,  // measure 18
0000
1001
0000
0001
,  // measure 19
0000
1000
0000
0001
,  // measure 20
1000
0001
0000
0010
,  // measure 21
0000
0100
0000
0010
,  // measure 22
0000
0100
0000
0000
,  // measure 23
0000
1000
0000
0000
,  // measure 24
0000
0001
0000
0000
,  // measure 25
0000
1000
0000
0000
,  // measure 26
0000
0001
0000
0000
,  // measure 27
0000
0100
0000
0000
,  // measure 28
0000
0010
0000
0000
,  // measure 29
0000
0100
0000
0000
,  // measure 30
0000
0010
0000
0000
,  // measure 31
0000
1000
0000
0010
,  // measure 32
0000
0100
0000
0001
,  // measure 33
0000
0010
0000
0100
,  // measure 34
0000
1000
0000
0000
,  // measure 35
0000
1001
0000
1000
,  // measure 36
0000
0100
0000
1000
,  // measure 37
0000
0001
0000
0100
,  // measure 38
0000
0001
0000
0010
,  // measure 39
0000
0001
0000
1000
,  // measure 40
0000
0100
0000
1000
,  // measure 41
0000
0010
0000
0100
,  // measure 42
0000
0010
0000
1000
,  // measure 43
0000
0001
0010
0001
,  // measure 44
0010
0100
1000
0100
,  // measure 45
1000
0001
1000
0001
,  // measure 46
0010
0100
0010
0100
,  // measure 47
0010
0001
0010
0001
,  // measure 48
1000
1001
0000
0110
,  // measure 49
0000
1001
0000
0000
;

//---------------dance-single - ----------------
#NOTEDATA:;
#CHARTNAME:X-Scale 16;
#STEPSTYPE:dance-single;
#DESCRIPTION:;
#CHARTSTYLE:;
#DIFFICULTY:Challenge;
#METER:11;
#RADARVALUES:0.724250,0.808089,0.458047,0.249844,0.931709,487.000000,443.000000,44.000000,24.000000,75.000000,0.000000,0.000000,0.000000,0.000000,0.724250,0.808089,0.458047,0.249844,0.931709,487.000000,443.000000,44.000000,24.000000,75.000000,0.000000,0.000000,0.000000,0.000000;
#CREDIT:;
#NOTES:
// measure 0
0000
0000
0000
0000
,  // measure 1
0000
0000
0000
0000
,  // measure 2
0000
0000
0000
0000
,  // measure 3
0000
0000
0000
0000
,  // measure 4
0000
0000
0M00
0000
1M01
0000
0000
0000
10M0
0001
10M0
0100
0000
0000
M010
0000
,  // measure 5
M100
0000
1000
0001
1000
0010
0000
0100
0000
0100
0010
0000
1000
0000
0001
0000
,  // measure 6
0020
0000
0M00
0030
01M1
0000
0000
0000
0M01
1000
0M00
1000
0000
0000
M100
0000
,  // measure 7
M100
0000
0010
0001
1000
0001
0000
0010
0100
0010
0000
0000
0001
0000
0010
0000
,  // measure 8
0100
0000
100M
0000
110M
0000
0000
0000
01M0
0010
0001
1000
0001
0000
0010
0000
,  // measure 9
0100
1000
0001
0010
0M00
0010
1000
0000
0001
0000
0100
0000
1000
0000
0100
0000
,  // measure 10
0001
0100
0010
0100
0002
0000
0000
0000
0013
0000
0100
0000
1000
0000
0001
0000
,  // measure 11
0100
0001
1000
0001
0100
0000
0001
0100
0000
0100
1000
0000
0020
0000
0030
0002
,  // measure 12
0000
0003
02M0
0300
11M0
0000
1000
0100
100M
0000
001M
0000
0100
0000
M001
0000
,  // measure 13
M001
0010
0000
0010
0000
0000
0010
0001
0000
1000
0001
0000
0200
0000
0300
2000
,  // measure 14
0000
3000
0020
0030
0011
0000
0001
0010
0001
0010
0001
0010
0001
0010
0100
0010
,  // measure 15
0100
0010
0100
0010
0110
0000
0000
1000
0000
1000
0001
0000
1001
0000
0000
0001
,  // measure 16
0010
0100
1000
0100
1100
1000
0000
0001
0010
0000
0100
0010
0001
1000
0000
0100
,  // measure 17
0010
0000
0000
0100
0000
0000
1000
0000
0000
0000
0000
0000
1001
0000
0000
0001
0000
0000
0000
0000
0000
0010
0000
0000
0000
0000
0000
0001
0000
0000
1000
0000
0000
0000
0000
0000
0010
0000
1000
0000
0010
0000
0100
0000
0010
0000
1000
0000
,  // measure 18
0020
0000
0000
0030
0101
0001
0000
1000
0001
0000
0010
0100
1000
0001
1000
0010
,  // measure 19
0100
0010
1000
0100
0010
0001
0000
1000
0001
0000
0010
0100
M110
M000
M001
M000
,  // measure 20
M101
M100
M000
M000
1001
0001
0000
0010
0100
0000
0010
0001
1000
0010
0100
0010
,  // measure 21
1000
0100
0010
0001
0011
0010
0000
0001
1000
0000
0010
1000
1M10
0M00
0M01
0M00
,  // measure 22
0M11
0M10
0M00
0M00
0201
0000
0300
0002
0000
0003
0020
0000
2030
3020
0000
0032
,  // measure 23
0023
0000
0230
0300
1M10
0000
0000
000M
1000
0010
1M00
0000
0000
0000
0000
0000
,  // measure 24
00M1
0000
010M
0010
M110
0000
0000
000M
0000
0000
1M01
0000
0000
0000
1000
0000
,  // measure 25
0000
1000
0M10
0000
11M0
0000
0000
M000
0000
0000
10M1
0000
0000
0000
0M10
0000
,  // measure 26
0000
0001
M010
0001
0011
0000
0000
0000
0000
0000
0100
0000
0000
0010
0100
0000
,  // measure 27
0000
0000
0001
0000
1001
0000
1000
0100
0000
0000
1010
0000
0000
0000
0001
0000
,  // measure 28
0000
1000
0001
1000
2001
0000
3000
0200
0000
0300
2000
0000
0000
3000
0002
0000
,  // measure 29
0000
0013
0001
0000
0110
0000
0000
0000
0100
0000
1001
0000
0000
0000
1000
0000
,  // measure 30
000M
0100
001M
0000
0101
0000
0000
0000
0000
0000
2000
0000
0100
0000
3000
0100
,  // measure 31
1000
0000
0001
0000
1001
0000
1000
0100
0000
0000
0010
0100
1000
0000
0001
0100
,  // measure 32
0000
0000
0010
0100
0001
0000
1000
0010
0000
0000
0100
0010
1000
0000
0001
0010
,  // measure 33
0000
0000
0100
0000
1000
0000
0100
0010
0000
0000
0100
1000
0001
0000
0010
0100
,  // measure 34
0010
0000
0100
0000
1000
0000
0001
0000
0010
0000
0001
0000
1000
0000
0000
0000
0000
0000
0000
0000
0000
0000
0000
0000
0000
0000
0000
0000
0000
0000
0100
0000
0000
0000
0000
0000
1000
0000
0000
0100
0000
0000
0001
0000
0000
0100
0000
0000
,  // measure 35
2000
0000
0000
3000
1100
0000
0000
0100
0010
0000
0100
0000
1010
0000
0000
0001
,  // measure 36
0010
0100
0010
0001
0010
0000
0000
0100
1000
0000
0001
0000
1001
1000
0000
0100
,  // measure 37
0010
0001
1000
0010
0100
0000
0000
0010
1000
0000
0001
0000
1001
0000
0000
1000
,  // measure 38
0100
0001
0100
0010
0001
0000
0000
0010
0100
0000
0010
0000
0101
0000
0000
0001
,  // measure 39
0100
1000
0100
0010
0100
0000
0000
0001
0010
0000
0001
0000
0011
0000
0000
0001
,  // measure 40
1000
0010
0100
0010
1000
0000
0000
0100
0010
0000
0100
0000
1010
0000
0000
0001
,  // measure 41
1000
0010
0100
0001
0010
0000
0000
0100
0010
0000
0100
0000
1010
1000
0000
0001
,  // measure 42
0010
1000
0010
0100
1000
0000
0000
0100
0010
0000
0001
0000
M011
0000
0M00
0001
,  // measure 43
M100
M010
M100
M001
M101
0000
0001
1000
0M00
0000
0100
0000
0M10
0000
0000
0001
,  // measure 44
1M00
0100
0001
0100
10M0
0000
0000
0001
00M0
0000
1000
0000
01M0
1000
0000
0000
,  // measure 45
1MM1
0000
0001
1000
M001
0000
0010
0100
M000
0000
0010
0000
M001
0000
0000
1000
,  // measure 46
010M
0001
0100
1000
010M
0000
0000
0010
000M
0000
0100
0000
1000
0001
0100
0010
,  // measure 47
1000
0001
0100
0010
1000
0000
0100
0000
0010
0000
0001
1000
0001
0000
0100
0000
,  // measure 48
0010
0000
1000
0010
1010
0000
0000
0000
0001
0000
0010
0000
0101
0000
1000
0000
,  // measure 49
0000
0000
0100
0000
1100
1000
0000
0001
0100
0000
0010
0000
1000
0100
0010
0000
,  // measure 50
0100
0010
0001
0000
0100
0010
0000
0100
0001
0000
0010
0000
0100
1000
0001
0000
,  // measure 51
0010
0100
1000
0002
0000
0000
0000
0000
0000
0000
0000
0000
0003
0000
0000
0000
;
