#TITLE:tv off feat. Lefty Gunplay;
#SUBTITLE:;
#ARTIST:Kendrick Lamar;
#TITLETRANSLIT:;
#SUBTITLETRANSLIT:;
#ARTISTTRANSLIT:;
#GENRE:West Coast Hip-Hop;
#CREDIT:;
#BANNER:tv off feat. Lefty Gunplay-bn.png;
#BACKGROUND:tv off feat. Lefty Gunplay-bg.png;
#LYRICSPATH:;
#CDTITLE:cdtitle.png;
#MUSIC:tv off feat. Lefty Gunplay.ogg;
#OFFSET:-0.006000;
#SAMPLESTART:9.511000;
#SAMPLELENGTH:19.010000;
#SELECTABLE:YES;
#BPMS:0.000000=101.000000
;
#STOPS:110.000000=0.594000,
119.000000=1.782000
;
#BGCHANGES:;
#KEYSOUNDS:;
#ATTACKS:;

//---------------dance-single - ----------------
#NOTES:
     dance-single:
     X-Scale 3:
     Beginner:
     2:
     0.103432,0.142959,0.019053,0.000000,0.000000,76.000000,74.000000,2.000000,0.000000,0.000000,0.000000,0.103432,0.142959,0.019053,0.000000,0.000000,76.000000,74.000000,2.000000,0.000000,0.000000,0.000000:
// measure 0
0000
0000
0000
0000
,  // measure 1
0000
0000
0000
0000
,  // measure 2
0000
0000
0000
0000
,  // measure 3
0000
0000
0000
0000
,  // measure 4
0001
0000
1000
0000
,  // measure 5
0001
0000
1000
0000
,  // measure 6
0100
0000
0010
0000
,  // measure 7
0100
0000
0010
0000
,  // measure 8
0001
0000
1000
0000
,  // measure 9
0001
0000
1000
0000
,  // measure 10
0001
0000
0100
0000
,  // measure 11
0001
0000
0100
0000
,  // measure 12
0001
0000
0000
0000
,  // measure 13
0001
0000
0000
0001
0000
0000
0000
0000
,  // measure 14
1000
0000
0000
1000
0000
0000
0000
0000
,  // measure 15
0010
0000
0000
0010
0000
0000
0000
0000
,  // measure 16
0100
0000
0010
0000
,  // measure 17
0100
0000
0000
0000
,  // measure 18
0001
0000
1000
0000
,  // measure 19
0001
0000
0000
0000
,  // measure 20
0100
0000
0001
0000
,  // measure 21
0100
0000
0000
0000
,  // measure 22
0001
0000
1000
0000
,  // measure 23
0001
0000
0000
0000
,  // measure 24
1000
0000
0000
0000
,  // measure 25
0100
0000
0000
0100
0000
0000
0000
0000
,  // measure 26
1000
0000
0000
1000
0000
0000
0000
0000
,  // measure 27
0001
0000
0000
0001
0000
0000
1001
0000
,  // measure 28
0000
1000
0000
0001
,  // measure 29
0000
1000
0000
0000
,  // measure 30
0001
0001
0001
0000
,  // measure 31
1001
0000
1000
0000
,  // measure 32
0100
0000
1000
0000
,  // measure 33
0001
0000
1000
0000
,  // measure 34
0100
0000
1000
0000
,  // measure 35
0001
0000
0000
0000
,  // measure 36
0010
0000
0000
0010
0000
0000
0000
0000
,  // measure 37
0001
0000
0000
0001
0000
0000
0000
0000
,  // measure 38
1000
0000
0000
1000
0000
0000
0000
0000
,  // measure 39
0100
0000
1000
0000
,  // measure 40
0001
0000
1000
0000
,  // measure 41
0100
0000
1000
0000
,  // measure 42
0001
0000
0000
0000
1000
0000
0001
0001
;

//---------------dance-single - ----------------
#NOTES:
     dance-single:
     X-Scale 6:
     Easy:
     4:
     0.277633,0.306340,0.161953,0.285799,0.000000,204.000000,187.000000,17.000000,30.000000,0.000000,0.000000,0.277633,0.306340,0.161953,0.285799,0.000000,204.000000,187.000000,17.000000,30.000000,0.000000,0.000000:
// measure 0
0000
0000
0000
0000
,  // measure 1
0000
0000
0000
0000
,  // measure 2
0000
0000
0000
0000
,  // measure 3
0000
0000
0000
0000
,  // measure 4
1001
0000
1000
0000
0001
0000
1000
0001
,  // measure 5
0100
0000
0001
0000
0100
0000
0001
1000
,  // measure 6
1001
0000
0100
0000
1000
0000
0001
1000
,  // measure 7
0100
0000
1000
0000
0001
0000
0010
0100
,  // measure 8
0010
0000
0001
0000
1000
0001
1000
0000
,  // measure 9
0100
0000
0010
0000
0001
0010
0001
0000
,  // measure 10
1000
0000
0010
1000
0010
0000
0100
0000
,  // measure 11
0001
0100
0001
0000
0010
0000
0100
0010
,  // measure 12
0100
1000
0001
1000
,  // measure 13
0020
0000
0030
0020
0030
0100
0001
1000
,  // measure 14
0002
0000
1003
0002
0103
0000
0001
0000
,  // measure 15
2000
0000
3100
2000
3001
0000
0100
0100
,  // measure 16
0102
0000
2003
0000
3002
0000
1003
0100
,  // measure 17
0020
0000
0230
0000
0320
0000
0031
0001
,  // measure 18
0002
0000
2003
0000
3002
0000
0103
0010
,  // measure 19
2000
0000
3200
0000
2300
0100
3001
1000
,  // measure 20
2001
0000
3200
0000
2300
0000
3001
0100
,  // measure 21
0002
0000
0203
0000
0302
0000
1003
1000
,  // measure 22
1001
0000
0100
0000
1000
0000
0001
0010
,  // measure 23
0100
0000
0010
0000
0001
0000
1000
0001
,  // measure 24
1000
0100
1000
0010
,  // measure 25
0200
0000
0301
0200
0000
0300
1001
0000
,  // measure 26
0020
0000
0031
0020
0000
0030
0101
0000
,  // measure 27
2000
0000
3001
2000
3000
0000
1001
0000
,  // measure 28
1000
0001
1000
0100
,  // measure 29
0010
0000
0100
0000
0001
1000
0000
0000
,  // measure 30
0001
0001
0001
0000
,  // measure 31
1100
0000
0100
0000
1000
0001
0100
0000
,  // measure 32
0001
0000
0010
0000
0100
0010
0001
1000
,  // measure 33
0001
0000
0100
0000
0010
0100
0001
0000
,  // measure 34
0010
0000
0100
0000
1000
0001
1000
1000
,  // measure 35
1000
0100
1000
0001
,  // measure 36
0100
0000
0010
0000
0100
0000
0001
0010
,  // measure 37
0100
0010
0001
1000
,  // measure 38
0100
0000
0010
0000
0001
0000
1000
0001
,  // measure 39
1000
1010
0001
0011
,  // measure 40
0100
0000
0101
0000
0001
0000
1000
0001
,  // measure 41
1000
1100
0001
0101
,  // measure 42
1000
0000
1010
0000
0001
0000
0101
0101
;

//---------------dance-single - ----------------
#NOTES:
     dance-single:
     X-Scale 11:
     Medium:
     8:
     0.461361,0.490145,0.523964,0.085740,0.252455,339.000000,284.000000,55.000000,9.000000,0.000000,0.000000,0.461361,0.490145,0.523964,0.085740,0.252455,339.000000,284.000000,55.000000,9.000000,0.000000,0.000000:
// measure 0
0000
0000
0000
0000
,  // measure 1
0000
0000
0000
0000
,  // measure 2
0000
0000
0000
0000
,  // measure 3
0000
0000
0000
0000
,  // measure 4
0101
2000
0010
0010
0000
0001
0001
0000
,  // measure 5
0100
0000
0001
0000
0100
0000
0010
3010
,  // measure 6
1010
0000
0000
1000
0001
0000
1000
0000
0100
0000
0010
0000
0010
0000
0100
1000
,  // measure 7
0001
0000
1001
0000
0001
0010
0010
0100
,  // measure 8
1000
0000
0001
1000
0001
0000
0100
0000
0010
0100
0010
0000
1000
0000
0000
0100
,  // measure 9
0010
0000
0001
0010
0001
0000
1000
0000
0010
1000
0010
0000
1010
0000
0001
0000
,  // measure 10
1001
0000
1000
0100
1000
0000
0001
0000
0010
0100
0010
0000
0101
0000
0000
1000
,  // measure 11
0001
0000
1000
0010
1000
0000
0001
0000
0010
0100
0010
0000
0001
0000
1000
0000
,  // measure 12
0001
0000
1000
0000
0001
0000
1000
0100
,  // measure 13
0010
0000
0000
0000
0011
0000
0001
0000
1000
0000
0000
0001
0100
0000
0100
0000
,  // measure 14
0101
0000
0000
0000
1000
0000
0100
0000
0010
0000
0000
0001
0010
0000
0010
0000
,  // measure 15
0011
0000
0000
0000
0001
0000
1000
0000
0001
0000
0000
0100
0010
0000
0100
0000
,  // measure 16
1001
0000
0000
1100
0000
0000
0101
0000
0000
0000
1001
0000
0100
0000
1000
0001
,  // measure 17
1000
0000
0000
0000
0100
0000
0000
0000
0010
0000
0000
0001
0010
0000
0011
0000
,  // measure 18
1010
0000
0000
0110
0000
0000
1001
0000
0000
0000
1010
0000
0010
0000
1000
0001
,  // measure 19
1000
0000
0100
0000
1000
0001
0101
0110
,  // measure 20
1001
0000
0000
0100
1000
0000
0001
0000
1000
0000
0010
0000
0101
0000
0001
0010
,  // measure 21
0100
0000
0000
0000
1100
0000
0000
0000
0001
0000
0000
1000
0001
0000
0101
0000
,  // measure 22
1100
0000
0000
1000
0001
0000
1000
0000
0010
0000
0100
0010
1000
0000
0001
0010
,  // measure 23
0100
0000
1001
0000
0010
0001
1001
0100
,  // measure 24
1100
0001
1000
0100
,  // measure 25
0020
0000
0030
0000
0011
0000
0002
0000
0003
0000
0000
0000
1001
0000
0000
0001
,  // measure 26
0200
0300
0110
0002
1003
0000
1001
0100
,  // measure 27
2000
0000
3000
0000
1001
0000
0002
0000
0003
0000
0000
0000
0101
0000
0000
0001
,  // measure 28
0000
0000
1000
0000
0000
0000
0010
1000
0010
1000
0010
1000
0010
0000
0000
0000
,  // measure 29
0100
0000
0001
0000
1001
0110
0000
0000
,  // measure 30
1100
0000
0000
0000
0101
0000
0000
0000
1100
0000
0000
0110
0000
0000
0000
0000
,  // measure 31
1001
0000
1000
0010
1000
0000
0001
0000
0010
0100
0010
0000
0001
0000
0010
0000
,  // measure 32
0100
0000
1000
0100
1000
0000
0001
0000
0100
0001
0100
0000
0010
0000
1000
0000
,  // measure 33
0001
0000
1000
0010
1000
0000
0001
0000
0010
0100
0010
0000
0001
0000
0100
0000
,  // measure 34
0010
0000
1000
0010
1000
0000
0001
0000
0010
0100
0010
0000
0011
0000
1010
0000
,  // measure 35
1000
0001
1000
0001
,  // measure 36
0200
0000
0300
0000
1001
0000
0020
0000
0030
0000
1000
0010
1000
0000
0001
0000
,  // measure 37
0011
0000
0000
0000
0010
0000
0100
0000
1000
0000
0100
0001
0100
0000
0010
0000
,  // measure 38
0001
0000
0000
0000
1000
0000
0100
0000
1000
0000
0001
0100
0001
0000
0001
0000
,  // measure 39
1001
0000
0000
0110
0000
0000
1100
0000
0000
0000
0001
1000
0001
1000
0001
1000
,  // measure 40
0001
0000
0000
0000
0101
0000
0000
0000
1000
0000
0100
0010
0100
0000
0110
0000
,  // measure 41
1001
0000
0000
1100
0000
0000
0101
0000
0000
0000
0001
0100
0001
0100
0001
0100
,  // measure 42
0001
0000
0000
0000
1001
0000
0000
0000
0100
0000
1000
0100
1000
0000
1100
0000
;

//---------------dance-single - ----------------
#NOTES:
     dance-single:
     X-Scale 13:
     Hard:
     9:
     0.547100,0.592258,0.600177,0.114319,0.409645,402.000000,339.000000,63.000000,12.000000,0.000000,0.000000,0.547100,0.592258,0.600177,0.114319,0.409645,402.000000,339.000000,63.000000,12.000000,0.000000,0.000000:
// measure 0
0000
0000
0000
0000
,  // measure 1
0000
0000
0000
0000
,  // measure 2
0000
0000
0000
0000
,  // measure 3
0000
0000
0000
0000
,  // measure 4
1100
0000
0000
1001
0001
0000
0110
0000
1000
0000
1001
0000
0001
0100
0001
0100
,  // measure 5
0001
0000
0000
0000
0011
0000
0000
0000
1000
0000
0000
1000
1010
0000
0110
0000
,  // measure 6
0011
0000
0000
0001
1000
0000
0001
0000
0010
0000
0100
1000
0001
1000
0100
0010
,  // measure 7
0001
0000
1001
0000
0100
1100
0110
1001
,  // measure 8
1000
0100
0001
0100
1000
0000
0001
0100
1000
0100
0001
0000
1001
0000
0010
0000
,  // measure 9
1000
0010
0100
0001
1000
0000
0001
0010
0100
1000
0001
0000
0011
0000
1010
0000
,  // measure 10
1000
0010
0001
0010
1000
0000
0001
0010
1000
0010
0001
0000
1001
0000
0100
0000
,  // measure 11
1000
0100
0010
0001
1000
0000
0001
0100
0010
1000
0001
0000
1001
0000
0110
0000
,  // measure 12
1000
0000
0001
0000
1000
0000
0010
0100
,  // measure 13
0020
0000
0030
0000
1001
0000
0002
0000
0103
0000
0001
0010
0100
0000
0100
0000
,  // measure 14
1100
0000
0000
0000
1001
0000
0002
0000
0103
0000
0001
0010
0100
0001
0100
0010
,  // measure 15
0001
0000
0000
1000
0010
0000
2000
0000
3100
0000
0010
0000
0001
0000
0001
0000
,  // measure 16
0011
0000
0000
0110
0000
0000
1001
0000
0000
0000
1100
0000
0100
1000
0100
1000
,  // measure 17
0001
0000
0000
0000
0000
0000
0100
0000
0000
0000
0000
0000
0001
0000
0000
0000
0001
0000
0101
0000
0000
1100
0000
0000
,  // measure 18
1001
0000
0000
0100
1000
0000
1100
0000
0000
0000
1000
0100
0010
1000
0010
0100
,  // measure 19
2000
0000
3002
0000
0013
0100
0110
1001
,  // measure 20
1010
0000
0000
1000
0100
0000
1000
0000
0001
0000
0100
0000
0010
0000
0001
0010
,  // measure 21
0100
0000
0001
1000
0100
0000
1100
0110
,  // measure 22
0101
0000
0000
0001
1000
0000
0001
0000
0010
0000
0100
0010
0100
0000
1000
0001
,  // measure 23
0100
0000
0000
0010
0100
0000
0001
0000
1000
0000
1100
0000
0101
0000
0011
0000
,  // measure 24
2000
0000
0000
0000
3002
0000
0000
0000
0203
0000
0000
0000
0320
0000
0030
1000
,  // measure 25
0001
0000
1001
0100
1000
0000
0100
0010
,  // measure 26
0001
0000
0000
0000
0011
0000
1000
0000
0001
0000
0000
0010
0100
0000
1000
0000
,  // measure 27
0001
0000
0000
0000
1001
0000
0100
0000
1000
0000
0000
0000
1100
0000
0001
1000
,  // measure 28
0001
0000
0100
0000
0010
0000
1000
0010
0100
0001
0010
0100
1000
0000
0000
0000
,  // measure 29
1001
0000
0000
0000
0010
0000
0000
0001
1000
0000
1000
0000
1000
0000
0000
0000
,  // measure 30
1001
0000
0000
0100
1100
0000
0000
1000
1001
0000
0000
0001
0100
0001
0100
0000
,  // measure 31
0001
0010
0100
0010
0001
0000
1000
0010
0100
0010
1000
0000
1001
0000
0100
0000
,  // measure 32
1000
0100
0001
0100
1000
0000
0001
0100
1000
0100
0001
0000
0101
0000
1100
0000
,  // measure 33
0100
1000
0001
0100
0010
0000
1000
0010
0001
0010
1000
0000
1010
0000
0001
0000
,  // measure 34
1000
0001
0010
0100
1000
0000
0010
0100
0001
1000
0100
0000
1100
0000
0101
0000
,  // measure 35
0100
0000
0000
0000
0001
0000
0000
0000
1000
0000
0000
0000
0001
0100
1000
0100
,  // measure 36
0001
0000
0000
0000
0101
0000
1000
0000
0001
0000
0000
1000
0100
0000
0100
0000
,  // measure 37
0020
0000
0030
0000
0011
0000
1000
0000
0001
0000
1000
0010
0100
0001
0010
0100
,  // measure 38
1000
0000
0000
0000
1100
0000
0002
0000
1003
0000
0001
0100
0001
0000
0001
0000
,  // measure 39
0101
0000
0000
1000
0001
0000
1000
0000
0100
0000
0010
0100
1000
0001
0100
0010
,  // measure 40
1000
0000
0000
0000
1010
0000
0000
0000
1000
0000
0001
0100
0101
0000
1100
0000
,  // measure 41
0101
0000
0000
0001
1000
0000
0001
0000
0100
0000
0010
0100
0001
1000
0100
0010
,  // measure 42
0001
0000
0011
0000
1000
0000
1001
0110
;
