#VERSION:0.83;
#TITLE:trigger;
#SUBTITLE:;
#ARTIST:lol-エルオーエル-;
#TITLETRANSLIT:;
#SUBTITLETRANSLIT:;
#ARTISTTRANSLIT:;
#GENRE:J-Pop;
#ORIGIN:;
#CREDIT:;
#BANNER:trigger-bn.png;
#BACKGROUND:trigger-bg.png;
#PREVIEWVID:;
#JACKET:trigger-jacket.png;
#CDIMAGE:;
#DISCIMAGE:;
#LYRICSPATH:;
#CDTITLE:cdtitle.png;
#MUSIC:trigger.ogg;
#OFFSET:-0.005000;
#SAMPLESTART:44.449001;
#SAMPLELENGTH:14.222000;
#SELECTABLE:YES;
#BPMS:0.000=135.000;
#STOPS:;
#DELAYS:;
#WARPS:;
#TIMESIGNATURES:0.000=4=4;
#TICKCOUNTS:0.000=4;
#COMBOS:0.000=1;
#SPEEDS:0.000=1.000=0.000=0;
#SCROLLS:0.000=1.000;
#FAKES:;
#LABELS:0.000=Song Start;
#BGCHANGES:0.000=trigger.avi=1.000=1=0=0=StretchNoLoop==CrossFade==,
99999=-nosongbg-=1.000=0=0=0 // don't automatically add -songbackground-
;
#KEYSOUNDS:;
#ATTACKS:
;

//---------------dance-single - ----------------
#NOTEDATA:;
#CHARTNAME:X-Scale 14;
#STEPSTYPE:dance-single;
#DESCRIPTION:;
#CHARTSTYLE:;
#DIFFICULTY:Hard;
#METER:9;
#RADARVALUES:0.688005,0.924973,0.566160,0.058822,0.430134,655.000000,578.000000,77.000000,8.000000,20.000000,0.000000,2.000000,0.000000,0.000000,0.688005,0.924973,0.566160,0.058822,0.430134,655.000000,578.000000,77.000000,8.000000,20.000000,0.000000,2.000000,0.000000,0.000000;
#CREDIT:;
#NOTES:
// measure 0
0000
0000
0000
0000
,  // measure 1
0000
0000
0000
0000
,  // measure 2
0000
0000
0000
0000
,  // measure 3
0000
0000
0000
0000
,  // measure 4
1100
0000
0000
1000
0100
0000
1000
0000
0001
0000
0000
1000
0100
0000
1000
0000
,  // measure 5
0001
0010
1000
0001
0100
1000
0020
0000
,  // measure 6
0130
0010
0000
1000
0001
1000
0100
0010
0001
0000
0100
0001
0000
0000
0001
0000
,  // measure 7
0101
0000
0000
0000
0010
0000
0000
0000
1000
0010
0000
0100
0010
0000
0000
0000
,  // measure 8
0101
0001
0100
1000
0100
0001
0010
0100
,  // measure 9
1000
0000
0000
0000
0010
0000
1000
0000
0001
0000
0000
0001
0010
0000
0001
0000
,  // measure 10
1000
0100
0001
0100
1000
0010
0100
0001
,  // measure 11
1000
0000
0010
0000
0100
0000
0010
0000
1000
0000
0000
0010
1000
0000
0001
0000
,  // measure 12
0010
1000
0010
0100
1000
0001
1000
0010
,  // measure 13
0100
0010
0001
0010
1000
0001
0010
0100
,  // measure 14
1100
0000
0110
0000
0101
0000
1000
0002
,  // measure 15
0013
0000
0000
0200
0000
0000
0300
0000
0000
1000
0000
0000
0001
1000
0001
1000
0000
0000
1001
0000
0000
0010
0000
0000
,  // measure 16
0101
0000
0001
0000
1000
0000
0010
0000
1000
0000
0000
0100
0010
0000
0100
0000
,  // measure 17
1000
0000
0010
0000
0001
0000
0010
0000
0100
0000
0000
0010
0100
0000
0001
0000
,  // measure 18
1000
0000
0100
0000
0010
0000
0100
0000
1000
0000
0000
0001
1000
0000
0001
0000
,  // measure 19
0010
0000
1000
0000
0010
0000
0001
0000
1000
0000
0000
0010
1000
0000
0001
0000
,  // measure 20
0010
0100
0010
0100
0010
0100
0010
0100
1000
0001
1000
0001
1000
0001
1000
0001
,  // measure 21
0100
0010
0100
0010
0100
0010
0100
0010
1000
0001
1000
0001
1000
0001
1000
0001
,  // measure 22
0010
0100
0010
0100
0010
0100
0010
0100
1000
0010
1000
0010
1000
0010
1000
0010
,  // measure 23
1010
0000
0000
0000
0110
0000
0000
0000
1000
0100
0010
0001
1000
0100
0010
0001
,  // measure 24
4000
0400
0000
0000
0000
0000
0000
0000
3300
0000
1000
0000
0001
0000
0010
0000
,  // measure 25
0011
0000
0011
0000
0011
0010
0100
1000
,  // measure 26
1010
0000
0000
0000
0101
0000
0000
0001
1000
0000
0001
0000
0010
0000
0100
0000
,  // measure 27
1010
0000
1010
0000
1010
0001
0010
0001
,  // measure 28
1000
0000
0010
0000
0100
0000
0000
0010
0100
0000
0001
0000
0010
0000
0001
0000
,  // measure 29
0011
0000
0011
0000
0011
0010
0100
1000
,  // measure 30
1010
0000
0000
0000
0101
0000
0000
1000
0001
0000
1000
0000
0100
0000
0010
0000
,  // measure 31
0000
0000
0000
0100
0000
0000
0010
0000
0000
0001
0000
0000
1000
0001
1000
0001
0000
0000
0010
0000
0000
0100
0000
0000
,  // measure 32
0110
0010
0100
1000
M001
M010
MM1M
1000
,  // measure 33
1010
0000
0000
0000
1010
0000
0000
0000
1010
0000
0000
0110
0000
0000
0101
0000
,  // measure 34
0100
0000
1000
0000
0100
0000
0001
0000
0010
0000
0100
0000
1000
0100
1000
0000
,  // measure 35
1100
0000
0000
0000
1100
0000
0000
0000
1100
0000
0000
0110
0000
0000
0011
0000
,  // measure 36
1000
0000
0001
0000
0010
0000
1000
0000
0010
0000
0001
0000
1000
0001
1000
0000
,  // measure 37
1001
0000
0000
0000
1001
0000
0000
0000
1001
0000
0000
0110
0000
0000
1001
0000
,  // measure 38
1000
0000
0010
0000
0100
0000
1000
0000
0100
0000
0001
0000
0010
0001
0010
0000
,  // measure 39
0011
0000
0000
0000
0011
0000
0000
0000
0011
0000
0000
1001
0000
0000
1010
0000
,  // measure 40
1000
0000
0001
0000
0010
0000
1000
0000
M001
0000
010M
0000
2MMM
0000
0000
3000
,  // measure 41
1000
0100
0000
1000
0001
0000
0010
0000
0101
0000
0000
0000
0001
0000
1000
0000
,  // measure 42
0100
1000
0000
0100
1000
0000
0001
0000
1001
0000
1000
0000
0100
0000
0010
0000
,  // measure 43
0001
1000
0010
1000
0010
0100
0001
0100
0001
0010
0100
0010
0100
1000
0001
1000
,  // measure 44
0002
0000
0000
0003
1000
0000
0010
0000
2000
0000
0000
3010
1000
0010
1000
0010
,  // measure 45
1010
0000
0110
0010
0101
0100
1000
0100
,  // measure 46
0001
0010
0100
1000
0001
1000
0010
0100
,  // measure 47
0001
0010
0001
0010
0100
1000
0100
1000
0001
0100
0001
0100
0010
1000
0010
1000
,  // measure 48
0001
0000
0001
0000
0001
0000
0001
0000
1000
0000
1000
0000
1010
0000
0002
0003
,  // measure 49
0010
0000
0000
0100
0000
0000
0010
0000
0100
0000
0000
1000
0000
0100
1000
0000
,  // measure 50
0001
0010
1000
0010
0001
0010
0100
1000
,  // measure 51
0010
0000
0000
0100
0000
0000
0010
0000
0100
0000
0000
0001
0000
1000
0001
0000
,  // measure 52
1000
0100
0001
0010
1000
0001
1001
0000
,  // measure 53
1100
0000
1000
0000
0100
0000
0010
0000
0001
0000
0000
1000
0001
0000
0100
0000
,  // measure 54
0010
0000
0001
0000
0010
0000
1000
0000
0010
0000
0000
1000
0001
0000
0010
0000
,  // measure 55
0100
0000
0000
0010
0100
0010
0100
0000
1000
0000
0000
0001
1000
0001
1000
0000
,  // measure 56
0010
0000
0100
0000
0010
0000
0100
0000
0001
0100
0010
1000
0001
0100
0010
1000
,  // measure 57
0001
0000
1000
0000
0010
0000
0001
0000
0010
0000
0000
0100
0000
0010
0100
0000
,  // measure 58
0110
0000
0100
0000
0010
0000
0100
0000
0010
0000
0000
1000
0001
0000
0010
0000
,  // measure 59
0100
0000
0010
0000
0001
0000
0100
0010
0100
0000
0000
0100
0010
0000
1000
0000
,  // measure 60
1010
0000
0010
0000
0001
0000
0010
0000
1000
0000
0000
0001
0010
0000
0100
0000
,  // measure 61
0010
0000
0001
0000
1000
0000
0010
1000
0010
0000
0000
0010
0100
0000
0001
0000
,  // measure 62
0101
0000
0001
0000
1000
0000
0001
0000
0010
0000
0000
0100
0010
0000
0100
0000
,  // measure 63
1000
0000
0001
0000
1000
0000
0010
1000
0010
0000
0000
0010
0100
0000
0001
0000
,  // measure 64
0011
0000
0000
0001
0000
0000
0010
0000
0000
0001
0000
0000
1000
0001
1000
0001
0000
0000
0010
0000
0000
0100
0000
0000
,  // measure 65
1010
0001
1000
0010
100M
010M
M1MM
0001
,  // measure 66
0101
0000
0000
0000
0101
0000
0000
0000
0101
0000
0000
0110
0000
0000
1100
0000
,  // measure 67
1000
0000
0100
0000
0001
0000
1000
0000
0010
0000
0001
0000
1000
0001
1000
0000
,  // measure 68
1001
0000
0000
0000
1001
0000
0000
0000
1001
0000
0000
1100
0000
0000
0101
0000
,  // measure 69
0001
0000
0100
0000
1000
0000
0001
0000
0010
0000
1000
0000
0001
1000
0001
0000
,  // measure 70
0011
0000
0000
0000
0011
0000
0000
0000
0011
0000
0000
0110
0000
0000
1010
0000
,  // measure 71
1000
0000
0010
0000
0001
0000
1000
0000
0100
0000
0001
0000
1000
0001
1000
0000
,  // measure 72
1100
0000
0000
0000
1100
0000
0000
0000
1100
0000
0000
0110
0000
0000
1001
0000
,  // measure 73
0001
0010
1000
0001
010M
1M00
MMM2
0000
,  // measure 74
0003
0000
0000
0000
;

//---------------dance-single - ----------------
#NOTEDATA:;
#CHARTNAME:X-Scale 11;
#STEPSTYPE:dance-single;
#DESCRIPTION:;
#CHARTSTYLE:;
#DIFFICULTY:Medium;
#METER:8;
#RADARVALUES:0.476877,0.489691,0.352931,0.330873,0.110291,454.000000,406.000000,48.000000,45.000000,0.000000,0.000000,0.000000,0.000000,0.000000,0.476877,0.489691,0.352931,0.330873,0.110291,454.000000,406.000000,48.000000,45.000000,0.000000,0.000000,0.000000,0.000000,0.000000;
#CREDIT:;
#NOTES:
// measure 0
0000
0000
0000
0000
,  // measure 1
0000
0000
0000
0000
,  // measure 2
0000
0000
0000
0000
,  // measure 3
0000
0000
0000
0000
,  // measure 4
0101
0000
0100
0001
1000
0000
0010
1000
,  // measure 5
0001
0000
0010
0000
0100
0010
0002
0000
,  // measure 6
1003
0000
0000
0000
0010
0000
0000
0000
1000
0001
0000
0000
0001
0000
0010
0000
,  // measure 7
0011
0000
0000
0000
0010
0000
0000
0000
0100
0010
0000
0000
0110
0000
0000
0000
,  // measure 8
1001
0000
1000
0100
1000
0000
0001
0100
,  // measure 9
0001
0000
0000
0000
1000
0000
0100
0000
0010
0000
0000
0001
0000
0000
0010
0000
,  // measure 10
0001
0000
0100
0010
0100
0000
0001
1000
,  // measure 11
0001
0000
0010
0000
1000
0000
0010
0000
0001
0000
0000
1000
0000
0000
0010
0000
,  // measure 12
1000
0000
0001
0010
0001
0000
1000
0010
,  // measure 13
1000
0000
0000
0000
0100
0000
0010
0000
0100
0000
0000
1000
0000
0000
0001
0000
,  // measure 14
1001
0000
0110
0000
1001
0000
0001
0010
,  // measure 15
0100
0000
0000
0000
0010
0000
0100
0000
1000
0000
0000
0001
0000
0000
1000
0000
,  // measure 16
1002
0000
0003
0020
0000
0030
0002
0000
,  // measure 17
1003
0100
0001
0100
0010
0001
1000
0001
,  // measure 18
0200
0000
0300
0020
0000
0030
2000
0000
,  // measure 19
3001
0100
0001
0100
0001
0000
1000
0001
,  // measure 20
2000
0000
3000
0200
0000
0300
2000
0000
,  // measure 21
3001
0100
1000
0100
0001
0010
0100
1000
,  // measure 22
0002
0000
0103
0020
0000
0030
2000
0000
,  // measure 23
3002
0023
0230
1000
,  // measure 24
1300
0000
0000
0000
0100
0000
0000
0000
1000
0001
0000
0000
1001
0000
0000
0000
,  // measure 25
0011
0000
0010
0000
0010
0100
1000
0001
,  // measure 26
1000
0000
0000
0000
0010
0000
0000
0100
0010
0000
0000
0100
0000
0000
0001
0000
,  // measure 27
0101
0000
0100
0000
0100
0010
1000
0002
,  // measure 28
0003
0000
0020
0000
0001
0000
0000
0000
0130
0000
0000
0010
0000
0000
0100
0000
,  // measure 29
0110
0000
0010
0000
0010
0001
1000
0001
,  // measure 30
0100
0000
0000
0000
0010
0000
0000
1000
0010
0000
0000
0100
0000
0000
0001
0000
,  // measure 31
0010
1000
0010
0100
1000
0001
1000
0010
,  // measure 32
1010
0000
0000
0000
0001
0001
0011
0000
,  // measure 33
1010
0000
0000
0000
1000
0000
0000
0000
1010
0000
0000
0001
0000
0000
1000
0000
,  // measure 34
0010
0100
1000
0100
0001
1000
0200
0000
,  // measure 35
0310
0000
0000
0000
0110
0000
0000
0000
0100
0000
0000
1000
0000
0000
0001
0000
,  // measure 36
0010
1000
0010
0001
1000
0100
0020
0000
,  // measure 37
0031
0000
0000
0000
0101
0000
0000
0000
0100
0000
0000
0010
0000
0000
0100
0000
,  // measure 38
0001
0100
1000
0100
0010
0100
0002
0000
,  // measure 39
1003
0000
0000
0000
1001
0000
0000
0000
0001
0000
0000
0100
0000
0000
0010
0000
,  // measure 40
0100
1000
0100
0001
0010
0100
2000
0000
,  // measure 41
3001
0000
1000
0100
2000
0000
3001
0010
,  // measure 42
0100
0000
0000
0100
0000
0000
0100
0000
1000
0000
0001
0000
0100
0000
0010
0000
,  // measure 43
1000
0000
0001
0100
0020
0000
0031
0010
,  // measure 44
0200
0000
0000
0000
0301
0000
0100
0000
0001
0000
0000
0001
0000
0000
0001
0000
,  // measure 45
1001
0000
0110
0000
1002
0000
1003
0100
,  // measure 46
0010
0001
0100
0010
0100
0001
0100
0010
,  // measure 47
0200
0000
0301
0100
0020
0000
0031
0010
,  // measure 48
1000
0001
1000
0001
0010
0100
0010
0100
,  // measure 49
2000
0000
3000
0002
0000
0003
0020
0000
,  // measure 50
0030
0100
0010
0001
1000
0001
0010
0100
,  // measure 51
2000
0000
3000
0002
0000
0003
0200
0000
,  // measure 52
0310
0100
0010
0100
0020
1000
1030
0000
,  // measure 53
2001
0000
3100
0020
0001
0030
0002
1000
,  // measure 54
1003
0001
0010
1000
0010
0001
0100
0010
,  // measure 55
2000
0000
3100
0020
0001
0030
0002
0000
,  // measure 56
1003
0001
1000
0001
0010
0100
0010
0100
,  // measure 57
1000
0000
0010
0000
0001
0000
0010
0000
1000
0000
0000
0001
0000
0000
1000
0000
,  // measure 58
1001
0000
0000
0000
0110
0000
0000
0000
1001
0000
0000
0001
0000
0000
1000
0000
,  // measure 59
1100
0000
0000
0000
0101
0000
0001
0000
1000
0000
0000
0100
0000
0000
1000
0000
,  // measure 60
1100
0000
0000
0000
0110
0000
0000
0000
0011
0000
0000
0001
0000
0000
1000
0000
,  // measure 61
1001
0000
0000
0000
1100
0000
0100
0000
0010
0000
0000
0100
0000
0000
0010
0000
,  // measure 62
0101
0000
0000
0000
0110
0000
0000
0000
1010
0000
0000
0001
0000
0000
1000
0000
,  // measure 63
1001
0000
0000
0000
0011
0000
0010
0000
0100
0000
0000
0010
0000
0000
0100
0000
,  // measure 64
0110
0000
0000
0000
1001
0000
0000
0000
0110
0000
0000
0010
0000
0000
0100
0000
,  // measure 65
1010
0000
0000
0000
1000
0100
1100
0000
,  // measure 66
0101
0000
0000
0000
0001
0000
0000
0000
0101
0000
0000
0100
0000
0000
0010
0000
,  // measure 67
1000
0010
0001
0010
0100
0010
2000
0000
,  // measure 68
3010
0000
0000
0000
1010
0000
0000
0000
0010
0000
0000
0100
0000
0000
0010
0000
,  // measure 69
1000
0001
0010
0100
0010
0001
2000
0000
,  // measure 70
3100
0000
0000
0000
1100
0000
0000
0000
1000
0000
0000
0001
0000
0000
1000
0000
,  // measure 71
0010
0001
0010
1000
0100
0010
0002
0000
,  // measure 72
0013
0000
0000
0000
0011
0000
0000
0000
0001
0000
0000
1000
0000
0000
0001
0000
,  // measure 73
0010
1000
0001
0100
1000
0010
0200
0000
,  // measure 74
0300
0000
0000
0000
;

//---------------dance-single - ----------------
#NOTEDATA:;
#CHARTNAME:X-Scale 6;
#STEPSTYPE:dance-single;
#DESCRIPTION:;
#CHARTSTYLE:;
#DIFFICULTY:Easy;
#METER:4;
#RADARVALUES:0.363435,0.408076,0.110291,0.441164,0.000000,346.000000,331.000000,15.000000,60.000000,0.000000,0.000000,0.000000,0.000000,0.000000,0.363435,0.408076,0.110291,0.441164,0.000000,346.000000,331.000000,15.000000,60.000000,0.000000,0.000000,0.000000,0.000000,0.000000;
#CREDIT:;
#NOTES:
0000
0000
0000
0000
,
0000
0000
0000
0000
,
0000
0000
0000
0000
,
0000
0000
0000
0000
,
1001
0000
1000
0000
0001
1000
0001
0000
,
0010
0000
0100
0000
0010
0100
0010
0000
,
0001
0000
0100
0000
0001
0100
0001
0000
,
0101
0100
0010
2000
,
3001
1000
0100
1000
,
0002
0000
0103
0001
0010
0000
0100
0000
,
1000
0001
1000
0100
,
0010
0100
1000
0001
0200
0000
0310
0000
,
0100
0001
0100
0010
,
1000
0001
1000
0010
,
2000
3000
2000
3000
2000
3000
0100
0020
,
0000
0030
0002
0000
0003
0000
1000
0000
0020
0000
0000
0000
0230
0000
0000
0000
,
0320
0000
0030
2000
0000
3000
0002
0000
,
0103
0001
1000
0001
,
0020
0000
0030
0200
0000
0300
2000
0000
,
3001
0000
1000
0000
0001
0000
0010
0100
,
0020
0000
0030
0002
0000
0003
2000
0000
,
3010
0100
0010
1000
,
0002
0000
0013
0200
0000
0300
0020
0000
,
0032
2003
3020
0100
,
0130
0010
0100
0020
,
1030
0000
1000
0000
1000
0100
0010
0100
,
2000
0000
3002
0000
0013
0000
0010
0100
,
1000
0000
1000
0000
1000
0001
0100
0002
,
0003
2000
0000
3000
0100
0000
2000
0000
,
3001
0000
0001
0000
0001
0100
0010
0100
,
0001
0000
1000
0000
0100
0000
0010
0001
,
0000
1000
0001
0200
0001
0000
0310
0000
,
0110
0000
0000
0000
,
1001
1000
1000
0100
,
0010
0000
0100
0000
1000
0001
0200
0000
,
0310
0010
0010
0100
,
0001
0000
1000
0000
0001
0010
0200
0000
,
0310
0010
0010
0001
,
1000
0000
0010
0000
1000
0001
0020
0000
,
0130
0100
0100
1000
,
0001
0000
0100
0000
0001
1000
0020
0000
,
1030
0000
0000
1000
1020
0000
0130
0001
,
1000
0000
0000
0100
1200
0000
0310
0100
,
1000
0000
0001
1000
1001
0000
0100
0001
,
1000
0000
0001
0000
1000
1000
0000
0001
,
1001
0000
0110
0000
1001
0000
1000
0001
,
0100
0000
0010
0100
0001
0000
1000
0100
,
0010
0000
0100
0010
0001
0000
1000
0001
,
0100
0010
0100
0010
,
0210
0000
0300
0002
0000
0003
2000
0000
,
3000
0000
0100
0000
1000
0000
0001
1000
,
0200
0000
0300
0020
0000
0030
0002
0000
,
1003
0000
0001
0000
1000
0001
1001
0000
,
0110
0000
0100
0000
0001
0000
0100
0001
,
1000
0000
0100
0000
0010
0000
0100
0010
,
0001
0000
1000
0001
0100
0000
0010
0100
,
0002
2003
3002
0100
,
1003
0001
1000
0001
1000
0000
0020
0000
,
0130
0000
0100
0000
0100
0001
1000
0100
,
0020
0000
0032
0000
1003
0001
0100
0010
,
0100
0000
0100
0000
0100
0001
0010
0200
,
0300
2000
0001
3000
1000
0100
0010
0100
,
1000
0000
1000
0000
1000
0001
0100
0010
,
2000
0000
3002
0000
0103
0001
1000
0200
,
0000
0310
0100
2000
0100
0000
3001
0000
,
1001
0000
0000
0000
,
0110
0100
0100
0010
,
1000
0001
0010
0001
1000
0001
0020
0000
,
0130
0100
0100
1000
,
0001
0100
0010
0100
0001
0100
0020
0000
,
1030
1000
1000
0100
,
0010
0001
1000
0001
0010
0001
2000
0000
,
3001
0001
0001
1000
,
0100
0010
0001
0010
0100
0010
0002
0000
,
0003
0000
0000
0000
;

//---------------dance-single - ----------------
#NOTEDATA:;
#CHARTNAME:X-Scale 2;
#STEPSTYPE:dance-single;
#DESCRIPTION:;
#CHARTSTYLE:;
#DIFFICULTY:Beginner;
#METER:2;
#RADARVALUES:0.141803,0.163230,0.014705,0.000000,0.000000,135.000000,133.000000,2.000000,0.000000,0.000000,0.000000,0.000000,0.000000,0.000000,0.141803,0.163230,0.014705,0.000000,0.000000,135.000000,133.000000,2.000000,0.000000,0.000000,0.000000,0.000000,0.000000,0.000000;
#CREDIT:;
#NOTES:
0000
0000
0000
0000
,
0000
0000
0000
0000
,
0000
0000
0000
0000
,
0000
0000
0000
0000
,
0001
0000
1000
0000
,
0001
0000
1000
0000
,
0010
0000
0100
0000
,
0001
0000
0000
0000
,
1000
0000
0001
0000
,
1000
0000
0001
0000
,
0100
0000
0010
0000
,
0100
0000
0010
0000
,
1000
0000
0001
0000
,
1000
0000
0001
0000
,
0100
0000
0001
0000
,
0100
0000
0010
0000
,
1000
0000
0010
0000
,
1000
0000
0100
0000
,
0010
0000
0100
0000
,
0010
0000
0001
0000
,
1000
0000
0001
0000
,
1000
0000
0001
0000
,
0100
0000
0010
0000
,
0100
0000
0010
0000
,
1000
0000
0000
0000
,
1000
0000
0001
0000
,
1000
0000
0001
0000
,
0010
0000
0100
0000
,
0010
0000
0100
0000
,
1000
0000
0001
0000
,
1000
0000
0001
0000
,
0100
0000
0010
0000
,
1000
0000
0000
0000
,
1001
0000
1000
0000
,
0001
0000
1000
0000
,
0001
0000
0010
0000
,
0100
0000
0010
0000
,
0100
0000
1000
0000
,
0001
0000
1000
0000
,
0001
0000
0100
0000
,
0001
0000
0100
0000
,
0001
0000
0010
0000
,
0001
0000
0010
0000
,
0100
0000
1000
0000
,
0100
0000
1000
0000
,
0001
0000
1000
0000
,
0001
0000
1000
0000
,
0100
0000
0010
0000
,
0100
0000
0010
0000
,
0001
0000
0000
0000
,
0010
0000
0000
0000
,
0100
0000
0000
0000
,
1000
0000
0000
0000
,
0001
0000
1000
0000
,
0001
0000
1000
0000
,
0010
0000
0100
0000
,
0010
0000
0100
0000
,
0001
0000
1000
0000
,
0001
0000
0010
0000
,
0001
0000
0010
0000
,
0100
0000
1000
0000
,
0100
0000
1000
0000
,
0001
0000
1000
0000
,
0001
0000
0100
0000
,
0010
0000
0100
0000
,
0010
0000
0000
0000
,
1001
0000
1000
0000
,
0001
0000
1000
0000
,
0001
0000
0100
0000
,
0010
0000
0100
0000
,
0010
0000
1000
0000
,
0001
0000
1000
0000
,
0001
0000
0010
0000
,
0100
0000
0010
0000
,
0100
0000
0000
0000
;
