#TITLE:take me higher;
#SUBTITLE:;
#ARTIST:KOTONOHOUSE;
#TITLETRANSLIT:;
#SUBTITLETRANSLIT:;
#ARTISTTRANSLIT:;
#GENRE:Jersey Club;
#CREDIT:;
#BANNER:take me higher-bn.png;
#BACKGROUND:take me higher-bg.png;
#LYRICSPATH:;
#CDTITLE:cdtitle.png;
#MUSIC:take me higher.ogg;
#OFFSET:-0.005000;
#SAMPLESTART:27.434000;
#SAMPLELENGTH:13.714000;
#SELECTABLE:YES;
#DISPLAYBPM:70.000000:140.000000;
#BPMS:0.000000=140.000000
,42.000000=280.000000
,42.500000=140.000000
,42.750000=70.000000
,43.000000=280.000000
,43.500000=140.000000
,43.750000=70.000000
,44.000000=140.000000
,56.000000=70.000000
,58.000000=140.000000
,121.000000=280.000000
,121.500000=140.000000
,121.750000=70.000000
,122.000000=140.000000
,154.000000=70.000000
,162.000000=140.000000
,174.000000=70.000000
,176.000000=140.000000
;
#STOPS:24.000000=0.429000,
24.500000=0.429000,
25.000000=0.429000,
25.500000=0.429000
;
#BGCHANGES:;
#KEYSOUNDS:;
#ATTACKS:;

//---------------dance-single - ----------------
#NOTES:
     dance-single:
     X-Scale 15:
     Hard:
     10:
     0.748216,0.873526,0.355240,0.100196,0.874436,575.000000,536.000000,39.000000,11.000000,8.000000,0.000000,0.748216,0.873526,0.355240,0.100196,0.874436,575.000000,536.000000,39.000000,11.000000,8.000000,0.000000:
// measure 0
0000
0000
0000
0000
,  // measure 1
0000
0000
0000
0000
,  // measure 2
0000
0000
0000
0000
,  // measure 3
0000
0000
0000
0000
,  // measure 4
1001
0000
0000
0000
1000
0000
0100
1000
0000
0001
0000
0010
0000
0001
0000
0200
,  // measure 5
0000
0000
0300
0010
0100
0000
0001
0000
1000
0000
0000
0000
0100
0000
0010
0000
,  // measure 6
0101
1010
0110
1001
1100
1000
0100
0010
,  // measure 7
0101
0000
0000
0000
0100
0000
0010
0000
1000
0000
0000
0001
0000
0000
1000
0000
,  // measure 8
0100
0000
0010
0000
0001
0000
1000
0000
0010
0000
0000
0100
0000
0000
0010
0000
,  // measure 9
1000
0000
0100
0000
0001
0000
0100
0000
1000
0000
0000
0010
0000
0000
0200
0000
,  // measure 10
0000
0000
0000
0300
0020
0000
0000
0030
MMMM
0000
0000
0000
MMMM
0000
0000
0000
,  // measure 11
0011
0001
1000
0001
,  // measure 12
0010
0000
0001
0000
1000
0100
2000
0000
,  // measure 13
3010
0000
1000
0000
0001
0000
0010
0000
0100
0010
0001
1000
0100
0010
0002
0100
,  // measure 14
0000
0000
0000
0003
0200
0000
0000
0300
0010
0000
0010
0000
1000
0000
0001
1000
1001
0000
0000
0000
0001
0000
0010
0000
0001
0000
0000
0000
1000
0000
0001
0000
,  // measure 15
0100
0000
0010
0100
0000
0010
0000
1000
0100
0010
0100
1000
0001
0000
0100
0001
,  // measure 16
0101
0000
0000
0110
0000
0000
1010
0000
1001
0000
1000
0001
0100
0000
0010
0100
,  // measure 17
0000
0001
0000
0010
0001
0000
1000
0010
0100
0001
0000
0100
0001
1000
0001
0100
,  // measure 18
0010
0000
0100
0000
0001
0000
0100
0001
0100
0000
0001
1000
0010
0000
1000
0100
,  // measure 19
0000
1000
0000
0001
0000
0010
0000
0001
0100
0010
1000
0001
0010
0100
1000
0010
,  // measure 20
1010
0000
0000
0110
0000
0000
0101
0000
0011
0000
0010
0001
1000
0000
0100
0010
,  // measure 21
0001
1000
0001
0000
0010
0000
0100
0010
0100
1000
0100
0000
1000
0001
0100
0001
,  // measure 22
1000
0000
0100
0000
0001
0000
0100
0000
1100
0000
1000
0100
1000
0000
0001
0010
,  // measure 23
0100
1000
0010
0100
0000
0010
0000
0100
0001
1000
0001
0010
0100
0000
1000
0100
,  // measure 24
1100
0000
0000
1010
0000
0000
0011
0000
1001
0000
0001
0010
0100
0000
0010
0100
,  // measure 25
1000
0001
1000
0010
0000
0000
0100
0010
0100
0001
0010
0000
0100
0010
0001
1000
,  // measure 26
0001
0000
0010
0000
1000
0000
0010
0100
1000
0000
0010
1000
0001
0000
0010
0001
,  // measure 27
1000
0000
0100
1000
0000
0001
0000
0010
0100
0000
0010
0001
0010
0000
0001
1000
,  // measure 28
1001
0000
0000
1010
0000
0000
0110
0000
0101
0000
0001
0010
0100
0000
0010
0100
,  // measure 29
1000
0000
0001
0000
0100
0000
0010
0100
0001
0010
0100
0000
1000
0100
0010
0100
,  // measure 30
1000
0000
0010
0000
2000
0000
0000
3000
1001
0000
0000
0000
1000
0000
0100
0000
,  // measure 31
0010
0000
0000
0100
0000
0000
0010
0000
0001
0000
0000
0000
0100
0000
0010
0000
,  // measure 32
0100
0000
0000
0001
0000
0000
0100
0000
0010
0000
0100
0000
1000
0000
0100
0000
,  // measure 33
0010
0000
0000
0100
0000
0000
0010
0000
1000
0000
0000
0000
0001
0000
0010
0000
,  // measure 34
0100
0000
0000
1000
0000
0000
0001
0000
1001
0000
0000
0000
1000
0000
0100
0000
,  // measure 35
0010
0000
0000
0100
0000
0000
1000
0000
0001
0000
0000
0000
0100
0000
0010
0000
,  // measure 36
0100
0000
0000
0001
0000
0000
0010
0000
0100
0000
0000
0000
1000
0000
0001
0000
,  // measure 37
0100
0000
0000
0010
0000
0000
0100
0000
0001
0000
0010
0000
1000
0000
0100
0000
,  // measure 38
0002
1000
2003
0001
3002
1000
0100
0010
,  // measure 39
0100
0000
0000
0000
1000
0000
0000
0000
0013
0000
0000
0000
0001
0000
0000
0000
0200
0000
0000
0000
0310
0100
0001
1000
0100
0010
0001
1000
0010
0100
0001
0010
,  // measure 40
0001
0000
0100
0000
1000
0000
0100
0000
0001
0000
0001
0000
1000
0000
0100
1000
1100
0000
0000
0000
0000
0000
0000
0000
1001
0000
0000
0000
0000
0000
0000
0000
,  // measure 41
0101
0110
1001
1100
,  // measure 42
0101
0000
0011
0000
1000
0001
0100
0010
,  // measure 43
1000
0100
0010
0001
1000
0100
0010
0001
0000
1000
0001
0100
0010
0000
1000
0000
,  // measure 44
1001
1000
0001
1000
0000
0100
0010
0001
1000
0000
0100
1000
0000
0100
0010
0000
,  // measure 45
0100
1000
0001
1000
0000
0010
0100
0010
1000
0000
0100
0010
0000
0001
0010
0000
,  // measure 46
0001
0100
0010
0100
0000
0001
0010
0100
1000
0000
0010
0100
0000
0010
1000
0000
,  // measure 47
0100
0010
0001
1000
0000
0010
1000
0001
0010
0000
0100
0000
0010
0000
0100
0000
,  // measure 48
1010
0000
0000
1000
0100
0000
0100
0000
0010
0100
0010
0000
0001
0010
0100
0010
,  // measure 49
0001
0000
0000
1000
0100
0000
0100
0000
0010
0100
1000
0000
0001
1000
0100
1000
,  // measure 50
0001
0000
0000
0010
0100
0000
0100
0000
1000
0001
0100
0000
0010
0100
0001
0100
,  // measure 51
0010
0000
0000
1000
0001
0000
0001
0000
0100
0010
1000
0000
0001
0010
0100
0010
,  // measure 52
0001
1000
0001
0100
0000
0010
0100
0001
1000
0000
0100
1000
0000
0001
1000
0010
,  // measure 53
1000
0100
0010
0001
0000
1000
0001
0100
0010
0000
0100
0001
0000
0010
0100
1000
,  // measure 54
0001
1000
0010
0100
0000
0001
1000
0010
0100
0000
0001
1000
0000
0100
0010
0000
,  // measure 55
0100
1000
0001
1000
0000
0010
1000
0001
0100
0000
0010
0000
0100
0000
0010
0000
,  // measure 56
0101
0000
0000
0001
1000
0000
1000
0000
0001
0100
0010
0000
1000
0100
0010
0100
,  // measure 57
1000
0000
0000
0001
0010
0000
0010
0000
0100
0010
0001
0000
1000
0010
0100
0010
,  // measure 58
1000
0000
0000
0001
0100
0000
0100
0000
0010
0100
0001
0000
0010
0100
1000
0001
,  // measure 59
1000
0000
0000
0010
0100
0000
0100
0000
0001
0010
0100
1000
0010
0100
0001
1000
;

//---------------dance-single - ----------------
#NOTES:
     dance-single:
     X-Scale 12:
     Medium:
     8:
     0.555631,0.655827,0.236827,0.191283,0.296033,427.000000,401.000000,26.000000,21.000000,0.000000,0.000000,0.555631,0.655827,0.236827,0.191283,0.296033,427.000000,401.000000,26.000000,21.000000,0.000000,0.000000:
// measure 0
0000
0000
0000
0000
,  // measure 1
0000
0000
0000
0000
,  // measure 2
0000
0000
0000
0000
,  // measure 3
0000
0000
0000
0000
,  // measure 4
0011
0000
0000
0000
0001
0000
0000
0000
1000
0000
0000
0100
0000
0000
1000
0000
,  // measure 5
0001
0000
0000
0000
0010
0000
0000
0000
0100
0000
0000
0010
0000
0000
0100
0000
,  // measure 6
1000
0001
1000
0001
0010
0100
1000
0000
,  // measure 7
1100
0100
1000
0100
0020
0000
0031
0010
,  // measure 8
1000
0010
0002
0000
1003
0100
0010
0002
,  // measure 9
0000
0003
2000
3000
0001
1000
0100
2000
,  // measure 10
0000
3000
0002
0003
0010
0000
0100
0000
,  // measure 11
0110
0010
0100
0010
,  // measure 12
0001
1000
0001
0010
,  // measure 13
0100
1000
0001
1000
0100
1000
0001
2000
,  // measure 14
0000
0000
3002
0003
0010
0100
0010
0000
0110
0000
0100
0000
1000
0000
0001
0000
,  // measure 15
1000
0000
0000
0100
0000
0000
1000
0000
0001
0000
0010
0000
0001
0000
1000
0000
,  // measure 16
0100
0000
0000
0010
0000
0000
0100
0000
0010
0000
0001
0000
1000
0000
0001
0000
,  // measure 17
0100
0000
0000
0010
0000
0000
0100
0000
0001
0000
1000
0000
0001
0000
0100
0000
,  // measure 18
0010
0000
0000
0100
0000
0000
0001
1000
0001
0000
0010
0000
1000
0000
0010
0000
,  // measure 19
0001
0000
0000
0100
0010
0100
0000
0001
1000
0000
0100
0000
0010
0000
0100
0000
,  // measure 20
1000
0000
0000
0010
1000
0000
0001
0000
0010
0000
0000
0001
1000
0000
0100
0000
,  // measure 21
0010
0000
0100
0000
1000
0000
0001
0000
0100
0010
0100
0000
0001
0100
0001
0100
,  // measure 22
0001
0010
0100
1000
1100
0100
1000
0001
,  // measure 23
0100
0000
0000
0010
0100
0010
0000
1000
0001
0000
1000
0000
0010
0000
0100
0000
,  // measure 24
0001
0000
0000
1000
0001
0000
0010
0000
0100
0000
0010
0000
0001
0000
1000
0000
,  // measure 25
0010
0000
0000
0100
0010
0000
1000
0100
1000
0000
0001
0000
0010
0000
1000
0000
,  // measure 26
0010
0000
0001
0000
1000
0000
0010
1000
0001
0000
0100
0000
1000
0000
0100
0000
,  // measure 27
0001
0000
0000
1000
0010
1000
0000
0100
0010
0000
0100
0000
1000
0000
0001
0000
,  // measure 28
1000
0000
0000
0100
0010
0000
0001
0000
1000
0000
0001
0000
0100
0000
0001
0000
,  // measure 29
1000
0000
1000
0000
0010
0000
0100
0010
0100
0010
0100
0000
0001
0100
0010
0100
,  // measure 30
0001
1000
1001
0000
1001
0000
0001
0100
,  // measure 31
0010
0000
0000
0100
0000
0000
0020
0000
1000
0000
0000
0000
0030
0000
0100
0000
,  // measure 32
0001
0000
0000
1000
0000
0000
0200
0000
0000
0000
0310
0000
0100
0000
1000
0000
,  // measure 33
0001
0000
0000
0010
0000
0000
0200
0000
0020
0000
0300
0000
0030
0000
0000
0000
,  // measure 34
0001
0000
0000
1000
0000
0000
0020
0000
1000
0000
0000
0000
0030
0000
0000
0000
,  // measure 35
0010
0000
0000
1000
0000
0000
0002
0000
0010
0000
0000
0000
0003
0000
0001
0000
,  // measure 36
1000
0000
0000
0010
0000
0000
2000
0000
0000
0000
3100
0000
1000
0000
0001
0000
,  // measure 37
0100
0000
0000
0001
0000
0000
2000
0000
0000
0000
3100
0000
0010
0000
0001
0000
,  // measure 38
1000
0000
0001
0000
2001
0100
0001
0010
,  // measure 39
0001
0100
3001
1000
2000
3100
0010
0001
,  // measure 40
1000
0001
0100
0010
1000
0000
0100
0000
1020
0000
0000
0000
0001
0000
0000
0000
,  // measure 41
0100
0001
1000
0001
,  // measure 42
0130
0000
0010
0000
1000
0100
0010
0001
,  // measure 43
1000
0001
1000
0001
1000
0001
1000
0001
1000
0000
0000
0000
0000
0000
1001
0000
,  // measure 44
1001
0000
1000
0000
0100
0000
0010
0000
0100
0000
0000
1000
0100
0000
1000
0000
,  // measure 45
0001
0000
0100
0000
0010
0000
0100
0000
0001
0000
0000
0010
0100
0000
0010
0000
,  // measure 46
0100
0000
1000
0000
0001
0000
0100
0000
0010
0000
0000
0100
0001
0000
0100
0000
,  // measure 47
0010
1000
0100
0010
0001
0000
0010
0000
,  // measure 48
0101
0000
0000
0001
0100
0000
0100
0000
0000
0010
0100
0000
0001
0000
1000
0000
,  // measure 49
0100
0000
0000
0010
0001
0000
0001
0000
0100
0001
0100
0000
0010
0000
1000
0000
,  // measure 50
0001
0000
0000
0100
0010
0000
0010
0000
0000
1000
0100
0000
1000
0000
0001
0000
,  // measure 51
1000
0000
0000
0010
0100
0000
0100
0000
0001
0000
1000
0000
1000
0000
0010
1000
,  // measure 52
0010
0000
1000
0000
0001
0000
1000
0000
1100
0000
0000
1001
0000
0000
0101
0000
,  // measure 53
0101
0000
0100
0000
1000
0000
0100
0000
1010
0000
0000
1100
0000
0000
0011
0000
,  // measure 54
0011
0000
0010
0000
0100
0000
1000
0000
1001
0000
0000
0110
0000
0000
1100
0000
,  // measure 55
1100
0100
0001
0100
1000
0010
0100
0010
,  // measure 56
1001
0000
0000
1000
0100
0000
0100
0000
0010
0100
0010
0000
0001
0000
0100
0000
,  // measure 57
0001
0000
0000
0010
0100
0000
0100
0000
1000
0100
1000
0000
0001
0000
0100
0000
,  // measure 58
0010
0000
0000
1000
0100
0000
0100
0000
0010
0100
0010
0000
0001
0000
1000
0000
,  // measure 59
0001
0000
0000
0100
0010
0000
0010
0000
2002
0000
0000
0000
0000
0000
0003
0000
,  // measure 60
3000
0000
0000
0000
;

//---------------dance-single - ----------------
#NOTES:
     dance-single:
     X-Scale 6:
     Easy:
     4:
     0.330516,0.382566,0.173066,0.063761,0.000000,254.000000,235.000000,19.000000,7.000000,0.000000,0.000000,0.330516,0.382566,0.173066,0.063761,0.000000,254.000000,235.000000,19.000000,7.000000,0.000000,0.000000:
// measure 0
0000
0000
0000
0000
,  // measure 1
0000
0000
0000
0000
,  // measure 2
0000
0000
0000
0000
,  // measure 3
0000
0000
0000
0000
,  // measure 4
1100
0000
1000
0000
0100
0000
0010
0100
,  // measure 5
0010
0000
0001
0000
1000
0000
0001
1000
,  // measure 6
0001
0000
0010
0000
0100
0010
0001
0000
,  // measure 7
0101
0100
0010
0100
,  // measure 8
0001
0010
0100
0000
1000
0000
0001
0000
,  // measure 9
1000
0000
0100
0000
0010
0000
0001
0200
,  // measure 10
0000
0300
0020
0030
0000
0000
0000
0000
,  // measure 11
1001
1000
0001
1000
,  // measure 12
0001
0010
0100
0010
,  // measure 13
0100
0000
1000
0000
0100
1000
0001
2000
,  // measure 14
0000
3200
0300
0000
1100
0000
1000
0000
,  // measure 15
0001
0000
0011
0010
,  // measure 16
0100
0000
1001
1000
,  // measure 17
0001
0000
0011
0010
,  // measure 18
0100
1000
0100
0000
1100
0000
1000
0000
,  // measure 19
0001
0000
0100
0001
0100
0000
0010
0000
,  // measure 20
1000
0000
0010
1000
0010
0000
0100
0000
,  // measure 21
0010
0000
1000
0010
1000
0000
0001
0000
,  // measure 22
1000
0100
0010
0000
0101
0000
0001
0000
,  // measure 23
1000
0010
1000
0000
0001
0000
0010
0000
,  // measure 24
0100
0010
0100
0000
1000
0000
0001
0000
,  // measure 25
1000
0010
1000
0000
0100
0000
0010
0000
,  // measure 26
0001
0010
0001
0000
1000
0000
0010
0000
,  // measure 27
0100
0010
0100
0000
0001
0000
0010
0000
,  // measure 28
0100
0010
0100
0000
1000
0000
0001
0000
,  // measure 29
1000
0010
1000
0000
1001
0000
0000
0000
,  // measure 30
0110
0000
1001
0000
,  // measure 31
0001
0000
0100
0000
,  // measure 32
0001
0000
0010
0000
,  // measure 33
0100
0000
1000
0000
,  // measure 34
0001
0000
1001
0000
,  // measure 35
0100
0000
1000
0000
,  // measure 36
0001
0000
0100
0000
,  // measure 37
0010
0000
0100
0000
,  // measure 38
0001
1000
1001
1000
,  // measure 39
0100
0000
0010
0001
0010
0000
0001
0000
,  // measure 40
1000
0010
1000
0001
1001
0000
1000
0000
,  // measure 41
0100
1000
0100
0010
,  // measure 42
0001
0010
0001
1000
,  // measure 43
0002
0000
0003
0000
,  // measure 44
1001
0000
1000
0000
0100
0000
1000
0100
,  // measure 45
1000
0000
0001
0000
0100
0000
0010
0100
,  // measure 46
0010
0000
1000
0000
0100
0000
0010
0100
,  // measure 47
0010
0001
1000
0001
,  // measure 48
1001
0000
1000
0100
1000
0000
0100
0000
,  // measure 49
0010
0000
0001
0010
0001
0000
1000
0000
,  // measure 50
0010
0000
0100
0010
0100
0000
0001
0000
,  // measure 51
0010
0000
0100
0010
0200
0000
1000
0300
,  // measure 52
1100
0000
1000
0000
0001
0000
0100
0001
,  // measure 53
0100
0000
0010
0000
0100
0000
0001
0100
,  // measure 54
0001
0000
0010
0000
0100
0000
1000
0100
,  // measure 55
1000
0100
0010
0001
,  // measure 56
0011
0000
0001
1000
0001
0010
0100
0000
,  // measure 57
0010
0000
0001
0010
0100
0010
0001
0000
,  // measure 58
1000
0000
0010
0100
0001
0100
0010
0000
,  // measure 59
1000
0000
0100
0010
0002
0000
0000
0000
,  // measure 60
0003
0000
0000
0000
;
