#VERSION:0.83;
#TITLE:ただdance in the dark;
#SUBTITLE:;
#ARTIST:TDJ & Peterparker69;
#TITLETRANSLIT:tada dance in the dark;
#SUBTITLETRANSLIT:;
#ARTISTTRANSLIT:;
#GENRE:Progressive Trance;
#ORIGIN:;
#CREDIT:;
#BANNER:tada dance in the dark-bn.png;
#BACKGROUND:tada dance in the dark-bg.png;
#PREVIEWVID:;
#JACKET:tada dance in the dark-jacket.png;
#CDIMAGE:;
#DISCIMAGE:;
#LYRICSPATH:;
#CDTITLE:cdtitle.png;
#MUSIC:tada dance in the dark.ogg;
#OFFSET:-0.006000;
#SAMPLESTART:73.851997;
#SAMPLELENGTH:14.769000;
#SELECTABLE:YES;
#BPMS:0.000=130.000;
#STOPS:;
#DELAYS:;
#WARPS:;
#TIMESIGNATURES:0.000=4=4;
#TICKCOUNTS:0.000=4;
#COMBOS:0.000=1;
#SPEEDS:0.000=1.000=0.000=0;
#SCROLLS:0.000=1.000;
#FAKES:;
#LABELS:0.000=Song Start;
#BGCHANGES:0.000=tada dance in the dark.avi=1.000=1=0=0=StretchNoLoop==CrossFade==,
99999=-nosongbg-=1.000=0=0=0 // don't automatically add -songbackground-
;
#KEYSOUNDS:;
#ATTACKS:
;

//---------------dance-single - ----------------
#NOTEDATA:;
#CHARTNAME:X-Scale 2;
#STEPSTYPE:dance-single;
#DESCRIPTION:;
#CHARTSTYLE:;
#DIFFICULTY:Beginner;
#METER:1;
#RADARVALUES:0.092040,0.158142,0.021964,0.000000,0.000000,88.000000,85.000000,3.000000,0.000000,0.000000,0.000000,0.000000,0.000000,0.000000,0.092040,0.158142,0.021964,0.000000,0.000000,88.000000,85.000000,3.000000,0.000000,0.000000,0.000000,0.000000,0.000000,0.000000;
#CREDIT:iamthek3n;
#NOTES:
// measure 0
0000
0000
0000
0000
,  // measure 1
0000
0000
0000
0000
,  // measure 2
0000
0000
0000
0000
,  // measure 3
0000
0000
0000
0000
,  // measure 4
0000
0000
0000
0000
,  // measure 5
0000
0000
0000
0000
,  // measure 6
0000
0000
0000
0000
,  // measure 7
0000
0000
0000
0000
,  // measure 8
1000
0000
0001
0000
,  // measure 9
1000
0000
0001
0000
,  // measure 10
0100
0000
0010
0000
,  // measure 11
0100
0000
0010
0000
,  // measure 12
1000
0000
0001
0000
,  // measure 13
1000
0000
0001
0000
,  // measure 14
0010
0000
0100
0000
,  // measure 15
0010
0000
0100
0000
,  // measure 16
1001
0000
0000
0000
,  // measure 17
0001
0000
0000
0000
,  // measure 18
1000
0000
0000
0000
,  // measure 19
0100
0000
0000
0000
,  // measure 20
1000
0000
0000
0000
,  // measure 21
0001
0000
0000
0000
,  // measure 22
0100
0000
0000
0000
,  // measure 23
0001
0000
0000
0000
,  // measure 24
1000
0000
0000
0000
,  // measure 25
0100
0000
0000
0000
,  // measure 26
0010
0000
0000
0000
,  // measure 27
0001
0000
0000
0000
,  // measure 28
0100
0000
0000
0000
,  // measure 29
0010
0000
0000
0000
,  // measure 30
1000
0000
0000
0000
,  // measure 31
0001
0000
0000
0000
,  // measure 32
0100
0000
0000
0000
,  // measure 33
0001
0000
0000
0000
,  // measure 34
1000
0000
0000
0000
,  // measure 35
0001
0000
0000
0000
,  // measure 36
0100
0000
0000
0000
,  // measure 37
0001
0000
0000
0000
,  // measure 38
1000
0000
0000
0000
,  // measure 39
0001
0000
0000
0000
,  // measure 40
1001
0000
1000
0000
,  // measure 41
0100
0000
1000
0000
,  // measure 42
0001
0000
1000
0000
,  // measure 43
0100
0000
1000
0000
,  // measure 44
0001
0000
0100
0000
,  // measure 45
0001
0000
1000
0000
,  // measure 46
0001
0000
0100
0000
,  // measure 47
0000
0000
0000
0000
,  // measure 48
0001
0000
0010
0000
,  // measure 49
0100
0000
0010
0000
,  // measure 50
0001
0000
0010
0000
,  // measure 51
0100
0000
1000
0000
,  // measure 52
0001
0000
0100
0000
,  // measure 53
0001
0000
1000
0000
,  // measure 54
0001
0000
0100
0000
,  // measure 55
0000
0000
0000
0000
,  // measure 56
0001
0000
0000
0000
,  // measure 57
1000
0000
0000
0000
,  // measure 58
0001
0000
0000
0000
,  // measure 59
1000
0000
0000
0000
,  // measure 60
0100
0000
0000
0000
,  // measure 61
0010
0000
0000
0000
,  // measure 62
0100
0000
0000
0000
,  // measure 63
0010
0000
0000
0000
,  // measure 64
0001
0000
0000
0000
,  // measure 65
1000
0000
0000
0000
,  // measure 66
0001
0000
0000
0000
,  // measure 67
1000
0000
0000
0000
,  // measure 68
0010
0000
0000
0000
,  // measure 69
0100
0000
0000
0000
,  // measure 70
0010
0000
0000
0000
,  // measure 71
0100
0000
0000
0000
,  // measure 72
1001
0000
0000
0000
;

//---------------dance-single - ----------------
#NOTEDATA:;
#CHARTNAME:X-Scale 5;
#STEPSTYPE:dance-single;
#DESCRIPTION:;
#CHARTSTYLE:;
#DIFFICULTY:Easy;
#METER:3;
#RADARVALUES:0.201861,0.316284,0.043928,0.000000,0.000000,193.000000,187.000000,6.000000,0.000000,0.000000,0.000000,0.000000,0.000000,0.000000,0.201861,0.316284,0.043928,0.000000,0.000000,193.000000,187.000000,6.000000,0.000000,0.000000,0.000000,0.000000,0.000000,0.000000;
#CREDIT:iamthek3n;
#NOTES:
// measure 0
0000
0000
0000
0000
,  // measure 1
0000
0000
0000
0000
,  // measure 2
0000
0000
0000
0000
,  // measure 3
0000
0000
0000
0000
,  // measure 4
0000
0000
0000
0000
,  // measure 5
0000
0000
0000
0000
,  // measure 6
0000
0000
0000
0000
,  // measure 7
0000
0000
0000
0000
,  // measure 8
0101
0001
1000
0001
,  // measure 9
0100
0000
0010
0000
0100
0000
0001
0100
,  // measure 10
0001
1000
0100
0010
,  // measure 11
0100
0000
1000
0000
0001
0000
0100
0010
,  // measure 12
0100
0001
1000
0100
,  // measure 13
0010
0100
1000
0001
,  // measure 14
1000
0000
0001
0100
,  // measure 15
0001
0000
1000
0100
,  // measure 16
1000
0000
0000
0000
,  // measure 17
0001
0000
0000
0000
,  // measure 18
0100
0000
0000
0000
,  // measure 19
0010
0000
0000
0000
,  // measure 20
1000
0000
0000
0000
,  // measure 21
0100
0000
0000
0000
,  // measure 22
0010
0000
0000
0000
,  // measure 23
0001
0000
0000
0000
,  // measure 24
1000
1000
0000
0000
0001
0000
0000
0000
,  // measure 25
0100
0100
0000
0000
0001
0000
0000
0000
,  // measure 26
0010
0010
0000
0000
0100
0000
0000
0000
,  // measure 27
1000
1000
0000
0000
0001
0000
0000
0000
,  // measure 28
0100
0100
0000
0000
0001
0000
0000
0000
,  // measure 29
1000
1000
0000
0000
0100
0000
0000
0000
,  // measure 30
0010
0010
0000
0000
0100
0000
0000
0000
,  // measure 31
1000
1000
0000
0000
0001
0000
0000
0000
,  // measure 32
1001
0000
0001
0100
,  // measure 33
0001
0000
1000
0100
,  // measure 34
1000
0000
0010
0100
,  // measure 35
0010
0000
1000
0001
,  // measure 36
1000
0000
0100
0010
,  // measure 37
0100
0000
1000
0001
,  // measure 38
1000
0000
0010
0100
,  // measure 39
0010
0000
0000
0000
,  // measure 40
1001
0000
1000
0000
0001
0100
0001
0000
,  // measure 41
1000
0000
0100
0000
0010
0100
0010
0000
,  // measure 42
0001
0000
1000
0000
0010
0100
0010
0000
,  // measure 43
1000
0000
0001
0000
0100
0001
0100
0000
,  // measure 44
0001
0000
1000
0000
0100
0010
0100
0000
,  // measure 45
1000
0000
0001
0000
1000
0010
1000
0000
,  // measure 46
0001
0000
0010
0000
0100
1000
0100
0000
,  // measure 47
0010
0000
0001
0000
1000
0001
1000
0000
,  // measure 48
1001
0000
0100
0000
1000
0000
0001
0010
,  // measure 49
0100
0000
0010
0000
0001
0000
1000
0001
,  // measure 50
1000
0000
0100
0000
0010
0100
1000
0000
,  // measure 51
0001
0000
1000
0000
0010
1000
0001
0000
,  // measure 52
0010
0000
0100
0000
0010
0000
0001
1000
,  // measure 53
0010
0000
1000
0000
0100
0000
0010
0100
,  // measure 54
1000
0000
0001
0000
1000
0100
0010
0000
,  // measure 55
0000
0001
0000
0000
,  // measure 56
1001
0000
0001
0000
,  // measure 57
1000
0000
0010
0000
,  // measure 58
1000
0000
0100
0000
,  // measure 59
0010
0000
0001
0000
,  // measure 60
1000
0000
0001
0000
,  // measure 61
0100
0000
0010
0000
,  // measure 62
1000
0000
0001
0000
,  // measure 63
1000
0000
0100
0000
,  // measure 64
1000
0000
0000
0000
,  // measure 65
0001
0000
0000
0000
,  // measure 66
1000
0000
0000
0000
,  // measure 67
0001
0000
0000
0000
,  // measure 68
0010
0000
0000
0000
,  // measure 69
0100
0000
0000
0000
,  // measure 70
0010
0000
0000
0000
,  // measure 71
0100
0000
0000
0000
,  // measure 72
0110
0000
0000
0000
;

//---------------dance-single - ----------------
#NOTEDATA:;
#CHARTNAME:X-Scale 10;
#STEPSTYPE:dance-single;
#DESCRIPTION:;
#CHARTSTYLE:;
#DIFFICULTY:Medium;
#METER:7;
#RADARVALUES:0.360840,0.500783,0.058571,0.058571,0.215981,345.000000,337.000000,8.000000,8.000000,0.000000,0.000000,0.000000,0.000000,0.000000,0.360840,0.500783,0.058571,0.058571,0.215981,345.000000,337.000000,8.000000,8.000000,0.000000,0.000000,0.000000,0.000000,0.000000;
#CREDIT:iamthek3n;
#NOTES:
// measure 0
0000
0000
0000
0000
,  // measure 1
0000
0000
0000
0000
,  // measure 2
0000
0000
0000
0000
,  // measure 3
0000
0000
0000
0000
,  // measure 4
0000
0000
0000
0000
,  // measure 5
0000
0000
0000
0000
,  // measure 6
0000
0000
0000
0000
,  // measure 7
0000
0000
0000
0000
,  // measure 8
1200
0000
1300
0000
0100
0000
1000
0001
,  // measure 9
0100
0000
0001
0000
1000
0000
0100
1000
,  // measure 10
0001
0000
1000
0100
0000
0000
0100
0000
1000
0000
0001
0000
0100
0000
0001
0000
,  // measure 11
1000
0000
1000
0000
0000
1000
0000
0000
0001
0000
0000
0001
0000
0000
0001
0000
,  // measure 12
0100
0000
0001
0000
1000
0000
0100
0010
,  // measure 13
0100
0000
0000
0000
1000
0000
0000
0000
0001
0000
0000
0100
0000
0000
0001
0000
,  // measure 14
1000
0000
1000
0000
0000
1000
0000
0000
0001
0000
0000
0000
0100
0000
0000
0000
,  // measure 15
0001
0000
0001
0000
0000
0001
0000
0000
0010
0000
0100
0000
1000
0000
0000
0000
,  // measure 16
1100
0000
0000
0000
,  // measure 17
0001
0000
0000
0000
,  // measure 18
1000
0000
0100
0000
0010
0001
0000
0000
,  // measure 19
1000
0000
0001
0000
0100
0001
0000
0000
,  // measure 20
1000
0000
0000
0000
,  // measure 21
0100
0000
0000
0000
,  // measure 22
1000
0000
0000
0000
,  // measure 23
0001
0000
0100
0000
,  // measure 24
0001
0000
0000
0000
0000
0000
0000
0000
0010
0000
0000
0000
0000
0100
0000
0000
,  // measure 25
1000
0000
0001
0000
,  // measure 26
0100
0000
0000
0000
0001
0000
0100
0001
0100
0000
0010
0000
0000
0000
0000
0000
,  // measure 27
1000
0000
0000
0000
0001
0000
0100
0001
0000
1000
0000
0000
0000
0000
0000
1000
,  // measure 28
0000
0001
0000
0000
0000
0000
0000
0000
0100
0000
0000
0000
0000
0001
0000
0000
,  // measure 29
1000
0000
0010
0000
,  // measure 30
1000
0000
1000
0000
0000
1000
0000
0000
0001
0000
0001
0000
0000
0001
0000
0000
,  // measure 31
0100
0000
0100
0000
0000
0100
0000
0000
0010
0000
0000
0100
0000
0000
0010
0000
,  // measure 32
0110
0000
0100
0000
0001
1000
0001
0000
,  // measure 33
0010
0000
0100
0000
0000
0000
0100
0000
1000
0000
0001
0000
1000
0000
0100
0010
,  // measure 34
0001
0000
1000
0000
0001
0100
0001
0000
,  // measure 35
1000
0100
0010
0000
0001
0100
0001
0100
,  // measure 36
0001
0000
1000
0000
0000
1000
0000
0000
1000
0000
0001
0000
0100
0000
0000
0000
,  // measure 37
0100
0000
0010
0000
1000
0000
0000
0000
0001
0000
0010
0000
0001
0000
1000
0100
,  // measure 38
0010
0000
0000
0000
0001
0000
0100
0000
1000
0000
0100
0000
0001
0000
1000
0001
,  // measure 39
1000
0100
0000
0000
0010
0100
1000
0000
,  // measure 40
1001
0000
1000
0000
0100
1000
0000
0000
0001
0000
0100
0000
0001
0000
0000
0000
,  // measure 41
1000
0100
1000
0000
0001
0100
1000
0100
,  // measure 42
0001
0000
1000
0000
0001
1000
0000
0000
0001
0000
0010
0000
0001
0000
0000
0000
,  // measure 43
1000
0000
0010
0000
1000
0000
0001
0100
0010
0000
0100
0000
0001
0100
0000
0000
,  // measure 44
0001
0000
1000
0000
0100
1000
0000
0000
0100
0000
0010
0000
0100
0000
0000
0000
,  // measure 45
1000
0001
1000
0000
0001
0100
1000
0100
,  // measure 46
0001
0000
1000
0000
0001
1000
0000
0000
1001
0000
0001
0000
0000
0001
0000
0000
,  // measure 47
1000
0000
1000
0000
0000
1000
0000
0000
0001
0000
0100
0000
0001
0000
0100
0000
,  // measure 48
0101
0000
0001
0000
0100
0001
0000
0000
1000
0000
1000
0000
0010
0000
0100
0000
,  // measure 49
1000
0000
0100
0000
0010
0100
0000
0000
0001
0000
1000
0000
0100
0000
1000
0100
,  // measure 50
0010
0000
0010
0000
0001
0010
0000
0000
0001
0000
1000
0000
0001
0000
0000
0000
,  // measure 51
0100
0000
0001
0100
0000
0100
0000
0000
0001
0000
1000
0100
0000
0100
0000
0000
,  // measure 52
1000
0000
0001
0000
1000
0001
0000
0000
0100
0000
0100
0000
0001
0000
0010
0000
,  // measure 53
1000
0000
0010
0000
0001
0010
0000
0000
0001
0000
1000
0000
0100
0000
0010
0100
,  // measure 54
1000
0000
1000
0000
0001
1000
0000
0000
0100
0000
0010
0000
0000
0010
0000
0000
,  // measure 55
0100
0000
1000
0000
0000
1000
0000
0000
0001
0000
0100
0000
0000
0100
0000
0000
,  // measure 56
1001
0000
1000
0000
0000
0001
1000
0000
0200
0000
0300
0000
0000
0010
0000
0000
,  // measure 57
0002
0000
0000
0000
0003
0000
0000
0000
0000
0000
1000
0000
0000
0001
2000
0000
,  // measure 58
3100
0000
0100
0000
0000
0100
0000
0000
1000
0000
1000
0000
0000
1000
0000
0000
,  // measure 59
0001
0000
0001
0000
0000
0001
0000
0000
0100
0000
0100
0000
0000
0100
0000
0000
,  // measure 60
0001
0000
1000
0000
0000
0001
0100
0000
0020
0000
0030
0000
0000
1000
0000
0000
,  // measure 61
0200
0000
0000
0000
0300
0000
0000
0000
0000
0000
1000
0000
0000
0001
0200
0000
,  // measure 62
0300
0000
0000
0000
0000
0000
0000
0000
0000
0000
1000
0000
0000
0001
0200
0000
,  // measure 63
0300
0000
0001
0000
,  // measure 64
1000
0000
1000
0000
0000
1000
0000
0000
1000
0000
0000
0000
0010
0000
0100
0000
,  // measure 65
0001
0000
0000
0000
0000
0000
0000
0000
0100
0000
0100
0000
0000
0100
0000
0000
,  // measure 66
0100
0000
0000
0000
0000
0000
0000
0000
0001
0000
0100
0000
1000
0000
0100
0001
,  // measure 67
0000
0000
0000
0000
0000
0000
0000
0000
1000
0000
1000
0000
0000
1000
0000
0000
,  // measure 68
0001
0000
0000
0000
1000
0000
0001
0100
,  // measure 69
0001
0000
0010
0000
,  // measure 70
0100
0000
0000
0000
1000
0100
0001
0000
,  // measure 71
0100
1000
0000
0000
0001
0100
0001
0000
,  // measure 72
0101
0000
0000
0000
;

//---------------dance-single - ----------------
#NOTEDATA:;
#CHARTNAME:X-Scale 13;
#STEPSTYPE:dance-single;
#DESCRIPTION:;
#CHARTSTYLE:;
#DIFFICULTY:Hard;
#METER:9;
#RADARVALUES:0.520865,0.606212,0.051250,0.183035,0.479551,498.000000,491.000000,7.000000,25.000000,0.000000,0.000000,0.000000,0.000000,0.000000,0.520865,0.606212,0.051250,0.183035,0.479551,498.000000,491.000000,7.000000,25.000000,0.000000,0.000000,0.000000,0.000000,0.000000;
#CREDIT:iamthek3n;
#NOTES:
// measure 0
0000
0000
0000
0000
,  // measure 1
0000
0000
0000
0000
,  // measure 2
0000
0000
0000
0000
,  // measure 3
0000
0000
0000
0000
,  // measure 4
0000
0000
0000
0000
,  // measure 5
0000
0000
0000
0000
,  // measure 6
0000
0000
0000
0000
,  // measure 7
0000
0000
0000
0000
,  // measure 8
1001
0000
1000
0000
0000
0000
1000
0000
0000
0010
0100
0000
0001
0000
0100
0000
,  // measure 9
0010
0000
0001
0000
0000
0010
0000
0000
1000
0000
0000
0001
0010
0000
0010
0001
,  // measure 10
1000
0000
0100
0001
0000
0100
1000
0000
1000
0000
0010
0000
1000
0000
0100
0010
,  // measure 11
0100
0000
0100
0000
0000
0100
0000
0000
1000
0000
1000
0000
0001
0000
0001
0000
,  // measure 12
0002
0000
0100
0000
0000
0000
0100
0000
0003
0100
0001
0000
1000
0000
0100
0000
,  // measure 13
0100
0000
0010
0100
0000
0010
0001
0000
1000
0000
0010
1000
0001
0000
0001
1000
,  // measure 14
0010
0000
0010
0100
0000
0100
0000
0000
1000
0000
0100
0000
0001
0000
0100
0010
,  // measure 15
1000
0000
0001
0000
0000
0001
0000
0000
0001
0000
0001
0000
0100
0000
0100
0000
,  // measure 16
1001
0000
1000
0000
0000
1000
0000
0000
0001
0000
0001
0000
0000
0001
0000
0000
,  // measure 17
0100
0000
0100
0000
0000
0100
0000
0000
0010
0000
0000
0010
0000
0000
0010
0000
,  // measure 18
1000
0000
0000
0000
0001
0000
0100
0010
1000
0000
0200
0000
0000
0000
0300
0000
,  // measure 19
0010
0000
0010
0000
0001
0000
0100
0002
0000
2000
0000
0000
3003
0000
0100
0000
,  // measure 20
1000
0000
1000
0000
0000
1000
0000
0000
0001
0000
0000
0000
0000
0100
0000
0000
,  // measure 21
0001
0000
0001
0000
0000
0001
0000
0000
1000
0000
0100
1000
0000
1000
0000
0000
,  // measure 22
0010
0000
0010
0000
0000
0010
0000
0000
1000
0000
1000
0000
0000
1000
0000
0000
,  // measure 23
0001
0000
0001
0000
0000
0001
0000
0000
1000
0000
0000
0010
0000
0000
1000
0000
,  // measure 24
1000
0000
0020
0000
0030
0100
0010
0000
2000
0000
3000
0000
0000
0002
0000
0000
,  // measure 25
0203
0000
0301
0000
0000
0100
0000
0000
1000
0000
0000
0010
0000
0001
0010
0000
,  // measure 26
0001
0000
0001
0000
1000
0000
0100
0010
0001
0000
2000
0000
0000
3000
0000
0000
,  // measure 27
0010
0000
0010
0000
0100
0000
0001
0020
0000
0002
0000
0000
0033
0000
0000
0000
,  // measure 28
1000
0000
0020
0000
0030
1000
0200
0000
2300
0000
3000
0000
0000
0002
0000
0000
,  // measure 29
0203
0000
0301
0000
0000
0100
0000
0000
1000
0000
0000
0010
0000
0001
0010
0000
,  // measure 30
0001
0000
0001
0000
0000
0100
0000
0000
0010
0000
1000
0000
0000
0100
1000
0000
,  // measure 31
0100
0000
0100
0000
0000
0010
0000
0000
1000
0000
0000
0010
0000
0000
0001
0000
,  // measure 32
0011
0000
0000
1000
0000
0000
1000
0001
1000
0000
1000
0000
0010
0000
0100
0010
,  // measure 33
1000
0000
0001
0000
0000
0001
0100
0000
0001
0000
0100
0000
1000
0000
0100
0000
,  // measure 34
0001
0000
0001
0000
0000
0000
1000
0100
1000
0000
0001
0000
0100
0000
0010
0100
,  // measure 35
0001
0000
1000
0000
0000
0000
0010
1000
0001
0000
0010
0000
0010
0000
0100
0000
,  // measure 36
0100
0000
1000
0000
0000
0001
0100
0010
0100
0000
0100
0000
0001
0000
1000
0100
,  // measure 37
0010
0000
0100
0000
0000
1000
0100
1000
0001
0000
0001
0000
0100
0000
1000
0100
,  // measure 38
0001
0000
0001
0000
0000
1000
0010
1000
0001
0000
0100
0000
1000
0000
0001
0010
,  // measure 39
1000
0000
0001
0000
0000
0000
0001
0010
0200
0300
0020
0030
0002
0003
0000
0000
,  // measure 40
1001
0000
1000
0000
0100
1000
0000
0000
0100
0000
0100
0000
0010
0000
0100
0010
,  // measure 41
0001
0000
1000
0000
0001
0000
0100
0010
1000
0000
0100
0000
0001
0000
0100
0010
,  // measure 42
0001
0000
0001
0000
1000
0001
0100
0001
1000
0000
0010
0000
1000
0000
0001
0010
,  // measure 43
0100
0000
0010
0000
0001
0010
0000
0000
0001
0000
0001
0000
1000
0000
1000
0100
,  // measure 44
0010
0000
0010
0000
0001
0010
0000
0000
0001
0000
0001
0000
1000
0000
0010
1000
,  // measure 45
0001
0000
0100
0000
1000
0100
0001
1000
0001
0000
0001
0000
0100
0000
0010
0100
,  // measure 46
0001
0000
0001
0000
1000
0010
1000
0010
1000
0000
1000
0000
0001
0000
0010
0100
,  // measure 47
1000
0000
0001
0000
0000
0001
0000
0000
1000
0000
1000
0000
0001
0000
0001
0000
,  // measure 48
1001
0000
1000
0000
0100
1000
0000
0000
1000
0000
1000
0000
0001
0000
0010
0000
,  // measure 49
1000
0000
0010
0000
0100
1000
0000
0000
1000
0000
0100
0000
0010
0000
0100
0010
,  // measure 50
0001
0000
0001
0000
1000
0001
0000
0000
0010
0000
0010
0000
0100
0000
1000
0001
,  // measure 51
0100
0000
0100
0000
0001
0100
0000
0000
0001
0000
0001
0000
1000
0100
0000
0000
,  // measure 52
0100
0000
0010
0100
0000
0100
1000
0000
0001
0000
0001
0000
0100
0000
0010
0000
,  // measure 53
1000
0000
1000
0100
0000
1000
0001
0000
0010
0000
0010
0000
0001
0000
1000
0001
,  // measure 54
0100
0000
0100
0000
0010
0100
0002
0000
1003
0000
1000
0000
0100
0000
0010
0100
,  // measure 55
1000
0000
1000
0000
0000
1000
0000
0000
0001
0000
0001
0000
0000
0001
0000
0000
,  // measure 56
1001
0000
1000
0000
0000
0010
0100
0000
0001
0000
0000
0000
0000
1000
0000
0000
,  // measure 57
0100
0000
0100
0000
0000
0100
0000
0000
1000
0000
1000
0000
0000
0001
1000
0000
,  // measure 58
0001
0000
0001
0000
0000
0001
0000
0000
0100
0000
0100
0000
0000
0100
0000
0000
,  // measure 59
0010
0000
0010
0000
0000
0010
0000
0000
1000
0000
1000
0000
0000
1000
0000
0000
,  // measure 60
0001
0000
0010
0000
0000
0001
0100
0000
0001
0000
0000
0000
0000
1000
0000
0000
,  // measure 61
0100
0000
0100
0000
0000
0100
0000
0000
0010
0000
0010
0000
0000
0010
0001
0000
,  // measure 62
1000
0000
1000
0000
0000
1000
0000
0000
0001
0000
0001
0000
0000
0100
0001
0000
,  // measure 63
1000
0000
1000
0000
0000
1000
0000
0000
0100
0000
0100
0000
0000
0100
0000
0000
,  // measure 64
0010
0000
0100
0000
0000
1000
0000
0000
0001
0000
0000
0000
0100
0000
0001
0000
,  // measure 65
1000
0000
1000
0000
0000
1000
0000
0000
0001
0000
0001
0000
0000
0001
0000
0000
,  // measure 66
0100
0000
0100
0000
0000
0100
0000
0000
0001
0000
0100
0000
1000
0000
0001
0010
,  // measure 67
1000
0000
1000
0000
0000
1000
0000
0000
0001
0000
0001
0000
0000
0001
0000
0000
,  // measure 68
1000
0000
0100
0000
0000
0010
0000
0000
0010
0000
0000
0000
0001
0000
1000
0000
,  // measure 69
0001
0000
0001
0000
0000
1000
0000
0000
0010
0000
0100
0000
0000
0100
0000
0000
,  // measure 70
0001
0000
0001
0000
0000
0000
1000
0100
0010
0000
1000
0010
0001
0000
0100
0010
,  // measure 71
2000
0000
3002
0000
0003
0000
0010
0100
2000
3000
0002
0003
0200
0300
0000
0000
,  // measure 72
1001
0000
0000
0000
;
