#TITLE:particles;
#SUBTITLE:;
#ARTIST:SKYrise;
#TITLETRANSLIT:;
#SUBTITLETRANSLIT:;
#ARTISTTRANSLIT:;
#GENRE:Future Bass;
#CREDIT:;
#BANNER:particles-bn.png;
#BACKGROUND:particles-bg.png;
#LYRICSPATH:;
#CDTITLE:cdtitle.png;
#MUSIC:particles.ogg;
#OFFSET:-0.005000;
#SAMPLESTART:62.227001;
#SAMPLELENGTH:14.222000;
#SELECTABLE:YES;
#BPMS:0.000000=67.500000
,38.000000=135.000000
,66.000000=67.500000
,68.000000=135.000000
,96.000000=67.500000
,98.000000=135.000000
,158.000000=67.500000
,160.000000=135.000000
,190.000000=67.500000
;
#STOPS:
;
#BGCHANGES:;
#KEYSOUNDS:;
#ATTACKS:;

//---------------dance-single - ----------------
#NOTES:
     dance-single:
     X-Scale 11:
     Hard:
     8:
     0.446782,0.599504,0.017043,0.298261,0.362174,367.000000,365.000000,2.000000,35.000000,0.000000,0.000000,0.446782,0.599504,0.017043,0.298261,0.362174,367.000000,365.000000,2.000000,35.000000,0.000000,0.000000:
// measure 0
0000
0000
0000
0000
,  // measure 1
0000
0000
0000
0000
0000
0000
0000
0000
1000
0100
0000
1000
1000
0100
0020
0000
,  // measure 2
0032
0023
0230
2300
3010
0000
0100
0002
,  // measure 3
1003
0001
1000
0001
0010
0100
2000
0000
3010
1000
0000
0010
0010
1000
0200
0000
,  // measure 4
0310
0001
0000
1000
0001
1000
0002
0000
0013
0001
0000
0000
1000
0010
0001
0010
,  // measure 5
1000
0100
1000
0100
0010
0001
0200
0000
0310
0100
0000
0001
1000
0000
0100
0000
,  // measure 6
0010
0001
0000
0100
0001
0000
1000
0000
0010
1000
0000
0001
0010
0000
0001
0100
,  // measure 7
0001
0010
0100
0010
0100
1000
0002
0000
1003
0010
0000
1000
0100
0000
0010
0000
,  // measure 8
0001
0100
0000
0001
0010
0000
0100
0000
1000
0010
0000
0100
0010
0000
1000
0000
,  // measure 9
0200
0000
0000
0320
0100
0000
0032
0000
1003
0000
0000
0100
0000
0000
1000
0000
,  // measure 10
0000
0100
0000
0000
0010
0000
0000
0000
0001
0000
0000
0000
0100
0000
0000
0000
,  // measure 11
0001
0000
0010
0000
0100
0000
1000
0100
1000
0000
0000
0010
0000
0000
0001
0000
,  // measure 12
0000
0010
0000
0000
1000
0000
0000
0000
0100
0000
0010
0000
0100
0000
0010
0000
,  // measure 13
0001
0000
1000
0000
0020
0000
0000
0000
1030
0000
0000
0001
0000
0000
0100
0000
,  // measure 14
0000
0001
0000
0000
1000
0000
0000
0000
0100
0000
0000
0000
0010
0000
0000
0000
,  // measure 15
0100
0000
1000
0000
0001
0000
0100
0001
0100
0000
0000
0010
0000
0000
0001
0000
,  // measure 16
0000
0010
0000
0000
0100
0000
0000
0000
0001
1000
0001
1000
0100
0010
0002
0000
,  // measure 17
0013
0000
0000
0000
0001
0000
0010
0000
0100
0000
0000
0000
0100
1000
0100
1000
,  // measure 18
0100
0000
0010
0000
0001
0000
1000
0000
0001
0000
0010
0000
0001
0100
0001
0100
,  // measure 19
0001
0000
0010
0000
1000
0000
0010
0000
0001
0000
0000
0000
1000
0001
1000
0001
,  // measure 20
1000
0000
0010
0000
0100
0000
0010
0000
0001
0000
0010
0000
1000
0010
1000
0010
,  // measure 21
1000
0010
1000
0010
0001
0010
0001
0010
,  // measure 22
0100
0010
0100
0010
1000
0010
1000
0010
,  // measure 23
0100
0010
0100
0010
0100
0010
0100
0010
0100
0010
0100
0010
0100
0010
0100
0010
,  // measure 24
0100
0000
0010
0010
1000
0100
0020
0030
0011
0000
0000
0000
0001
0000
0000
0000
,  // measure 25
0200
0300
0200
0300
0001
0000
1000
0100
,  // measure 26
0010
0000
0001
0000
1000
0000
0100
0010
,  // measure 27
0002
1003
0001
0001
0100
0000
0010
1000
,  // measure 28
0100
1000
0010
0000
0100
0000
0002
0103
,  // measure 29
0001
0001
2000
0000
3010
0000
0100
0010
,  // measure 30
1000
0001
0020
0000
0130
0000
1000
0010
,  // measure 31
0200
0000
0300
0000
0200
0300
0200
0300
0100
0000
0000
0000
0010
0000
1000
0000
,  // measure 32
0001
0001
0100
0100
0101
0001
1000
0001
,  // measure 33
0020
0000
0130
1000
0100
1000
0010
0100
,  // measure 34
0002
0000
0023
0000
1030
0010
0001
0000
,  // measure 35
0100
0000
0010
0000
0100
0010
0100
0010
0100
0000
0010
0000
0100
0000
0010
0000
,  // measure 36
1000
0000
0100
0000
0020
0000
0000
0000
0031
0000
0000
1000
0000
0000
0001
0000
,  // measure 37
0010
0100
2000
0000
3010
0000
1000
1000
,  // measure 38
0100
0010
0002
0000
0103
0100
0001
1000
,  // measure 39
0100
1000
0100
1000
0100
0000
0100
0000
0010
0001
0010
0001
1000
0010
2000
0000
,  // measure 40
3010
0000
0000
0100
0000
0000
0001
0000
0000
1000
0000
0000
0001
0000
0000
0000
,  // measure 41
0010
0000
1000
0000
0010
0000
0001
0000
0010
0000
0100
0000
0100
0000
1000
0100
,  // measure 42
1000
0000
0000
0010
0000
0000
0100
0000
0000
0010
0000
0000
1000
0000
0000
0000
,  // measure 43
0100
0000
0010
0000
0100
0000
0010
0000
0001
0000
1000
0000
0010
0000
1000
0010
,  // measure 44
1000
0000
0000
0100
0000
0000
0001
0000
0000
0100
0000
0000
1000
0000
0000
0000
,  // measure 45
0010
0000
0100
0000
1000
0000
0100
0000
0010
0000
1000
0000
0001
0000
1000
0001
,  // measure 46
1000
0000
0000
0010
0000
0000
0001
0000
0000
0010
0000
0000
1000
0000
0000
0000
,  // measure 47
0200
0001
2000
0000
,  // measure 48
0000
0000
0000
0000
,  // measure 49
0000
0000
0000
0000
,  // measure 50
0000
3300
0000
0000
;

//---------------dance-single - ----------------
#NOTES:
     dance-single:
     X-Scale 9:
     Medium:
     6:
     0.372522,0.471039,0.119304,0.485739,0.157652,306.000000,292.000000,14.000000,57.000000,0.000000,0.000000,0.372522,0.471039,0.119304,0.485739,0.157652,306.000000,292.000000,14.000000,57.000000,0.000000,0.000000:
// measure 0
0000
0000
0000
0000
,  // measure 1
0000
0000
0000
0000
0000
0000
0000
0000
1000
0100
0000
0000
1000
0100
0020
0000
,  // measure 2
0031
0010
0001
1000
0010
1000
0010
0100
,  // measure 3
0010
0000
1000
0000
0001
1000
0002
0000
1003
0100
0000
0000
1000
0100
0020
0000
,  // measure 4
0031
0010
0001
0010
0100
1000
0100
1000
,  // measure 5
0001
0000
0010
0000
0001
0010
0200
0000
1300
0100
0000
1000
0010
0000
2000
0000
,  // measure 6
3001
1000
0000
0001
0010
0000
0200
0000
2300
0000
0000
3002
1000
0000
1003
0000
,  // measure 7
0001
0010
0001
0001
0100
0010
2000
0000
3002
0000
0000
0203
0001
0000
0301
0000
,  // measure 8
0100
0000
0010
1000
0010
0000
1000
0100
1000
0000
0001
0000
1000
0000
0001
0000
,  // measure 9
2000
0000
0000
3002
1000
0000
2003
0000
3100
0000
0000
1000
0000
0000
0001
0000
,  // measure 10
0000
1000
0000
0000
0200
0000
0000
0000
0320
0000
0000
0000
0031
0000
2000
0000
,  // measure 11
0001
0000
0000
0000
3002
0000
0000
0000
1003
0000
0000
0100
0000
0000
0001
0000
,  // measure 12
0000
0100
0000
0000
2000
0000
0000
0000
3010
0000
1000
0000
0010
0000
1000
0000
,  // measure 13
0100
0010
0002
0000
2003
0000
3001
0020
,  // measure 14
0001
0000
0032
0000
1003
0001
1000
0002
,  // measure 15
1000
0000
0000
0000
0203
0000
0000
0000
0310
0000
0000
0100
0000
0000
1000
0000
,  // measure 16
0000
0100
0000
0000
0010
0000
0000
0000
1000
0010
1000
1000
0100
0010
0002
0000
,  // measure 17
1003
0010
0001
0010
2000
3000
2000
3000
,  // measure 18
0001
0100
0010
0100
0001
0000
2000
0000
,  // measure 19
3010
1000
0001
1000
0020
0030
0020
0030
,  // measure 20
0100
0010
0001
0010
1000
0000
0002
0000
,  // measure 21
1003
0001
1000
0001
0020
0030
0020
0030
,  // measure 22
0100
1000
0100
1000
0001
0010
0200
0000
,  // measure 23
1300
0100
0020
0001
1030
0100
0020
0001
,  // measure 24
0031
0000
1000
0000
0100
1000
0002
0000
1003
0000
0000
0000
0100
0000
0000
0000
,  // measure 25
0020
0030
0020
0030
0001
0000
1000
0010
,  // measure 26
0001
0010
2000
0000
3001
0000
0010
0000
,  // measure 27
0200
0300
0100
1000
0100
0000
1000
0001
,  // measure 28
1000
0000
0010
0100
0002
0000
2003
0000
,  // measure 29
3001
1000
0001
0001
0010
0000
0100
1000
,  // measure 30
0001
0200
0310
2000
,  // measure 31
3002
0000
0013
0010
0010
0000
0100
0000
,  // measure 32
1000
0100
1000
0100
1100
0000
0100
0010
,  // measure 33
0001
0000
1000
0000
0001
0000
0100
0010
,  // measure 34
1000
0000
0002
0000
0103
0000
0001
0100
,  // measure 35
0001
2000
3100
1000
,  // measure 36
0001
0100
0020
0000
1030
0000
0001
0000
,  // measure 37
1000
0100
0020
0000
0031
0000
0100
0000
,  // measure 38
0010
1000
0002
0000
0103
0100
0000
0001
,  // measure 39
0002
0000
0000
0000
1003
0000
1000
0000
1001
0000
0001
0000
1000
0010
0200
0000
,  // measure 40
0301
0000
0000
0100
0000
0000
1000
0000
0000
0100
0000
0000
0001
0000
0000
0000
,  // measure 41
1001
0000
0110
0000
1001
1000
0001
0000
,  // measure 42
0100
0000
0000
0010
0000
0000
0001
0000
0000
0010
0000
0000
0100
0000
0000
0000
,  // measure 43
0110
0000
1001
0000
0110
0010
2000
0000
,  // measure 44
3001
0000
0000
0010
0000
0000
0100
0000
0000
0010
0000
0000
0001
0000
0000
0000
,  // measure 45
0011
0000
1100
0000
0011
0010
0001
0000
,  // measure 46
1000
0000
0000
0100
0000
0000
0001
0000
0000
0100
0000
0000
1000
0000
0000
0000
,  // measure 47
1100
0011
2200
0000
,  // measure 48
0000
0000
0000
0000
,  // measure 49
0000
0000
0000
0000
,  // measure 50
0000
3300
0000
0000
;

//---------------dance-single - ----------------
#NOTES:
     dance-single:
     X-Scale 5:
     Easy:
     3:
     0.244696,0.278341,0.034087,0.127826,0.000000,201.000000,197.000000,4.000000,15.000000,0.000000,0.000000,0.244696,0.278341,0.034087,0.127826,0.000000,201.000000,197.000000,4.000000,15.000000,0.000000,0.000000:
// measure 0
0000
0000
0000
0000
,  // measure 1
0000
0000
0001
0100
,  // measure 2
0001
0100
0010
1000
,  // measure 3
0010
1000
0001
1000
,  // measure 4
0001
0010
0100
0010
,  // measure 5
0100
0000
1000
0000
0001
0000
1000
0100
,  // measure 6
0010
0000
0001
0100
0010
0000
1000
0100
,  // measure 7
0010
0000
0001
0100
0010
0000
1000
0100
,  // measure 8
0010
0000
0001
0100
0010
0000
1000
0100
,  // measure 9
0010
0000
0001
0100
0010
0000
0000
1000
,  // measure 10
0001
0000
2000
0000
3200
0000
0000
0320
,  // measure 11
0000
0000
0032
0000
1003
0000
0000
0100
,  // measure 12
1000
0002
0103
0010
,  // measure 13
1000
0100
0020
0000
0031
0000
0000
1000
,  // measure 14
0001
0000
0100
0000
0020
0000
0000
0230
,  // measure 15
0000
0000
0302
0000
1003
0000
0000
0001
,  // measure 16
0010
0001
1000
0000
,  // measure 17
1100
0100
0010
0010
,  // measure 18
0001
1000
0001
0100
,  // measure 19
0010
1000
0001
0001
,  // measure 20
0100
0010
1000
0001
,  // measure 21
0100
0010
1000
1000
,  // measure 22
0100
0010
0001
0200
,  // measure 23
0301
0200
0301
0200
,  // measure 24
0301
0000
1100
1000
,  // measure 25
0010
0000
0010
0000
0100
0000
0001
0100
,  // measure 26
0001
0010
0100
1000
,  // measure 27
0001
0001
0100
0010
,  // measure 28
1000
0001
0010
0100
,  // measure 29
0100
1000
0001
1000
,  // measure 30
0010
0100
0001
1000
,  // measure 31
0100
0100
0010
0010
,  // measure 32
0001
1000
1100
1000
,  // measure 33
0001
0000
0100
0000
0001
0000
1000
0100
,  // measure 34
0000
0100
1000
0000
0001
0000
0100
0010
,  // measure 35
0000
0010
2000
0000
3001
0000
1000
0000
,  // measure 36
0010
0100
0001
0010
,  // measure 37
0100
1000
0100
0000
1000
0000
0001
0100
,  // measure 38
0000
0100
0001
0000
0010
0100
0000
0100
,  // measure 39
1000
0000
0001
1000
0001
0000
0000
0000
,  // measure 40
1001
0000
0000
0010
0001
0000
1000
0000
,  // measure 41
0001
0000
0010
0000
0100
1000
0000
0000
,  // measure 42
0001
0000
0000
0100
0001
0000
1000
0000
,  // measure 43
0100
0000
0010
0000
0001
1000
0002
0000
,  // measure 44
0013
0000
0000
0001
1000
0000
0001
0000
,  // measure 45
0100
0000
0010
0000
1000
0100
0000
0000
,  // measure 46
0010
0000
0000
0001
0010
0000
0001
0000
,  // measure 47
1000
0010
2000
0000
,  // measure 48
0000
0000
0000
0000
,  // measure 49
0000
0000
0000
0000
,  // measure 50
0000
3000
0000
0000
;

//---------------dance-single - ----------------
#NOTES:
     dance-single:
     X-Scale 2:
     Beginner:
     2:
     0.133913,0.182152,0.017043,0.000000,0.000000,110.000000,108.000000,2.000000,0.000000,0.000000,0.000000,0.133913,0.182152,0.017043,0.000000,0.000000,110.000000,108.000000,2.000000,0.000000,0.000000,0.000000:
// measure 0
0000
0000
0000
0000
,  // measure 1
0000
0000
0001
0000
,  // measure 2
0100
0000
0010
0000
,  // measure 3
1000
0000
0001
0000
,  // measure 4
0100
0000
0010
0000
,  // measure 5
1000
0000
0001
0010
,  // measure 6
0100
1000
0001
0100
,  // measure 7
0010
1000
0001
0010
,  // measure 8
0100
1000
0001
0100
,  // measure 9
0010
1000
0001
0000
,  // measure 10
0100
0000
0001
0100
,  // measure 11
0001
0000
0010
0000
,  // measure 12
0100
0000
1000
0100
,  // measure 13
1000
0000
0001
0000
,  // measure 14
0010
0000
0001
1000
,  // measure 15
0001
0000
0100
0000
,  // measure 16
0010
0000
1000
0000
,  // measure 17
0001
0000
0100
0000
,  // measure 18
0001
0000
0100
0000
,  // measure 19
0010
0000
1000
0000
,  // measure 20
0010
0000
1000
0000
,  // measure 21
0001
0000
0010
0000
,  // measure 22
0001
0000
0010
0000
,  // measure 23
0100
0000
1000
0000
,  // measure 24
0100
0000
1100
0000
,  // measure 25
1000
0000
0001
0000
,  // measure 26
1000
0000
0100
0000
,  // measure 27
0010
0000
0100
0000
,  // measure 28
1000
0000
0001
0000
,  // measure 29
1000
0000
0001
0000
,  // measure 30
0010
0000
0100
0000
,  // measure 31
0010
0000
0001
0000
,  // measure 32
1000
0000
0001
0000
,  // measure 33
0010
0000
0100
0000
,  // measure 34
1000
0000
0001
0000
,  // measure 35
0100
0000
0010
0000
,  // measure 36
1000
0000
0001
0000
,  // measure 37
1000
0000
0100
0000
,  // measure 38
0010
0000
0001
0000
,  // measure 39
1000
0000
0001
0000
,  // measure 40
1001
0000
0001
0000
,  // measure 41
1000
0100
1000
0000
,  // measure 42
0001
0000
0100
0000
,  // measure 43
0010
1000
0010
0000
,  // measure 44
0100
0000
0001
0000
,  // measure 45
0100
0010
0100
0000
,  // measure 46
0001
0000
0010
0000
,  // measure 47
0100
1000
0100
0000
;
