#VERSION:0.83;
#TITLE:new (Yves);
#SUBTITLE:;
#ARTIST:이달의 소녀;
#TITLETRANSLIT:;
#SUBTITLETRANSLIT:;
#ARTISTTRANSLIT:LOOΠΔ;
#GENRE:Synthpop;
#ORIGIN:;
#CREDIT:;
#BANNER:new-bn.png;
#BACKGROUND:new-bg.png;
#PREVIEWVID:;
#JACKET:new-jacket.png;
#CDIMAGE:;
#DISCIMAGE:;
#LYRICSPATH:;
#CDTITLE:cdtitle.png;
#MUSIC:new.ogg;
#OFFSET:-0.285000;
#SAMPLESTART:44.174000;
#SAMPLELENGTH:17.778000;
#SELECTABLE:YES;
#BPMS:0.000=108.000;
#STOPS:;
#DELAYS:;
#WARPS:;
#TIMESIGNATURES:0.000=4=4;
#TICKCOUNTS:0.000=4;
#COMBOS:0.000=1;
#SPEEDS:0.000=1.000=0.000=0;
#SCROLLS:0.000=1.000;
#FAKES:;
#LABELS:0.000=Song Start;
#BGCHANGES:
;
#KEYSOUNDS:;
#ATTACKS:
;

//---------------dance-single - ----------------
#NOTEDATA:;
#CHARTNAME:X-Scale 5;
#STEPSTYPE:dance-single;
#DESCRIPTION:;
#CHARTSTYLE:;
#DIFFICULTY:Easy;
#METER:3;
#RADARVALUES:0.221375,0.311707,0.017812,0.187024,0.000000,174.000000,172.000000,2.000000,21.000000,0.000000,0.000000,0.000000,0.000000,0.000000,0.221375,0.311707,0.017812,0.187024,0.000000,174.000000,172.000000,2.000000,21.000000,0.000000,0.000000,0.000000,0.000000,0.000000;
#CREDIT:;
#NOTES:
0000
0000
0000
0000
,
0000
0000
0000
0000
,
0000
0000
0000
0000
,
0000
0000
0000
0000
,
1000
0000
0100
0000
,
1000
0000
0100
0000
,
0010
0000
0001
0000
,
0010
0000
0001
0000
,
0100
0000
0010
0000
,
0100
0000
0010
0000
,
1000
0000
0001
0000
,
1000
0000
0001
0010
,
0100
1000
0001
0000
,
0010
0000
0000
0001
0010
0100
1000
0000
,
0001
1000
0100
0000
,
0010
0000
0000
0001
0100
0001
1000
0000
,
0010
1000
0001
0000
,
0010
0000
0000
0100
0010
0002
0000
0000
,
0000
2003
0000
3000
0000
0020
0000
0000
,
0000
2030
0000
3001
1000
0001
1001
0000
,
0001
0000
1000
0100
0010
0100
1000
0000
,
0010
0000
0100
0001
1000
0001
0010
0000
,
0100
1000
0001
0000
0100
0001
1000
0000
,
0100
0010
0001
1000
0010
1000
0001
0000
,
0010
0000
0100
0010
0001
1000
0001
0000
,
0100
0000
0001
0010
0100
2000
0000
0000
,
0000
3002
0000
0000
0013
0200
0000
0000
,
0000
2300
0000
0000
0000
3002
0000
0000
,
0000
0000
0000
0003
0000
0000
0000
0000
,
0000
0000
0000
0000
0000
2000
0000
0000
,
0000
0200
0000
3300
0000
0002
0000
0023
,
0000
0230
0000
0320
0000
0032
0000
0000
,
0000
0000
0003
1001
,
1000
0000
0001
0000
0100
0001
1000
0000
,
0100
0000
0010
0000
0001
0100
0010
0000
,
0100
0001
1000
0000
0100
0010
0001
0000
,
1000
0001
0100
0010
0100
0001
0010
0000
,
0100
0000
1000
0000
0100
0010
0001
0000
,
1000
0001
0100
0000
0001
0000
0010
0000
,
0100
0010
0001
1000
,
0010
1000
0001
0100
,
0001
0000
0010
0000
0100
0010
0001
0000
,
1000
0000
0010
0000
1000
0001
0100
0000
,
0001
0000
0010
0000
0100
1000
0100
0000
,
1000
0000
0001
0000
0100
0001
0100
0000
,
0001
0000
0010
0000
1000
0100
0001
0000
,
1000
0000
0010
1000
0001
0200
0000
0000
,
0000
0302
0000
0000
0013
0200
0000
0000
,
0000
2300
0000
0000
0000
3002
0000
0000
,
0000
0000
0000
0000
,
0003
0000
0000
0000
;

//---------------dance-single - ----------------
#NOTEDATA:;
#CHARTNAME:X-Scale 8;
#STEPSTYPE:dance-single;
#DESCRIPTION:;
#CHARTSTYLE:;
#DIFFICULTY:Medium;
#METER:6;
#RADARVALUES:0.332063,0.356236,0.035624,0.418578,0.249365,261.000000,257.000000,4.000000,47.000000,0.000000,0.000000,0.000000,0.000000,0.000000,0.332063,0.356236,0.035624,0.418578,0.249365,261.000000,257.000000,4.000000,47.000000,0.000000,0.000000,0.000000,0.000000,0.000000;
#CREDIT:;
#NOTES:
// measure 0
0000
0000
0000
0000
,  // measure 1
0000
0000
0000
0000
,  // measure 2
0000
0000
0000
0000
,  // measure 3
0000
0000
0000
0000
0000
0000
0000
0001
,  // measure 4
0000
0001
0000
0000
0001
0000
0000
1000
0010
0000
1000
0000
0000
0000
0100
0000
,  // measure 5
0000
0100
0000
0000
0100
0000
0000
0010
0001
0000
1000
0000
0000
0000
0010
0000
,  // measure 6
0000
0010
0000
0000
0010
0000
0000
0100
0001
0000
0010
0000
0000
0000
0100
0000
,  // measure 7
0000
0100
0000
0000
0100
0000
0000
1000
0100
0000
1000
0000
0000
0000
0001
0000
,  // measure 8
0000
0001
0000
0000
0001
0000
0000
0010
0100
0000
1000
0000
0000
0000
0010
0000
,  // measure 9
0000
0010
0000
0000
0010
0000
0000
1000
0100
0000
1000
0000
0000
0000
0001
0000
,  // measure 10
0000
0001
0000
0000
0001
0000
0000
0010
0100
0000
1000
0000
0000
0000
0100
0000
,  // measure 11
0000
0100
0000
0000
0100
0000
0010
0000
0010
0000
0001
0000
2000
0000
3000
0000
,  // measure 12
0002
0000
0003
0000
2000
0000
3000
0000
0010
0000
1000
0001
0000
0000
0010
0000
,  // measure 13
0000
0010
0000
0000
0010
0000
0100
0000
0001
0000
0100
0000
2000
0000
3000
0000
,  // measure 14
0002
0000
0003
0000
2000
0000
3000
0000
0100
0000
0000
0010
0000
0000
0001
0000
,  // measure 15
0000
0001
0000
0000
0001
0000
0100
0000
1000
0000
0100
0000
0002
0000
0003
0000
,  // measure 16
2000
0000
3000
0000
0002
0000
0003
0000
0010
0000
0100
1000
0000
0000
0001
0000
,  // measure 17
0000
0001
0000
0000
0001
0000
0100
0000
0010
0000
2000
0000
0000
0000
0000
0000
,  // measure 18
3001
0002
0000
0000
0013
0020
0000
0000
,  // measure 19
0030
0200
0000
0301
0100
1000
1100
0100
,  // measure 20
0000
1000
0000
0000
0001
0000
0100
0000
0001
0000
1000
0000
0000
0000
0010
0000
,  // measure 21
0000
1000
0000
0000
0001
0000
0010
0000
0100
0000
2000
0000
0010
0000
0000
0000
,  // measure 22
0001
3002
0000
0000
0013
0020
1000
0000
,  // measure 23
0031
0020
0000
0031
0010
0100
0110
0010
,  // measure 24
0000
0100
0000
0000
1000
0000
0100
0000
0010
0000
0001
0000
0000
0000
0100
0000
,  // measure 25
0000
0001
0000
0000
0100
0000
0010
0000
1000
0000
0002
0000
0010
0000
0000
0000
,  // measure 26
0100
0203
1000
0000
0310
0020
0001
0000
,  // measure 27
1000
2030
0100
0000
0001
3002
0100
0200
,  // measure 28
0000
0000
0000
0000
0303
0000
0001
0000
1000
0000
0001
0000
0010
0000
0100
1000
,  // measure 29
0000
0000
0000
0100
0010
0002
0000
0000
,  // measure 30
0000
2003
0000
3000
0000
0002
0000
2003
,  // measure 31
0000
3200
0000
0320
0000
0032
0000
0000
,  // measure 32
0000
0023
0000
0130
1000
0100
1100
1000
,  // measure 33
0000
1000
0000
0000
1000
0000
0000
0100
0010
0000
0001
0000
1000
0000
0001
0000
,  // measure 34
0000
0001
0000
0000
0001
0000
0100
0000
0010
0000
2000
0000
0100
0000
0000
0000
,  // measure 35
3001
0002
0100
0000
0013
0020
1000
0000
,  // measure 36
0031
0002
1000
1003
0001
0010
0011
0001
,  // measure 37
0000
0001
0000
0000
0001
0000
0000
0010
0100
0000
0010
0000
0001
0000
1000
0000
,  // measure 38
0000
1000
0000
0000
1000
0000
0010
0000
0100
0000
0002
0000
0010
0000
0000
0000
,  // measure 39
2003
3000
0002
0003
2000
3000
0100
0010
,  // measure 40
0200
0000
0000
0000
1000
0000
0300
0000
0020
0000
0000
0000
0031
0000
0000
0010
,  // measure 41
0000
0001
0000
1000
0000
0000
0000
0000
0010
0000
0000
1000
0000
0001
0000
0010
,  // measure 42
0000
0001
0000
1000
0000
0000
0000
0000
0100
0000
0000
1000
0000
0001
0000
0100
,  // measure 43
0000
0001
0000
1000
0000
0000
0000
0000
0100
0000
0000
0010
0000
0001
0000
1000
,  // measure 44
0000
0010
0000
1000
0000
0000
0000
0000
0001
0000
0000
0000
0010
0000
0100
0000
,  // measure 45
0000
0100
0000
0000
0100
0000
0000
0000
1000
0000
0000
0001
0000
0010
0000
1000
,  // measure 46
0000
0100
0000
0002
0000
0000
0000
0000
0013
0000
0200
0000
0001
0000
0000
0000
,  // measure 47
1000
2300
0000
0000
3001
0020
1000
0000
,  // measure 48
0100
0230
0001
0000
1000
2300
0000
0000
,  // measure 49
0000
0000
0000
0000
,  // measure 50
3000
0000
0000
0000
;

//---------------dance-single - ----------------
#NOTEDATA:;
#CHARTNAME:X-Scale 11;
#STEPSTYPE:dance-single;
#DESCRIPTION:;
#CHARTSTYLE:;
#DIFFICULTY:Hard;
#METER:8;
#RADARVALUES:0.422395,0.489825,0.053435,0.293895,0.382954,332.000000,326.000000,6.000000,33.000000,0.000000,0.000000,0.000000,0.000000,0.000000,0.422395,0.489825,0.053435,0.293895,0.382954,332.000000,326.000000,6.000000,33.000000,0.000000,0.000000,0.000000,0.000000,0.000000;
#CREDIT:;
#NOTES:
// measure 0
0000
0000
0000
0000
,  // measure 1
0000
0000
0000
0000
,  // measure 2
0000
0000
0000
0000
,  // measure 3
0000
0000
0000
0000
0000
0000
0000
0000
0000
0000
0000
0000
1000
0000
0001
2000
,  // measure 4
0000
0100
0000
0000
3010
0000
1000
0100
0010
0000
0001
0000
1000
0000
0001
0020
,  // measure 5
0000
0100
0000
0000
0031
0000
0010
0000
0100
0000
1000
0001
1000
0000
0010
0200
,  // measure 6
0000
1000
0000
0000
0301
0000
0100
0000
0010
0000
2000
0000
0000
0000
0001
0000
,  // measure 7
3000
1000
0000
0000
0100
0000
0000
1000
0100
0000
1000
0000
0001
0000
0010
0002
,  // measure 8
0000
1000
0000
0000
0013
0000
0001
1000
0001
0000
0010
0000
0100
0000
1000
0020
,  // measure 9
0000
0001
0000
0000
1030
0000
0010
0000
0100
0000
0001
0010
0100
0000
1000
0200
,  // measure 10
0000
0001
0000
0000
0310
0000
0100
0000
1000
0000
0002
0000
0000
0000
0010
0000
,  // measure 11
0003
0001
0000
0000
1000
0000
0001
0000
0100
0000
0010
0000
1000
0000
1001
0000
,  // measure 12
0001
0010
0000
0000
0001
0000
0000
1000
0010
0000
1000
0000
0001
0000
0010
0000
,  // measure 13
0000
0010
0000
0000
1000
0000
0010
0000
0001
0000
0010
0000
0100
0000
0001
0000
,  // measure 14
1000
0001
0000
0000
0100
0000
0000
0010
0100
0000
0001
0000
1000
0000
0100
0000
,  // measure 15
0000
0100
0000
0000
0001
0000
0100
0000
0010
0000
0100
0000
0001
0000
1000
0000
,  // measure 16
0100
1000
0000
0000
0001
0000
0000
0010
0001
0000
1000
0001
0000
0000
0010
0000
,  // measure 17
0000
0010
0000
0000
1000
0000
0001
0000
0010
0000
0200
0000
0000
0000
1000
0000
,  // measure 18
0000
0300
2000
0000
0001
0000
0000
0100
3000
0000
1100
0000
0000
0000
1000
0000
,  // measure 19
0000
0100
0000
0000
0001
0000
0000
0010
0000
0000
1000
0000
1001
0000
1000
0000
,  // measure 20
0000
1000
0000
0000
1000
0000
0100
0000
1000
0000
0001
0000
1000
0000
0010
0000
,  // measure 21
0000
0010
0000
0000
0010
0000
0100
0000
0001
0000
2000
0000
0010
0000
0000
0000
,  // measure 22
3001
0002
1000
0000
0103
0020
0001
0000
,  // measure 23
1030
0002
0000
1003
0010
0100
0110
0001
,  // measure 24
0000
0001
0000
0000
0001
0000
0100
0000
0010
0000
1000
0000
0001
0000
0010
0000
,  // measure 25
0000
0010
0000
0000
0010
0000
0100
0000
1000
0000
0001
0000
0100
0000
0010
0000
,  // measure 26
0000
0010
0000
0000
0010
0000
0000
0000
1000
0000
0100
0000
0010
0000
0001
0000
,  // measure 27
0000
0001
0000
0000
0001
0000
0000
0000
0010
0000
0100
0000
1000
0000
0002
0000
,  // measure 28
0000
0000
0003
0000
0000
0000
1000
0000
0010
0000
0100
0000
0001
0000
0010
0200
,  // measure 29
0000
0000
0000
0300
0000
0000
1000
0000
0001
0000
2000
0000
0000
0000
0000
0000
,  // measure 30
0000
3000
0200
0000
0000
0000
0300
0000
0000
0000
2000
0000
0000
3000
0200
0000
,  // measure 31
0000
0300
0020
0000
0000
0030
0002
0000
0000
0003
2000
0000
0000
0000
0010
0000
,  // measure 32
0000
0010
0000
0000
0010
0000
0001
0000
0010
0000
3001
0000
1001
0000
1000
0100
,  // measure 33
0000
1000
0100
0000
0010
0000
0100
0000
1000
0000
0001
0000
0100
0000
0010
0100
,  // measure 34
0000
0010
0100
0000
0001
0000
0010
0000
0100
0000
2000
0000
0001
0000
0000
0000
,  // measure 35
3010
0020
0001
0000
1030
0200
0010
0000
,  // measure 36
1300
0000
2000
0000
3001
0000
1000
0000
0010
0000
1000
0000
0001
0000
0100
0010
,  // measure 37
0000
0100
0010
0000
1000
0000
0100
0000
0001
0000
0100
0000
1000
0000
0001
0010
,  // measure 38
0000
0001
0010
0000
1000
0000
0010
0000
0001
0000
0010
0000
0100
0000
1000
0010
,  // measure 39
0000
1000
0010
0000
0100
0000
0001
0100
0001
0000
1000
0000
0100
0000
0010
0100
,  // measure 40
0000
0010
0100
0000
1000
0000
0001
0100
0010
0000
0100
0000
0110
0000
0010
1000
,  // measure 41
0000
0001
0000
0010
0000
0000
0001
0000
1000
0010
0100
0001
0000
0010
0000
1000
,  // measure 42
0000
0100
0000
0001
0000
0000
0010
0000
0100
0010
0001
1000
0000
0010
0000
0001
,  // measure 43
0000
0010
0000
1000
0000
0000
0010
0000
1000
0001
0010
0100
0000
0001
0000
0100
,  // measure 44
0000
1000
0000
0100
0000
0000
1000
0000
0002
0000
0000
0000
1003
0000
0100
0000
,  // measure 45
0000
0100
0000
0000
0100
0000
1000
0000
0001
0100
0010
1000
0000
0001
0000
0010
,  // measure 46
0000
0100
0000
2000
0000
0000
0000
0000
3200
0000
0320
0000
0001
0000
0100
0000
,  // measure 47
0030
0100
0000
0000
0100
0000
0000
1000
0001
0000
0010
0000
0001
0000
0100
0000
,  // measure 48
0000
0100
0000
0000
0100
0000
0000
0001
0020
0000
0200
0000
0000
0000
0000
0000
,  // measure 49
0000
0000
0000
0000
,  // measure 50
0330
0000
0000
0000
;
