#VERSION:0.83;
#TITLE:joy wave;
#SUBTITLE:;
#ARTIST:euphorian & Skybreak;
#TITLETRANSLIT:;
#SUBTITLETRANSLIT:;
#ARTISTTRANSLIT:;
#GENRE:Future Dubstep;
#ORIGIN:;
#CREDIT:;
#BANNER:joy wave-bn.png;
#BACKGROUND:joy wave-bg.png;
#PREVIEWVID:;
#JACKET:joy wave-jacket.png;
#CDIMAGE:;
#DISCIMAGE:;
#LYRICSPATH:;
#CDTITLE:cdtitle.png;
#MUSIC:joy wave.ogg;
#OFFSET:0.001000;
#SAMPLESTART:51.199001;
#SAMPLELENGTH:12.800000;
#SELECTABLE:YES;
#BPMS:0.000=150.000;
#STOPS:208.000=0.200,
208.500=0.200,
209.000=0.200,
209.500=0.200,
210.000=0.200,
210.500=0.200,
211.000=0.200,
211.500=0.200;
#DELAYS:;
#WARPS:;
#TIMESIGNATURES:0.000=4=4;
#TICKCOUNTS:0.000=4;
#COMBOS:0.000=1;
#SPEEDS:0.000=1.000=0.000=0;
#SCROLLS:0.000=1.000;
#FAKES:;
#LABELS:0.000=Song Start;
#BGCHANGES:;
#KEYSOUNDS:;
#ATTACKS:
;

//---------------dance-single - ----------------
#NOTEDATA:;
#CHARTNAME:X-Scale 15;
#STEPSTYPE:dance-single;
#DESCRIPTION:;
#CHARTSTYLE:;
#DIFFICULTY:Hard;
#METER:10;
#RADARVALUES:0.523874,0.818366,0.321808,0.449035,0.306840,490.000000,447.000000,43.000000,60.000000,0.000000,0.000000,18.000000,0.000000,0.000000,0.523874,0.818366,0.321808,0.449035,0.306840,490.000000,447.000000,43.000000,60.000000,0.000000,0.000000,18.000000,0.000000,0.000000;
#CREDIT:iamthek3n;
#NOTES:
0000
0000
0000
0000
,
0000
0000
0000
0000
,
0000
0000
0000
0000
,
0000
0000
0000
0000
,
0000
0000
0000
0000
,
0000
0000
0000
0000
,
0000
0000
0000
0000
,
0000
0000
0000
0000
,
1002
0010
2003
0100
,
3020
0100
0100
0000
0230
0000
1000
0000
,
0302
0010
0203
1000
,
0302
0010
2003
0100
,
3020
0001
0230
0010
,
0302
1000
1000
0000
0023
0000
1000
0000
,
0230
0010
1000
0010
,
0320
0001
0032
0000
,
2003
0000
0200
0000
0300
0000
0002
0003
,
3002
0000
2000
0000
3000
0000
1000
0100
,
2003
0000
0000
3100
0010
0100
1000
0001
,
0010
0000
0100
1000
0001
0000
0100
0001
,
0101
0000
0001
1000
1100
0000
1000
0000
,
0010
0000
0100
0001
0011
0000
1000
0000
,
1010
1010
1000
0010
,
1000
0100
0010
0001
0400
0000
0000
0000
,
0310
0000
0000
0000
0100
0000
0000
0000
0001
0000
1000
0000
0001
1000
0001
0000
,
1000
0000
0100
0000
0010
0100
0010
0000
0001
0000
0100
0000
0010
0100
0010
0000
,
1000
0000
0000
0000
0001
0000
0000
0000
0010
0000
0001
0000
0100
0010
0100
0000
,
0001
0000
0010
0000
0100
1000
0100
0000
4000
0000
0000
0000
3004
0000
0000
0000
,
0103
0001
1000
0010
0100
1000
0100
0010
,
1000
0001
0010
0001
1000
0100
0001
0100
,
1000
0100
1000
0100
1000
0100
1000
0100
0010
0001
0010
0001
0010
0001
0010
0001
,
2000
0000
3000
0000
0010
1000
0001
0000
0100
0001
1000
0000
0100
0000
0010
0000
,
0202
0000
0000
0000
0000
0000
0303
0000
1001
0000
0000
1000
0000
0000
0001
0000
,
0101
0000
0000
0100
0000
0000
0010
0000
0110
0000
0000
0010
1000
0000
0001
0000
,
4001
0000
0000
0000
3004
0000
0000
0000
0013
0000
0000
0100
0000
0000
1000
0000
,
1100
0000
0000
0100
0000
0000
0010
0000
0101
0000
0100
0001
0100
0000
0001
0000
,
2002
0000
0000
0000
0000
0000
3003
0000
1001
0000
0000
0010
0000
0000
1000
0000
,
1010
0000
0000
0010
0000
0000
0100
0000
0110
0000
0000
0010
0000
0000
1000
0000
,
1001
0000
0000
0001
0010
0000
0001
0000
0101
0000
0000
0100
0000
0001
1000
0000
,
1001
0000
1000
0001
1000
0001
1000
0000
0400
0000
0000
0000
0310
0000
0100
0000
,
2000
0000
0000
0000
0000
0000
3000
0000
1001
0000
0000
0001
0010
0000
0001
0000
,
0100
0000
0000
0010
0100
0000
0001
0000
1000
0000
0000
0100
0010
0000
0001
0000
,
0014
0000
0000
0000
0103
0000
0001
0000
1000
0000
0010
1000
0000
0100
0010
0000
,
0110
0000
0000
0010
0001
0000
0400
0000
0301
1000
0001
1000
0100
0010
0100
0010
,
2002
0000
0000
0000
0000
0000
3003
0000
1001
0000
0000
0001
0000
0000
1000
0000
,
1001
0000
0000
0100
0000
0000
1000
0000
1100
0000
1000
0100
0000
0010
0001
0000
,
0102
0000
0000
0000
0003
0001
0010
0000
0011
0000
0000
0010
0000
0010
0100
0000
,
1000
0100
0000
0100
0010
0000
0100
0000
1000
0001
0100
0001
0100
0000
0001
0000
,
1001
0000
0000
1000
0100
0000
0100
0000
0010
0000
0100
0000
1000
0000
0001
0000
,
0100
0000
0000
0010
0100
0000
0100
0000
0001
0000
0010
0000
1000
0000
0010
0000
,
0001
0000
0000
0100
0010
0000
0010
0000
1000
0000
0001
0000
0100
0000
0010
0000
,
1000
0000
0000
0100
1000
0000
1000
0000
0001
1000
0001
0000
0020
0000
0000
0000
,
0031
0000
0010
0000
1000
0000
0100
0000
0001
0000
0010
0000
0100
0100
1000
0000
,
0001
1000
0001
1000
0001
1000
0001
1000
0100
0010
0100
0010
0100
0010
0100
0010
,
0002
0000
1003
0100
0010
0000
0010
0000
,
2002
0000
0000
3003
2000
0000
3200
0000
,
0302
0000
0000
0000
0000
0000
0023
0000
0000
0000
0000
0000
1030
0000
0010
0000
1000
0000
0010
0000
0000
0010
0000
0000
,
0110
0000
0010
0400
0302
0000
0013
0100
,
0010
0001
2000
0000
3020
0000
0001
0030
,
1010
0000
1000
0004
0103
0000
0010
0100
,
0001
0000
0000
0000
0010
0000
0100
0000
1000
0100
1000
0000
0001
0000
0100
0000
,
0101
0000
0001
4000
3010
1000
0001
1000
,
1001
0000
0001
0100
0001
1000
0100
1000
0001
0000
1000
0000
0001
0000
0000
0000
,
2002
0000
0000
0000
0000
0000
0000
0000
0000
3003
0000
0000
1001
0000
0000
0000
0101
0000
0000
0000
0110
0000
0000
0000
,
1100
0000
1000
0000
0001
0000
0000
0000
0010
0000
0100
0010
0001
0000
1000
0000
,
1001
0000
0000
0000
0001
0100
0010
0100
0001
0000
0000
0000
0001
0000
1000
0000
,
0001
0010
0400
0000
2300
0000
0010
3000
,
1001
0001
0040
0000
0130
0010
0001
1000
,
0001
0000
0000
0100
0000
0000
0010
0000
0100
0000
0001
0000
1000
0000
0000
0100
0000
0000
0040
0000
0000
0000
0000
0000
,
0031
0000
0010
0100
1000
0010
0001
0010
,
1000
0000
0000
0000
0000
0000
0000
0000
0000
0100
0000
0000
0000
0000
0000
0000
0000
0000
0010
0000
0000
0001
0000
0000
0010
0000
0000
0000
0000
0000
0000
0000
0000
0100
0000
0000
1000
0000
0000
0000
0100
0000
0000
0000
1000
0000
0000
0000
,
1200
4000
0000
3000
,
0320
0000
0000
0000
0032
0000
0400
0300
,
2003
0000
0000
0000
3020
0400
0300
0000
,
2030
0000
0000
0000
3200
0040
0030
0000
,
0320
0000
0032
0000
,
2003
0000
3020
0000
,
0230
0000
0000
0000
,
0302
0000
2003
0000
,
0000
0000
3002
0020
,
0000
0000
0000
0000
,
0033
0000
0000
0000
;

//---------------dance-single - ----------------
#NOTEDATA:;
#CHARTNAME:X-Scale 11;
#STEPSTYPE:dance-single;
#DESCRIPTION:;
#CHARTSTYLE:;
#DIFFICULTY:Medium;
#METER:8;
#RADARVALUES:0.427652,0.636507,0.374195,0.261937,0.160904,400.000000,350.000000,50.000000,35.000000,0.000000,0.000000,0.000000,0.000000,0.000000,0.427652,0.636507,0.374195,0.261937,0.160904,400.000000,350.000000,50.000000,35.000000,0.000000,0.000000,0.000000,0.000000,0.000000;
#CREDIT:iamthek3n;
#NOTES:
// measure 0
0000
0000
0000
0000
,  // measure 1
0000
0000
0000
0000
,  // measure 2
0000
0000
0000
0000
,  // measure 3
0000
0000
0000
0000
,  // measure 4
0000
0000
0000
0000
,  // measure 5
0000
0000
0000
0000
,  // measure 6
0000
0000
0000
0000
,  // measure 7
0000
0000
0000
0000
,  // measure 8
0110
0000
1001
0000
,  // measure 9
0001
0100
0001
0000
0101
0000
0000
0000
,  // measure 10
1001
0000
1100
0000
,  // measure 11
0100
0110
1010
1000
,  // measure 12
1001
0000
0011
0000
,  // measure 13
0001
0100
0001
0000
1001
0000
1000
0000
,  // measure 14
1010
0001
0100
0010
,  // measure 15
1000
0100
0110
0010
,  // measure 16
0102
0000
0000
0000
,  // measure 17
1000
0000
0000
0000
,  // measure 18
0103
0000
0000
0100
0000
0000
0100
0001
,  // measure 19
1000
0000
0100
0000
,  // measure 20
1100
0000
1000
0000
,  // measure 21
0001
0000
0100
0000
,  // measure 22
0002
0003
0002
0000
0010
0000
0000
0000
,  // measure 23
0103
0001
1000
0010
0200
0000
0000
0300
,  // measure 24
0110
0100
0001
1000
,  // measure 25
0010
0001
0010
1000
,  // measure 26
0001
0100
0001
1000
,  // measure 27
0010
0100
0001
0000
,  // measure 28
1000
0001
1000
0001
0010
0100
0010
0100
,  // measure 29
1000
0100
1000
0100
0010
0001
0010
0001
,  // measure 30
0100
0010
1000
0001
0010
0100
0010
0001
,  // measure 31
0011
0000
0000
0000
0001
0010
0001
0000
1000
0010
1000
0000
0100
0000
0010
0000
,  // measure 32
0102
0000
0000
0000
0000
0000
0000
0000
1003
0000
0000
1000
0000
0000
0000
0000
,  // measure 33
1001
0000
0000
0001
0000
0000
0000
0000
0101
0000
0000
0100
0000
0000
0000
0000
,  // measure 34
0110
0000
0000
0000
1000
0000
0000
0000
1001
0000
0000
0001
0000
0000
0000
0000
,  // measure 35
0011
0000
0000
0010
0000
0000
0000
0000
0110
0000
0100
0010
0100
0000
1000
0000
,  // measure 36
2010
0000
0000
0000
0000
0001
0000
0000
3001
0000
0000
0010
0000
0000
0001
0000
,  // measure 37
1000
0000
0000
0010
0000
0000
1000
0000
0001
0000
0000
0100
0000
0000
0001
0000
,  // measure 38
0010
0000
0000
0100
0010
0000
0100
0000
1000
0000
0000
0010
0000
0010
1000
0000
,  // measure 39
0001
0000
0010
0000
0001
0010
0001
0000
0011
0000
0000
0000
0001
0000
1000
0000
,  // measure 40
0200
0000
0000
0000
0000
0000
0000
0000
0310
0000
0000
0100
0000
0000
1000
0000
,  // measure 41
1100
0000
0000
0100
0000
0000
0010
0000
0011
0000
0000
0001
0000
0000
0100
0000
,  // measure 42
0101
0000
0001
0000
1000
0000
0010
0000
1000
0000
0000
0100
0000
0100
1000
0000
,  // measure 43
1100
0000
0000
0100
0000
0100
0020
0000
0031
0000
0010
0000
0001
0100
0001
0000
,  // measure 44
0201
0000
0000
0000
0000
0010
0000
0000
0310
0000
0000
0100
0000
0000
0010
0000
,  // measure 45
1000
0000
0000
0001
0000
0000
1000
0000
0100
0000
0000
1000
0000
1000
0001
0000
,  // measure 46
1001
0000
0000
0000
0001
0000
0000
0000
0011
0000
0000
0010
0000
0000
0010
0000
,  // measure 47
0100
0010
0000
0100
0000
0000
1000
0000
0010
0000
0100
0010
0100
0000
0001
0000
,  // measure 48
1001
0000
1000
0010
0000
0010
0001
0010
,  // measure 49
1000
0000
0001
0100
0000
0100
1000
0100
,  // measure 50
0001
0000
1000
0100
0000
0100
0001
0100
,  // measure 51
1000
0000
0000
0000
0010
0000
1000
0000
0001
0100
0001
0000
0020
0000
0000
0000
,  // measure 52
0130
0100
1000
1000
0001
0001
1000
1000
,  // measure 53
0020
0001
0100
1030
,  // measure 54
1010
0000
1000
0001
2000
3000
2000
3000
,  // measure 55
0012
0000
2003
3002
,  // measure 56
2003
0000
0000
0000
0000
0000
3002
0000
0000
0000
0000
0000
1003
0000
0010
0000
1000
0000
0010
0000
0000
0100
0000
0000
,  // measure 57
0110
0000
0001
0100
0101
0000
0001
0100
,  // measure 58
1000
0100
0010
0100
0002
0000
0010
0000
,  // measure 59
2003
0000
3100
1000
2020
3030
0022
0033
,  // measure 60
2020
3030
1000
0001
1001
1000
0001
0010
,  // measure 61
0202
0303
0001
1000
0010
0100
0010
0000
,  // measure 62
1000
0000
0001
0100
0001
0100
0001
0000
0101
0000
0000
0000
0110
0000
0000
0000
,  // measure 63
0102
0000
0000
0000
0000
0000
1003
0000
0100
0000
0001
0000
,  // measure 64
0100
0000
0010
0000
0001
0000
0000
0000
0100
0000
0001
0100
0001
0000
0010
0000
,  // measure 65
0110
0000
0100
1000
1010
0000
0010
1000
,  // measure 66
0001
0100
0020
0000
0130
0001
0020
0000
,  // measure 67
0130
1000
0001
0000
1001
0000
1000
0010
,  // measure 68
1000
0000
0000
0100
0000
0000
0010
0000
0001
0000
0010
0000
0002
0000
0000
0000
0000
0000
0013
0000
0000
0100
0000
0000
,  // measure 69
1100
0000
1000
0001
0010
1000
0010
0100
,  // measure 70
0010
0001
1000
0000
0010
0000
0100
0000
,  // measure 71
0101
0000
0001
0000
,  // measure 72
0100
0000
1000
0000
,  // measure 73
0010
0000
0001
0000
,  // measure 74
0100
0000
0010
0000
,  // measure 75
0100
0000
0001
0000
,  // measure 76
0010
0000
0100
0000
,  // measure 77
2000
0000
0000
0000
,  // measure 78
3001
0000
2000
0000
,  // measure 79
0000
0000
0100
0020
,  // measure 80
0000
0000
0000
0000
,  // measure 81
3030
0000
0000
0000
;

//---------------dance-single - ----------------
#NOTEDATA:;
#CHARTNAME:X-Scale 7;
#STEPSTYPE:dance-single;
#DESCRIPTION:;
#CHARTSTYLE:;
#DIFFICULTY:Easy;
#METER:5;
#RADARVALUES:0.257660,0.417789,0.217033,0.104775,0.000000,241.000000,212.000000,29.000000,14.000000,0.000000,0.000000,0.000000,0.000000,0.000000,0.257660,0.417789,0.217033,0.104775,0.000000,241.000000,212.000000,29.000000,14.000000,0.000000,0.000000,0.000000,0.000000,0.000000;
#CREDIT:iamthek3n;
#NOTES:
// measure 0
0000
0000
0000
0000
,  // measure 1
0000
0000
0000
0000
,  // measure 2
0000
0000
0000
0000
,  // measure 3
0000
0000
0000
0000
,  // measure 4
0000
0000
0000
0000
,  // measure 5
0000
0000
0000
0000
,  // measure 6
0000
0000
0000
0000
,  // measure 7
0000
0000
0000
0000
,  // measure 8
0001
0000
0010
0000
,  // measure 9
0100
0000
1000
0000
,  // measure 10
0010
0000
0100
0000
,  // measure 11
0001
0000
1000
0000
,  // measure 12
0100
0000
0010
0000
,  // measure 13
0001
0000
0100
0000
,  // measure 14
0010
0000
1000
0000
,  // measure 15
0001
0000
0100
0000
,  // measure 16
0101
0000
0000
0000
,  // measure 17
1000
0000
0000
0000
,  // measure 18
0001
0000
0000
0000
,  // measure 19
1000
0000
0000
0000
,  // measure 20
1100
0000
0000
0000
,  // measure 21
0100
0000
0000
0000
,  // measure 22
0010
0000
0000
0000
,  // measure 23
0001
0000
0000
0000
,  // measure 24
1001
0000
1000
0000
,  // measure 25
0001
0000
0010
0000
,  // measure 26
0001
0000
1000
0000
,  // measure 27
0010
0000
1000
0000
,  // measure 28
0001
0010
0100
1000
,  // measure 29
0010
0100
0001
1000
,  // measure 30
0100
1000
0001
0100
,  // measure 31
0001
0000
0000
0000
,  // measure 32
1001
0000
0110
0000
,  // measure 33
1010
0000
0101
0000
,  // measure 34
1001
1000
1100
0000
,  // measure 35
0011
0000
0101
0000
,  // measure 36
1001
0000
0110
0000
,  // measure 37
1100
0000
0101
0000
,  // measure 38
1001
0001
0101
0000
,  // measure 39
0110
0000
0000
0000
1001
0000
1000
0001
,  // measure 40
2000
0000
0000
0000
3100
0000
1000
0001
,  // measure 41
1000
0000
0010
0000
0100
0000
0001
0010
,  // measure 42
0001
0000
1000
0000
1001
0000
0001
0100
,  // measure 43
0001
0000
0010
0000
0100
0000
1000
0100
,  // measure 44
2000
0000
0000
0000
3010
0000
1000
0010
,  // measure 45
1000
0000
0001
0000
0010
0000
0100
0010
,  // measure 46
0100
0000
0000
0000
1001
0000
0001
0100
,  // measure 47
0001
0000
1000
0000
0010
1000
0001
0000
,  // measure 48
1001
0000
1000
1000
0000
0001
0001
0000
,  // measure 49
0100
0000
0010
0010
0000
1000
1000
0000
,  // measure 50
0100
0000
0010
0010
0000
0001
0001
0000
,  // measure 51
1000
0000
0001
0001
0200
0000
0320
0000
,  // measure 52
1030
0001
1000
0001
1000
0001
1000
0001
,  // measure 53
0020
0100
0001
0100
,  // measure 54
0032
0000
0000
0000
,  // measure 55
2003
0000
3010
1000
,  // measure 56
0010
1000
0001
0000
,  // measure 57
0101
0000
0110
0010
,  // measure 58
1000
0001
0200
0000
,  // measure 59
0301
0000
1001
1000
,  // measure 60
0100
1000
0002
0000
,  // measure 61
0013
0000
0100
1000
0100
0010
0100
0000
,  // measure 62
1010
1000
0001
0001
,  // measure 63
0021
0000
0130
0000
,  // measure 64
0001
1000
0001
0000
0020
0000
0000
0000
,  // measure 65
0130
0000
0000
0000
1010
0000
1000
0001
,  // measure 66
0100
0001
2000
0000
3100
0000
0010
0000
,  // measure 67
0001
0100
0020
0000
0130
0000
0010
0000
,  // measure 68
0100
0010
2000
0000
,  // measure 69
3100
0000
1000
0001
1000
0010
0100
0010
,  // measure 70
1000
0000
0001
0000
,  // measure 71
1001
0000
0010
0000
,  // measure 72
0001
0000
1000
0000
,  // measure 73
0010
0000
0100
0000
,  // measure 74
0001
0000
0010
0000
,  // measure 75
0100
0000
1000
0000
,  // measure 76
0010
0000
1000
0000
,  // measure 77
0100
0000
0000
0000
,  // measure 78
0010
0000
0001
0000
,  // measure 79
0000
0000
1000
0001
;

//---------------dance-single - ----------------
#NOTEDATA:;
#CHARTNAME:X-Scale 3;
#STEPSTYPE:dance-single;
#DESCRIPTION:;
#CHARTSTYLE:;
#DIFFICULTY:Beginner;
#METER:2;
#RADARVALUES:0.107982,0.206930,0.037420,0.000000,0.000000,101.000000,96.000000,5.000000,0.000000,0.000000,0.000000,0.000000,0.000000,0.000000,0.107982,0.206930,0.037420,0.000000,0.000000,101.000000,96.000000,5.000000,0.000000,0.000000,0.000000,0.000000,0.000000,0.000000;
#CREDIT:iamthek3n;
#NOTES:
// measure 0
0000
0000
0000
0000
,  // measure 1
0000
0000
0000
0000
,  // measure 2
0000
0000
0000
0000
,  // measure 3
0000
0000
0000
0000
,  // measure 4
0000
0000
0000
0000
,  // measure 5
0000
0000
0000
0000
,  // measure 6
0000
0000
0000
0000
,  // measure 7
0000
0000
0000
0000
,  // measure 8
1000
0000
0000
0000
,  // measure 9
0001
0000
0000
0000
,  // measure 10
1000
0000
0000
0000
,  // measure 11
0001
0000
0000
0000
,  // measure 12
0100
0000
0000
0000
,  // measure 13
0010
0000
0000
0000
,  // measure 14
0100
0000
0000
0000
,  // measure 15
0010
0000
0000
0000
,  // measure 16
1000
0000
0000
0000
,  // measure 17
0000
0000
0000
0000
,  // measure 18
0001
0000
0000
0000
,  // measure 19
0000
0000
0000
0000
,  // measure 20
0010
0000
0000
0000
,  // measure 21
0000
0000
0000
0000
,  // measure 22
0001
0000
0000
0000
,  // measure 23
0000
0000
0000
0000
,  // measure 24
1000
0000
0000
0000
,  // measure 25
0100
0000
0000
0000
,  // measure 26
0010
0000
0000
0000
,  // measure 27
0001
0000
0000
0000
,  // measure 28
0100
0000
0000
0000
,  // measure 29
0010
0000
0000
0000
,  // measure 30
1000
0000
0000
0000
,  // measure 31
0001
0000
0000
0000
,  // measure 32
1001
0000
0001
0000
,  // measure 33
1000
0000
0001
0000
,  // measure 34
1000
0000
0100
0000
,  // measure 35
0010
0000
0100
0000
,  // measure 36
0010
0000
0001
0000
,  // measure 37
0100
0000
0001
0000
,  // measure 38
0100
0000
0010
0000
,  // measure 39
1000
0000
0010
0000
,  // measure 40
1000
0000
0001
0000
,  // measure 41
0100
0000
0001
0000
,  // measure 42
1000
0000
0100
0000
,  // measure 43
0010
0000
0001
0000
,  // measure 44
1000
0000
0001
0000
,  // measure 45
0100
0000
0001
0000
,  // measure 46
1000
0000
0100
0000
,  // measure 47
1000
0000
0000
0000
,  // measure 48
0001
0000
0000
0000
,  // measure 49
0010
0000
0000
0000
,  // measure 50
0100
0000
0000
0000
,  // measure 51
0010
0000
0000
0000
,  // measure 52
0001
0000
0000
0000
,  // measure 53
1000
0000
0000
0000
,  // measure 54
0001
0000
0000
0000
,  // measure 55
1001
0000
1000
0000
,  // measure 56
0001
0000
0100
0000
,  // measure 57
0110
0000
0010
0000
,  // measure 58
0100
0000
0001
0000
,  // measure 59
1000
0000
0100
0000
,  // measure 60
1000
0000
0001
0000
,  // measure 61
0100
0000
0001
0000
,  // measure 62
1000
0000
0000
0000
,  // measure 63
1001
0000
1000
0000
,  // measure 64
0001
0000
0100
0000
,  // measure 65
0110
0000
0010
0000
,  // measure 66
0100
0000
0001
0000
,  // measure 67
0010
0000
0001
0000
,  // measure 68
1000
0000
0100
0000
,  // measure 69
1000
0000
0001
0000
,  // measure 70
0000
0000
0000
0000
,  // measure 71
1000
0000
0000
0000
,  // measure 72
0100
0000
0000
0000
,  // measure 73
0010
0000
0000
0000
,  // measure 74
0001
0000
0000
0000
,  // measure 75
0100
0000
0000
0000
,  // measure 76
0010
0000
0000
0000
,  // measure 77
1000
0000
0000
0000
,  // measure 78
0001
0000
0000
0000
,  // measure 79
1000
0000
0000
0000
;

//---------------dance-single - play this if you hate rolls in the Heavy chart----------------
#NOTEDATA:;
#CHARTNAME:No Rolls version;
#STEPSTYPE:dance-single;
#DESCRIPTION:play this if you hate rolls in the Heavy chart;
#CHARTSTYLE:;
#DIFFICULTY:Edit;
#METER:10;
#RADARVALUES:0.516390,0.818366,0.291872,0.561293,0.310582,483.000000,444.000000,39.000000,75.000000,0.000000,0.000000,0.000000,0.000000,0.000000,0.516390,0.818366,0.291872,0.561293,0.310582,483.000000,444.000000,39.000000,75.000000,0.000000,0.000000,0.000000,0.000000,0.000000;
#CREDIT:iamthek3n;
#NOTES:
0000
0000
0000
0000
,
0000
0000
0000
0000
,
0000
0000
0000
0000
,
0000
0000
0000
0000
,
0000
0000
0000
0000
,
0000
0000
0000
0000
,
0000
0000
0000
0000
,
0000
0000
0000
0000
,
1002
0010
2003
0100
,
3020
0100
0100
0000
0230
0000
1000
0000
,
0302
0010
0203
1000
,
0302
0010
2003
0100
,
3020
0001
0230
0010
,
0302
1000
1000
0000
0023
0000
1000
0000
,
0230
0010
1000
0010
,
0320
0001
0032
0000
,
1003
2000
3000
0200
,
0300
0000
0000
0000
2000
0000
0000
0000
3000
0000
0000
0000
0001
0000
1000
0001
,
1000
0000
0000
0100
0000
0100
1000
0001
,
0010
0000
0100
1000
0001
0000
0100
0001
,
0101
0001
0100
0001
,
0010
1000
0010
0100
,
0010
0001
1000
0010
,
1000
0100
0010
0001
0200
0000
0000
0000
,
0310
0000
0000
0000
0100
0000
0000
0000
0001
0000
1000
0000
0001
1000
0001
0000
,
1000
0000
0100
0000
0010
0100
0010
0000
0001
0000
0100
0000
0010
0100
0010
0000
,
1000
0000
0000
0000
0001
0000
0000
0000
0010
0000
0001
0000
0100
0010
0100
0000
,
0001
0000
0010
0000
0100
1000
0100
0000
2000
0000
0000
0000
3002
0000
0000
0000
,
0103
0001
1000
0010
0100
1000
0100
0010
,
1000
0001
0010
0001
1000
0100
0001
0100
,
1000
0100
1000
0100
1000
0100
1000
0100
0010
0001
0010
0001
0010
0001
0010
0001
,
2000
0000
3000
0000
0010
1000
0001
0000
0100
0001
1000
0000
0100
0000
0010
0000
,
0202
0000
0000
0000
0000
0000
0303
0000
1001
0000
0000
1000
0000
0000
0001
0000
,
0101
0000
0000
0100
0000
0000
0010
0000
0110
0000
0000
0010
1000
0000
0001
0000
,
2001
0000
0000
0000
3002
0000
0000
0000
0013
0000
0000
0100
0000
0000
1000
0000
,
1100
0000
0000
0100
0000
0000
0010
0000
0101
0000
0100
0001
0100
0000
0001
0000
,
2002
0000
0000
0000
0000
0000
3003
0000
1001
0000
0000
0010
0000
0000
1000
0000
,
1010
0000
0000
0010
0000
0000
0100
0000
0110
0000
0000
0010
0000
0000
1000
0000
,
1001
0000
0000
0001
0010
0000
0001
0000
0101
0000
0000
0100
0000
0001
1000
0000
,
1001
0000
1000
0001
1000
0001
1000
0000
0200
0000
0000
0000
0310
0000
0100
0000
,
2000
0000
0000
0000
0000
0000
3000
0000
1001
0000
0000
0001
0010
0000
0001
0000
,
0100
0000
0000
0010
0100
0000
0001
0000
1000
0000
0000
0100
0010
0000
0001
0000
,
0012
0000
0000
0000
0013
0000
0001
0000
1000
0000
0010
1000
0000
0100
0010
0000
,
0110
0000
0000
0010
0001
0000
0200
0000
0301
0100
0001
0100
0010
1000
0010
1000
,
2002
0000
0000
0000
0000
0000
3003
0000
1001
0000
0000
0001
0000
0000
1000
0000
,
1001
0000
0000
0100
0000
0000
1000
0000
1100
0000
1000
0100
0000
0010
0001
0000
,
0102
0000
0000
0000
0003
0001
0010
0000
0011
0000
0000
0010
0000
0010
0100
0000
,
1000
0100
0000
0100
0010
0000
0100
0000
1000
0001
0100
0001
0100
0000
0001
0000
,
1001
0000
0000
1000
0100
0000
0100
0000
0010
0000
0100
0000
1000
0000
0001
0000
,
0100
0000
0000
0010
0100
0000
0100
0000
0001
0000
0010
0000
1000
0000
0010
0000
,
0001
0000
0000
0100
0010
0000
0010
0000
1000
0000
0001
0000
0100
0000
0010
0000
,
1000
0000
0000
0100
1000
0000
1000
0000
0001
1000
0001
0000
0020
0000
0000
0000
,
0031
0000
0010
0000
1000
0000
0100
0000
0001
0000
0010
0000
0100
0100
1000
0000
,
0001
1000
0001
1000
0001
1000
0001
1000
0100
0010
0100
0010
0100
0010
0100
0010
,
0002
0000
1003
0100
0010
0000
0010
0000
,
2002
0000
0000
3003
2000
0000
3200
0000
,
0302
0000
0000
0000
0000
0000
0023
0000
0000
0000
0000
0000
1030
0000
0010
0000
1000
0000
0010
0000
0000
0010
0000
0000
,
0110
0000
0010
0200
0302
0000
0013
0100
,
0010
0001
2000
0000
3020
0000
0001
0030
,
1010
0000
1000
0002
0103
0000
0010
0100
,
0001
0000
0000
0000
0010
0000
0100
0000
1000
0100
1000
0000
0001
0000
0100
0000
,
0101
0000
0001
2000
3010
1000
0001
1000
,
1001
0000
0001
0100
0001
1000
0100
1000
0001
0000
1000
0000
0001
0000
0000
0000
,
2002
0000
0000
0000
0000
0000
0000
0000
0000
3003
0000
0000
1001
0000
0000
0000
0101
0000
0000
0000
0110
0000
0000
0000
,
1100
0000
1000
0000
0001
0000
0000
0000
0010
0000
0100
0010
0001
0000
1000
0000
,
1001
0000
0000
0000
0001
0100
0010
0100
0001
0000
0000
0000
0001
0000
1000
0000
,
0001
0010
0200
0000
2300
0000
0010
3000
,
1001
0001
0020
0000
0130
0010
0001
1000
,
0001
0000
0000
0100
0000
0000
0010
0000
0100
0000
0001
0000
1000
0000
0000
0100
0000
0000
0020
0000
0000
0000
0000
0000
,
0031
0000
0010
0100
1000
0010
0001
0010
,
1000
0000
0000
0000
0000
0000
0000
0000
0000
0100
0000
0000
0000
0000
0000
0000
0000
0000
0010
0000
0000
0001
0000
0000
0010
0000
0000
0000
0000
0000
0000
0000
0000
0100
0000
0000
1000
0000
0000
0000
0100
0000
0000
0000
1000
0000
0000
0000
,
1200
2000
0000
3000
,
0320
0000
0000
0000
0032
0000
0200
0300
,
2003
0000
0000
0000
3020
0200
0300
0000
,
2030
0000
0000
0000
3200
0020
0030
0000
,
0320
0000
0032
0000
,
2003
0000
3020
0000
,
0230
0000
0000
0000
,
0302
0000
2003
0000
,
0000
0000
3002
0020
,
0000
0000
0000
0000
,
0033
0000
0000
0000
;
