#TITLE:interstellar travel;
#SUBTITLE:;
#ARTIST:USAO;
#TITLETRANSLIT:;
#SUBTITLETRANSLIT:;
#ARTISTTRANSLIT:;
#GENRE:Trancecore;
#CREDIT:;
#BANNER:interstellar travel-bn.png;
#BACKGROUND:interstellar travel-bg.png;
#LYRICSPATH:;
#CDTITLE:cdtitle.png;
#MUSIC:interstellar travel.ogg;
#OFFSET:0.339000;
#SAMPLESTART:98.335999;
#SAMPLELENGTH:10.667000;
#SELECTABLE:YES;
#DISPLAYBPM:90.000000:180.000000;
#BPMS:0.000000=90.000000
,4.000000=180.000000
,72.000000=360.000000
,74.000000=180.000000
,80.000000=360.000000
,83.000000=180.000000
,105.000000=360.000000
,108.000000=180.000000
,127.000000=360.000000
,128.000000=180.000000
,137.000000=360.000000
,140.000000=180.000000
,160.000000=90.000000
,174.000000=45.000000
,175.000000=90.000000
,190.500000=360.000000
,191.000000=180.000000
,283.000000=360.000000
,284.000000=180.000000
,311.000000=360.000000
,313.000000=180.000000
,374.000000=360.000000
,377.000000=180.000000
;
#STOPS:72.000000=0.167000,
72.500000=0.167000,
73.000000=0.250000,
73.500000=0.083000,
80.000000=0.167000,
80.500000=0.167000,
81.000000=0.083000,
81.500000=0.083000,
95.000000=1.000000,
105.000000=0.042000,
105.250000=0.042000,
105.500000=0.042000,
105.750000=0.042000,
106.000000=0.042000,
106.250000=0.042000,
106.500000=0.042000,
106.750000=0.042000,
107.000000=0.042000,
107.250000=0.042000,
107.500000=0.042000,
107.750000=0.042000,
127.000000=0.167000,
137.000000=0.042000,
137.250000=0.042000,
137.500000=0.042000,
137.750000=0.042000,
138.000000=0.042000,
138.250000=0.042000,
138.500000=0.042000,
138.750000=0.042000,
139.000000=0.042000,
139.250000=0.042000,
139.500000=0.042000,
139.750000=0.042000,
190.500000=0.250000,
283.000000=0.042000,
283.250000=0.042000,
283.500000=0.042000,
283.750000=0.042000,
311.000000=0.167000,
311.500000=0.167000,
312.000000=0.167000,
312.500000=0.167000,
374.000000=0.167000,
374.500000=0.167000,
375.000000=0.167000,
375.500000=0.167000,
376.000000=0.083000,
376.500000=0.083000
;
#BGCHANGES:;
#KEYSOUNDS:;
#ATTACKS:;

//---------------dance-single - WARP SPEED, CAPTAIN!----------------
#NOTES:
     dance-single:
     X-Scale 15:
     Hard:
     10:
     0.804448,1.191935,0.265555,0.578775,0.561752,827.000000,788.000000,39.000000,85.000000,0.000000,0.000000,0.804448,1.191935,0.265555,0.578775,0.561752,827.000000,788.000000,39.000000,85.000000,0.000000,0.000000:
// measure 0
0000
0000
0000
0000
,  // measure 1
1001
0001
0000
1000
0000
0010
0000
0001
,  // measure 2
0000
1000
0100
0001
0010
0001
1000
0001
,  // measure 3
0010
0100
0000
1000
0000
0010
0000
0001
,  // measure 4
0000
1000
0100
0001
0010
0001
1000
0001
,  // measure 5
1001
0000
1000
0000
0001
0000
1000
0001
1000
0000
0001
0000
0100
0000
0000
0000
,  // measure 6
0001
0000
0010
0000
0100
0000
1000
0100
1000
0000
0001
0000
0010
0000
0001
0000
,  // measure 7
1000
0100
1000
0100
1000
0100
1000
0100
0010
0001
0010
0001
0010
0001
0010
0001
,  // measure 8
1000
0010
1000
0010
1000
0010
1000
0010
0100
0001
0100
0001
0100
0001
0100
0001
,  // measure 9
0202
0303
0001
0100
1000
0100
0001
0000
,  // measure 10
1000
1000
0001
0010
1000
0010
0001
1000
,  // measure 11
2002
3003
0100
0001
0010
0001
1000
0000
,  // measure 12
0010
0010
0100
0001
1000
0100
0010
0001
,  // measure 13
0022
0033
1000
0100
0001
0100
1000
0000
,  // measure 14
0001
0000
0001
0000
0010
0000
0001
0000
1000
0000
0100
0000
1000
0000
0001
0010
,  // measure 15
0200
0000
0300
0000
1000
0000
0001
0000
0200
0000
0000
0301
2000
0000
3020
0000
,  // measure 16
2030
0000
3000
0000
0100
0000
0010
0000
0001
0000
0000
1000
0020
0000
2030
0000
,  // measure 17
3001
0000
1000
0100
0010
0001
1000
0010
,  // measure 18
1010
1010
1001
0011
0011
0000
0011
0010
,  // measure 19
0001
0010
0001
0010
0001
0000
1000
0000
0010
0100
0010
0100
0010
0400
0000
0000
,  // measure 20
0310
0110
0010
1000
0040
0000
1030
0010
,  // measure 21
0100
0010
1000
0001
0100
0001
1000
0010
,  // measure 22
0100
0000
0001
0000
0010
0000
0001
0000
1000
0000
0010
0000
0100
0010
0100
0010
,  // measure 23
0100
0010
0100
0010
1000
0001
1000
0001
1000
0001
1000
0001
1000
0000
0000
0000
,  // measure 24
2001
0000
0000
0000
3002
0000
0000
0000
0013
0001
0010
0001
0010
0000
0100
0000
,  // measure 25
1000
0000
0001
1000
0001
0000
0100
0000
0010
1000
0010
1000
0020
0030
0020
0030
,  // measure 26
1020
0430
0304
4003
,  // measure 27
3200
0000
0000
0000
1300
0000
0100
0010
0004
0000
0000
0000
0000
0000
0000
0000
,  // measure 28
2003
0000
0000
0000
3002
0000
0000
0000
0013
0001
0010
0001
0010
0000
0001
0000
,  // measure 29
1000
0000
0100
1000
0100
0000
0010
0000
0001
0010
0100
1000
0200
0300
0200
0300
,  // measure 30
2100
0000
0000
0000
0001
0000
0000
0000
0010
0000
0000
0001
0000
0000
0100
0000
,  // measure 31
0100
3000
4000
0000
3001
1000
0001
0000
,  // measure 32
2001
0000
0000
0000
3002
0000
0000
0000
1003
0001
0100
0001
1000
0000
0001
0000
,  // measure 33
1000
0000
0010
1000
0010
0000
0100
0000
0001
0100
0010
1000
0002
0003
0002
0003
,  // measure 34
2001
3400
0340
0034
,  // measure 35
2003
0000
0000
0000
3001
0000
1000
0100
0040
0000
0000
0000
0000
0000
0000
0000
,  // measure 36
0032
0000
0000
0000
2003
0000
0000
0000
3001
1000
0001
1000
0001
0000
0010
0000
,  // measure 37
0100
0000
1000
0100
1000
0000
0010
0000
0100
0010
0100
0010
0200
0300
0200
0300
,  // measure 38
0101
0001
0100
0001
1000
0100
0010
0001
,  // measure 39
0100
0000
0010
0000
4000
0000
0000
0000
3001
0010
0001
0010
0100
1000
0100
1000
,  // measure 40
0200
0000
0000
0000
0001
0000
0000
1000
2300
0000
0000
0000
0001
0000
0000
0010
,  // measure 41
3020
0000
0000
0000
0001
0000
0100
0100
0230
0000
0010
0000
0001
0000
1000
0000
,  // measure 42
0301
0000
0100
0000
0010
0000
0100
0001
0002
0000
1003
0200
0000
0300
2000
0001
,  // measure 43
3001
0000
1000
0000
0100
1000
0001
0001
0002
0000
0000
0000
1003
0000
0001
0000
,  // measure 44
1000
0000
0000
0100
0000
0000
1000
0000
0001
0000
0000
0000
0010
0000
0000
0000
0100
0000
0000
0010
0000
0000
0100
1000
0001
0000
0000
0000
1000
0000
0000
0000
,  // measure 45
0100
0000
0000
0001
0000
0000
0100
0000
1000
0000
0000
0000
0001
0000
0000
0000
0010
0000
0000
0001
0000
0000
1000
0000
0010
0000
0100
0000
0001
0000
0100
0000
,  // measure 46
0010
0000
0000
1000
0000
0000
0001
0000
1000
0000
0010
0000
0100
0000
0010
0000
1000
0000
0000
0001
1000
0001
1000
0001
1000
0000
0001
0000
1000
0000
0100
0000
,  // measure 47
1000
0000
0001
0000
0010
0000
0001
0000
1000
0000
0100
0000
1000
0000
0001
0000
1000
0001
1000
0001
1000
0000
0000
0000
1100
0000
0000
0000
1000
0000
0000
0000
,  // measure 48
0100
0000
1000
0000
0200
0000
0300
0020
0000
0030
0002
0000
0103
0000
0001
0000
,  // measure 49
1000
0000
0100
0000
0020
0000
0030
0200
0000
0300
2000
0000
3001
0000
0100
0000
,  // measure 50
0010
0000
1000
0000
0200
0000
0300
0020
0000
0030
0002
0000
0013
0000
0001
0000
,  // measure 51
1000
0000
0001
0000
0200
0000
0300
0020
0000
0030
2000
0000
3010
0000
0100
0000
,  // measure 52
1000
0000
0100
0000
0002
0000
0003
0020
0000
0030
0200
0000
1300
0000
0100
0000
,  // measure 53
1000
0000
0001
0000
0002
0000
0003
1000
0001
1000
0010
1000
0001
0000
1000
0000
,  // measure 54
0001
0000
0010
0000
0200
0000
0300
2000
0000
3000
0020
0000
1030
0000
0010
0000
,  // measure 55
0001
0000
0010
0000
0200
0000
0300
0001
0100
0001
1000
0001
0100
0000
0000
0000
,  // measure 56
0001
0000
0000
0000
1000
0000
0000
0001
0000
0000
1000
0000
1001
0000
0000
0000
,  // measure 57
0010
0000
0000
0000
0001
0000
0000
1000
0000
0000
0100
0000
1100
0000
0000
0000
,  // measure 58
1000
0100
1000
0100
1000
0000
0001
0000
1001
0000
0000
0000
1001
0000
0000
0000
,  // measure 59
0001
1000
0001
1000
0002
0000
0003
2000
0000
3000
0002
0000
1003
0000
0001
0000
,  // measure 60
0010
0001
0100
0010
1000
0001
0100
0010
,  // measure 61
1000
0000
0001
0000
0100
0000
0010
0000
1000
0000
0010
0000
0400
0040
0000
0000
,  // measure 62
0000
0000
0000
0000
0000
0000
0000
0000
0000
0000
0000
0330
0110
0000
0100
0010
,  // measure 63
0100
0000
0010
0100
0010
0000
0000
0000
2000
0000
0000
0000
3001
0000
1000
0000
,  // measure 64
0100
0001
0100
0010
0001
1000
0001
0010
,  // measure 65
0100
0000
1000
0000
0001
1000
0001
1000
0001
0100
0010
0100
0010
0000
1000
0000
,  // measure 66
0100
0000
0010
0000
0100
0000
0010
0000
0001
0000
1000
0000
0001
0100
0000
0001
,  // measure 67
0100
0000
0010
0000
1000
0010
1000
0000
0001
0000
0010
0001
0010
0000
0001
0000
,  // measure 68
1000
0100
0001
0100
1000
0001
0100
0010
,  // measure 69
1000
0000
0010
0000
1000
0001
1000
0001
0100
0010
0100
0010
0100
0000
0010
0000
,  // measure 70
1000
0000
0010
0000
0001
0000
0010
0000
0100
0000
0001
0000
1000
0100
1000
0100
,  // measure 71
4000
0000
3002
0003
1001
0000
2200
3300
,  // measure 72
0100
0000
1000
0000
0001
0100
0001
0100
0001
0000
1000
0000
0100
0000
0001
0000
,  // measure 73
0100
0000
1000
0000
0001
1000
0001
1000
0010
0100
0010
0100
0001
0000
0100
0000
,  // measure 74
0010
0000
1000
0000
0001
1000
0001
1000
0001
0000
1000
0000
0100
1000
0000
0001
,  // measure 75
1000
0000
0010
0000
0100
0010
0100
0000
0001
0000
0010
0100
0010
0000
0001
0000
,  // measure 76
1000
0100
0001
0100
0010
0001
0100
0010
,  // measure 77
1000
0000
0001
0000
1000
0001
1000
0001
1000
0001
1000
0001
1001
0000
1001
0000
,  // measure 78
0101
0101
1001
0000
1000
0001
0040
0000
,  // measure 79
0031
0010
0001
0010
0000
0000
0001
1000
0001
0000
1000
0000
0010
0000
0100
0000
,  // measure 80
0001
1000
0010
0100
0002
0000
1000
2003
,  // measure 81
0100
0000
3010
0020
1000
0000
0001
0000
,  // measure 82
2030
0000
3010
0100
0002
0000
1003
2000
,  // measure 83
0010
3000
0002
0000
2003
0000
0100
0000
,  // measure 84
3001
0000
0000
0000
1000
0000
0100
0020
0000
0000
0000
0000
0100
0000
0230
0000
,  // measure 85
0000
0000
0320
0000
0031
0010
1000
0010
,  // measure 86
0001
1000
0100
0010
0001
1000
0002
0000
,  // measure 87
1003
0001
0010
0001
1001
0000
1001
1000
,  // measure 88
0001
0010
0001
0100
1000
0100
0010
1000
,  // measure 89
0001
0000
1000
0000
0100
0000
0001
0000
0100
0000
0010
0000
0001
0010
0001
0010
,  // measure 90
0001
0000
1000
0000
0010
1000
0010
1000
0010
0000
0400
0000
0304
0000
0203
0000
,  // measure 91
0010
0000
0302
0000
1003
0100
0010
0001
,  // measure 92
1000
0100
0010
0001
1000
0100
0010
0001
,  // measure 93
1000
0100
0010
0001
0011
1001
1010
1001
,  // measure 94
1000
0000
0001
0000
1000
0001
1000
0001
1000
0001
1000
0001
1000
0100
1000
0100
,  // measure 95
1000
0100
1000
0100
1100
0000
0000
0000
2200
0000
0000
0000
0000
0000
0000
0000
,  // measure 96
0000
0000
0000
0000
,  // measure 97
0000
3300
0000
0000
;

//---------------dance-single - man, space can be real trippy sometimes----------------
#NOTES:
     dance-single:
     X-Scale 12:
     Medium:
     9:
     0.640057,0.927061,0.245128,0.640057,0.187251,658.000000,622.000000,36.000000,94.000000,0.000000,0.000000,0.640057,0.927061,0.245128,0.640057,0.187251,658.000000,622.000000,36.000000,94.000000,0.000000,0.000000:
// measure 0
0000
0000
0000
0000
,  // measure 1
1100
1000
0000
0001
0000
1000
0000
0001
,  // measure 2
0000
1000
0100
0010
0001
1000
0100
0010
,  // measure 3
0001
1000
0000
0001
0000
1000
0000
0001
,  // measure 4
0000
1000
0100
0010
0001
1000
0100
0010
,  // measure 5
0011
0000
1000
0000
0001
0010
0100
0000
,  // measure 6
1000
0000
0001
0000
1000
0010
0100
0001
,  // measure 7
1000
0000
0100
0000
0001
0100
1000
0000
,  // measure 8
0001
0010
1000
0010
0001
1000
0100
0010
,  // measure 9
0022
0033
0002
0000
2003
0000
3002
0000
,  // measure 10
0013
0100
0000
1000
0000
0001
0000
1000
,  // measure 11
2002
3003
2000
0000
3200
0000
2300
0000
,  // measure 12
3001
0010
0000
0001
0000
1000
0000
0010
,  // measure 13
2020
3030
0002
0000
0203
0000
0302
0000
,  // measure 14
0013
0000
0100
0000
0000
0000
1000
0000
0000
0000
0001
0000
0000
0000
1000
0100
,  // measure 15
1000
0000
0100
0000
0010
0000
0100
0000
1000
0000
0000
0100
0000
0000
1000
0000
,  // measure 16
0001
0000
0100
0000
0010
0000
0000
0000
1000
0000
0000
0001
0000
0000
1000
0000
,  // measure 17
1001
0001
0010
0001
,  // measure 18
1000
1000
1000
0000
2100
0000
3001
0000
,  // measure 19
1000
0100
0010
0002
,  // measure 20
1003
0001
1000
0001
0000
0000
1000
0000
,  // measure 21
0010
0001
0010
0100
,  // measure 22
0001
0000
0000
0000
1000
0000
0000
0000
0100
0000
1000
0001
1000
0000
0100
0000
,  // measure 23
0010
0000
0100
0000
1000
0000
0000
0001
0000
0000
0010
0000
0000
0000
0000
0000
,  // measure 24
0210
0000
0000
0000
2300
0000
0000
0000
3001
0000
1000
0100
0010
0000
0010
0000
,  // measure 25
0001
0000
0100
0010
1000
0000
1000
0000
0001
0000
0100
0000
0002
0003
0002
0003
,  // measure 26
2000
0000
3100
1000
0001
0100
0001
0010
,  // measure 27
0200
0000
0000
0000
1300
0000
0100
1000
0200
0000
0000
0000
0000
0000
0000
0000
,  // measure 28
0320
0000
0000
0000
0032
0000
0000
0000
1003
0000
0001
1000
0001
0000
0001
0000
,  // measure 29
0100
0000
0010
0100
0010
0000
0010
0000
1000
0000
0100
0000
0020
0030
0020
0030
,  // measure 30
0012
0000
1000
0000
0000
0100
0100
0000
,  // measure 31
1000
0000
0010
0000
1003
0001
1000
0000
,  // measure 32
2001
0000
0000
0000
3200
0000
0000
0000
1300
0000
0100
1000
0001
0000
0001
0000
,  // measure 33
1000
0000
0010
0100
0001
0000
0001
0000
1000
0000
0100
0000
0020
0030
0020
0030
,  // measure 34
0002
0000
1003
0001
0010
0100
0010
0001
,  // measure 35
2000
0000
3001
1000
0200
0000
0000
0000
,  // measure 36
2300
0000
0000
0000
3002
0000
0000
0000
0103
0000
0001
0100
0010
0000
1000
0000
,  // measure 37
0010
0000
1000
0100
1000
0000
0100
0000
0010
0000
0001
0000
2000
3000
2000
3000
,  // measure 38
0001
1000
0000
0100
0000
1000
0001
0000
,  // measure 39
1000
0100
0001
0100
0010
0001
1000
0001
,  // measure 40
1001
0000
0000
0000
1000
0000
0000
0001
0100
0000
0000
0000
0010
0000
1000
0010
,  // measure 41
1000
0000
0100
0000
0010
0000
0001
0010
0001
0000
1000
0000
0001
0000
0010
0000
,  // measure 42
0100
0000
0000
0000
1000
0000
0000
0001
2000
0000
3000
0020
0000
0030
0200
0000
,  // measure 43
0302
0000
0000
0000
0013
0000
1000
0010
0001
0000
0000
0000
0011
0000
1000
0000
,  // measure 44
0010
0000
0000
0100
0000
0000
0010
0000
1000
0000
0000
0000
0100
0000
0000
0000
0010
0000
0000
0001
0000
0000
1000
0000
0001
0000
0000
0000
0100
0000
0000
0000
,  // measure 45
1000
0000
0000
0100
0000
0000
0001
0000
0100
0000
0000
0000
0010
0000
0000
0000
1000
0000
0000
0100
0000
0000
0010
0000
0001
0000
0000
0000
1000
0000
0000
0000
,  // measure 46
0001
0000
0000
0010
0000
0000
0001
0000
0100
0000
0000
0000
0010
0000
0000
0000
0001
0000
0000
0010
0000
0000
0100
0000
0001
0000
0100
0000
0010
0000
1000
0000
,  // measure 47
0001
0100
0010
1000
0001
0010
0100
1000
0001
1000
1001
0000
1001
0000
0000
0000
,  // measure 48
1000
0000
0001
0000
0010
0000
0000
0100
0000
0000
1000
0000
0001
0000
1000
0000
,  // measure 49
0100
0000
0000
0000
0010
0000
0000
0001
0000
0000
0010
0000
0100
0000
1000
0000
,  // measure 50
0100
0000
0000
0000
0010
0000
0000
0001
0000
0000
1000
0000
0100
0000
1000
0000
,  // measure 51
0001
0000
0200
0320
2030
3002
0013
0100
,  // measure 52
1000
0000
0000
0000
0001
0000
0000
0010
0000
0000
0001
0000
1000
0000
0010
0000
,  // measure 53
0100
0000
0000
0000
0001
0000
0000
0010
0000
0000
0100
0000
0010
0000
0001
0000
,  // measure 54
1000
0000
0000
0000
0100
0000
0000
1000
0000
0000
0001
0000
0010
0000
0001
0000
,  // measure 55
1000
0000
0000
0000
0010
0000
0000
1000
0000
0000
0001
0000
2001
0000
0000
0000
,  // measure 56
3002
0000
0000
0000
0023
0000
0030
0200
0000
0300
0020
0000
0032
0000
0000
0000
,  // measure 57
2003
0000
0000
0000
3020
0000
0030
0200
0000
0300
0002
0000
2003
0000
0000
0000
,  // measure 58
3200
0000
0000
0000
2300
0000
3000
0001
1001
0000
0000
0000
1001
0000
0000
0000
,  // measure 59
0001
0000
2000
3002
2003
3002
1003
0010
,  // measure 60
1000
0010
0100
0001
0100
0001
0010
0100
,  // measure 61
0010
0100
1000
0001
1000
0001
0020
0000
,  // measure 62
1000
0001
0100
0031
,  // measure 63
0011
0000
1010
0000
2002
3003
1001
1000
,  // measure 64
0100
0010
0100
1000
0001
0100
0010
0100
,  // measure 65
0001
1000
0100
0010
0100
1000
0001
0100
,  // measure 66
0010
0100
0001
1000
0100
0010
0100
1000
,  // measure 67
0001
0000
0100
0000
0010
0000
0100
0000
0001
0000
1000
0001
1000
0000
0100
0000
,  // measure 68
0001
0100
1000
0001
0100
0010
0100
0001
,  // measure 69
1000
0100
0001
0100
1000
0001
0100
0010
,  // measure 70
0100
0001
1000
0100
0001
0100
2000
0000
,  // measure 71
3002
0000
0023
0030
0011
0000
2000
3000
,  // measure 72
1010
1000
0001
0010
0001
1000
0100
0010
,  // measure 73
0100
1000
0001
0010
0001
1000
0100
0010
,  // measure 74
0100
1000
0001
0010
0001
1000
0100
0010
,  // measure 75
0100
0000
1000
0000
0001
0000
0010
0000
0001
0000
1000
0001
1000
0000
0100
0000
,  // measure 76
0001
0100
0010
0001
1000
0001
0100
0010
,  // measure 77
1000
0100
0001
0100
0010
0001
0011
0011
,  // measure 78
1100
1100
2001
0000
3001
1000
0200
0000
,  // measure 79
0310
0100
0010
0100
0010
0000
0001
0010
0001
0000
1000
0000
0100
0000
0010
0000
,  // measure 80
0001
1000
0001
0100
0020
0000
0000
2030
,  // measure 81
0001
0000
3001
0020
1000
0000
0100
0000
,  // measure 82
0031
0000
0010
0100
2000
0000
3001
2000
,  // measure 83
0100
3200
0320
0001
,  // measure 84
1000
0000
0000
0000
0031
0000
1000
0001
1000
0000
0000
0000
0010
0000
0200
0000
,  // measure 85
1000
0000
0302
0000
1003
0001
0000
0010
,  // measure 86
0000
0001
1000
0000
0010
0100
0002
0000
,  // measure 87
0013
0100
1000
0001
1001
0000
1001
1000
,  // measure 88
0002
0000
0100
0203
1000
0000
0000
0302
,  // measure 89
0000
0000
0013
0100
2000
0000
0001
0000
,  // measure 90
3100
1000
0001
1000
0100
0020
0230
2300
,  // measure 91
0001
0000
3020
0000
0130
0010
0100
0010
,  // measure 92
1000
0001
1000
0001
0010
0100
0010
0100
,  // measure 93
1000
0010
1000
0010
1010
1010
0101
0101
,  // measure 94
0100
0010
0100
0001
1000
0001
0010
0100
,  // measure 95
1000
0001
1001
0000
2002
0000
0000
0000
,  // measure 96
0000
0000
0000
0000
,  // measure 97
0000
3003
0000
0000
;

//---------------dance-single - initiating engine sequence----------------
#NOTES:
     dance-single:
     X-Scale 7:
     Easy:
     5:
     0.462047,0.585243,0.197464,0.313219,0.020427,475.000000,446.000000,29.000000,46.000000,0.000000,0.000000,0.462047,0.585243,0.197464,0.313219,0.020427,475.000000,446.000000,29.000000,46.000000,0.000000,0.000000:
// measure 0
0000
0000
0000
0000
,  // measure 1
0012
0000
0000
1000
0000
1000
0000
1000
,  // measure 2
0000
0000
0020
0000
0030
0000
0200
0300
,  // measure 3
0103
0000
0000
0001
0000
0001
0000
0001
,  // measure 4
0000
2000
3000
0100
,  // measure 5
1100
0001
1000
0100
,  // measure 6
1000
0001
0010
0100
,  // measure 7
2000
0001
0010
0100
,  // measure 8
0010
0001
0010
0100
,  // measure 9
3001
1000
0100
1000
,  // measure 10
0001
0010
0000
0001
0000
1000
0000
0001
,  // measure 11
1000
0100
0010
0100
,  // measure 12
1000
0010
0000
0001
0000
0010
0000
1000
,  // measure 13
0001
0010
0100
0010
,  // measure 14
0001
1000
0000
0100
0000
1000
0000
0001
,  // measure 15
0200
0320
1030
0010
,  // measure 16
2000
3200
0310
0001
,  // measure 17
0011
1000
0001
1000
,  // measure 18
1001
0000
1100
0000
2002
3003
1001
0000
,  // measure 19
2000
3001
0020
0230
,  // measure 20
1300
0100
0000
1000
,  // measure 21
0100
0010
0001
1000
,  // measure 22
0100
0000
0010
0000
0001
1000
0001
0000
,  // measure 23
0100
0000
0010
1000
0001
0010
0000
0000
,  // measure 24
0012
0000
1000
0000
0103
0000
0001
0010
,  // measure 25
0001
0000
0001
0010
0001
0000
0200
0320
,  // measure 26
0230
0301
1000
0001
,  // measure 27
0020
0000
0031
0010
0200
0000
0000
0000
,  // measure 28
2300
0000
0001
0000
3100
0000
0100
0010
,  // measure 29
0100
0000
1000
0001
1000
0000
0002
0203
,  // measure 30
0301
0000
0010
0000
1000
0010
0001
0010
,  // measure 31
0100
1000
0100
1000
1100
0000
0000
0000
,  // measure 32
1002
0000
0010
0000
0103
0000
0010
0100
,  // measure 33
0010
0000
0010
0100
0010
0000
2000
3020
,  // measure 34
2030
3010
0100
0001
,  // measure 35
2000
3001
0020
0000
,  // measure 36
0032
0000
1000
0000
0013
0000
0100
0010
,  // measure 37
0100
0000
1000
0100
1000
0000
2000
3200
,  // measure 38
1300
0000
0001
0000
0010
0000
0100
1000
,  // measure 39
0001
2000
3100
1000
,  // measure 40
1100
0100
0001
0100
,  // measure 41
1000
0010
0100
0001
,  // measure 42
1000
0100
1000
0001
,  // measure 43
0010
0000
0100
0000
1000
0000
1100
1000
,  // measure 44
0001
0000
0000
0010
0001
0000
1000
0000
0001
0000
0000
0100
0010
0000
1000
0000
,  // measure 45
0001
0000
0000
0010
0001
0000
1000
0000
0100
0000
0000
0010
0001
0000
1000
0000
,  // measure 46
0001
0000
0000
0010
0100
0000
0010
0000
0001
0000
0000
1000
0100
0000
1000
0000
,  // measure 47
0001
1000
0100
0010
0001
0020
0031
0000
,  // measure 48
0010
0000
0100
1000
0001
0000
1000
0000
,  // measure 49
0010
0000
0100
0001
1000
0000
0001
0000
,  // measure 50
0010
0000
0100
0010
0001
0000
1000
0000
,  // measure 51
0010
0000
1000
0100
0010
0000
0001
0000
,  // measure 52
0100
0000
0010
0100
0001
0000
1000
0000
,  // measure 53
0100
0000
1000
0010
0100
0000
0001
0000
,  // measure 54
1000
0000
0010
0100
0001
0000
1000
0000
,  // measure 55
0100
0000
0010
0001
1000
0000
1001
0000
,  // measure 56
1000
0001
0010
0011
,  // measure 57
1000
0010
0100
0110
,  // measure 58
0001
1000
1001
1001
,  // measure 59
1000
0000
0001
0100
0010
1000
0001
0000
,  // measure 60
0010
0001
1000
0010
,  // measure 61
1000
0001
0010
0001
,  // measure 62
1000
0010
1000
0001
,  // measure 63
0001
1000
2000
3100
,  // measure 64
1000
0100
0001
0000
0100
0000
1000
0000
,  // measure 65
0001
0010
0100
0000
0010
0000
0001
0000
,  // measure 66
1000
0010
0100
0000
0001
0000
0010
0000
,  // measure 67
0100
1000
0001
0000
0100
0010
1000
0000
,  // measure 68
0100
0000
0010
0001
1000
0000
0001
0000
,  // measure 69
0100
0000
0010
0100
0001
0000
1000
0000
,  // measure 70
0100
0000
0010
0100
1000
0000
0002
0000
,  // measure 71
2003
0000
3200
0300
1100
0000
1000
0000
,  // measure 72
1001
0000
0001
0010
0100
0000
0010
0000
,  // measure 73
0001
0000
1000
0010
0100
0000
0010
0000
,  // measure 74
1000
0000
0001
0010
1000
0000
0010
0000
,  // measure 75
0001
0000
1000
0100
1000
0000
0001
0100
,  // measure 76
0010
0000
1000
0000
0001
0000
0010
0100
,  // measure 77
1000
0001
0010
0011
,  // measure 78
1001
0000
2020
3030
1000
0100
0020
0000
,  // measure 79
0032
0000
0000
1003
1001
0000
0010
0000
,  // measure 80
0001
1000
0010
0001
,  // measure 81
0010
0000
1000
0100
0010
0000
0001
0000
,  // measure 82
1000
0000
0001
0010
0100
0000
0010
0001
,  // measure 83
1000
0001
0100
0010
,  // measure 84
0001
0010
1000
0001
,  // measure 85
0100
0000
0010
0000
1000
0100
0000
1000
,  // measure 86
0000
1000
0100
0000
1000
0100
2000
3000
,  // measure 87
1000
0100
0010
0001
0011
0000
0011
0000
,  // measure 88
0010
0000
0100
0000
1000
0000
0001
0010
,  // measure 89
0001
0000
1000
0100
0010
0000
0100
0000
,  // measure 90
1000
0000
0001
0100
0010
0200
0000
0302
,  // measure 91
0000
0000
1003
0001
1000
0000
0100
0000
,  // measure 92
0010
0001
1000
0100
,  // measure 93
0010
0001
0011
1001
,  // measure 94
1010
0020
0001
0100
,  // measure 95
0001
1030
1010
0000
;

//---------------dance-single - set coordinates to perfect timing----------------
#NOTES:
     dance-single:
     X-Scale 5:
     Beginner:
     3:
     0.226646,0.324284,0.095328,0.081709,0.000000,233.000000,219.000000,14.000000,12.000000,0.000000,0.000000,0.226646,0.324284,0.095328,0.081709,0.000000,233.000000,219.000000,14.000000,12.000000,0.000000,0.000000:
0000
0000
0000
0000
,
2001
0000
0000
0000
,
0000
0000
0000
0000
,
3010
0000
0000
0000
,
0000
0000
0000
0000
,
0110
0000
0100
0000
,
0001
0000
1000
0000
,
0001
0000
0010
0000
,
0100
0000
1000
0000
,
1100
0000
1000
0000
,
0001
0000
1000
0000
,
0100
0000
0010
0000
,
0001
0000
0100
0000
,
0001
0000
1000
0000
,
0100
0000
1000
0000
,
0001
0010
0001
0000
,
1000
0010
1000
0000
,
1010
0000
1000
0000
,
0001
0000
0002
0013
,
0000
0001
0000
2000
,
3100
0000
0000
1000
,
0000
0010
0000
0100
,
0000
0001
0000
2000
,
0000
0000
0000
3000
,
1001
0000
1000
0000
,
0100
0000
1000
0001
,
1000
0000
0000
0000
,
0001
0000
0200
0000
,
0301
0000
1000
0000
,
0001
0000
0010
0000
,
0100
0000
1000
0000
,
0001
0000
2000
0000
,
3100
0000
1000
0000
,
0001
0000
0100
0000
,
0010
0000
0000
0000
,
1000
0000
0002
0000
,
0013
0000
0001
0000
,
1000
0000
0001
0000
,
0100
0000
0010
0000
,
1000
0000
0100
0000
,
1000
0000
0001
0000
,
1000
0000
0001
0000
,
0010
0000
0100
0000
,
0010
0000
0100
1100
,
0000
0100
0000
1000
,
0000
0001
0000
1000
,
0100
0010
0001
1000
,
0100
0010
0001
0011
,
0001
0100
0000
0001
,
1000
0001
0000
0100
,
0010
1000
0000
0001
,
1000
0010
0000
0100
,
0010
0100
0000
0001
,
0010
0100
0000
0010
,
0100
1000
0000
0001
,
1000
0001
0000
1001
,
0000
0000
0000
1100
,
0000
0000
0000
0101
,
0000
0000
0000
1001
,
0000
1000
0100
1000
,
0000
0001
0000
1000
,
0000
0001
0000
0020
,
0000
0000
0000
0031
,
0000
0000
0002
1003
,
0001
0010
0001
1000
,
0100
0010
0100
1000
,
0001
0100
0001
1000
,
0010
0100
0010
1000
,
0100
0010
0001
1000
,
0100
1000
0001
0100
,
0001
1000
0100
2000
,
0000
3001
0000
1001
,
1000
0100
1000
0100
,
0010
0001
0010
0001
,
1000
0001
1000
0010
,
0100
0010
1000
0001
,
0010
0001
0010
0100
,
1000
0100
1000
0001
,
0000
2000
3100
0000
,
1000
0000
0001
0000
,
0100
0000
0010
0000
,
1000
0000
0001
0000
,
0010
0000
0100
0000
,
1000
0000
0001
0000
,
0100
0000
0010
0000
,
1000
0000
0001
0000
,
0010
0000
0100
0000
,
1000
0000
1100
1000
,
0000
0100
0000
0010
,
0000
0001
0000
1000
,
0000
0100
0000
0010
,
0000
0001
0000
1000
,
0000
0100
0000
0010
,
0000
0001
1001
0000
,
0000
2000
0000
0000
,
0000
3100
0000
0000
;
