#TITLE:i like;
#SUBTITLE:;
#ARTIST:bill wurtz;
#TITLETRANSLIT:;
#SUBTITLETRANSLIT:;
#ARTISTTRANSLIT:;
#GENRE:Pop;
#CREDIT:;
#BANNER:i like-bn.png;
#BACKGROUND:i like-bg.png;
#LYRICSPATH:;
#CDTITLE:cdtitle.png;
#MUSIC:i like.ogg;
#OFFSET:-0.002000;
#SAMPLESTART:14.224000;
#SAMPLELENGTH:14.222000;
#SELECTABLE:YES;
#BPMS:0.000000=135.000000
;
#STOPS:
;
#BGCHANGES:-0.222=i like.avi=1.000=0=0=0=StretchNoLoop====,
99999=-nosongbg-=1.000=0=0=0 // don't automatically add -songbackground-
;
#KEYSOUNDS:;
#ATTACKS:;

//---------------dance-single - i like making things hard for myself----------------
#NOTES:
     dance-single:
     X-Scale 10:
     Hard:
     7:
     0.462010,0.550666,0.122370,0.367110,0.039333,370.000000,356.000000,14.000000,42.000000,0.000000,0.000000,0.462010,0.550666,0.122370,0.367110,0.039333,370.000000,356.000000,14.000000,42.000000,0.000000,0.000000:
// measure 0
0000
0000
0000
0000
,  // measure 1
0000
0000
0000
0000
,  // measure 2
0000
0000
0000
0000
,  // measure 3
0000
0000
0000
0000
,  // measure 4
2001
0000
0010
0000
0001
0001
0000
0000
,  // measure 5
3200
0010
0310
0000
0001
0000
0000
1000
,  // measure 6
0002
0000
0023
0000
0031
0000
1000
0010
,  // measure 7
0000
1000
0100
0001
1000
0010
0001
1000
,  // measure 8
1010
0010
0000
1000
0010
0100
0000
0001
,  // measure 9
0010
0000
0100
0000
1000
0001
1000
0001
,  // measure 10
1000
0100
0000
0010
0100
1000
0000
0001
,  // measure 11
0100
0000
0001
0000
1000
0010
0100
0010
,  // measure 12
1000
0100
0000
1000
0010
0100
0000
0001
,  // measure 13
0010
0000
0001
0000
0100
0010
0001
0010
,  // measure 14
0100
0000
0001
0000
0000
0000
1000
0000
0001
0000
0010
0000
0000
0000
0100
1000
,  // measure 15
0100
1000
0010
0001
0010
1000
0010
0100
,  // measure 16
0101
0000
1000
0200
0310
0200
1000
0300
,  // measure 17
1000
0000
0100
0000
0010
0001
0100
0001
,  // measure 18
0010
0000
0100
2000
3010
2000
0100
3000
,  // measure 19
0100
1000
0001
0000
1000
0100
0010
0001
,  // measure 20
0100
0000
0001
0020
1030
0020
0001
0030
,  // measure 21
0001
0000
0100
0000
0010
0000
1000
0100
,  // measure 22
0020
0000
0031
2000
0000
3000
0020
0000
,  // measure 23
0000
0000
0000
0000
0000
0000
0000
0000
0000
0000
0100
0000
0130
0000
0010
0100
,  // measure 24
0010
1000
0001
0000
0100
0000
0001
0010
,  // measure 25
0200
0000
0310
0200
0000
1300
0100
1000
,  // measure 26
0010
0100
0001
0100
0010
0000
1000
0100
,  // measure 27
0020
0000
0000
0000
0031
0000
0020
0000
0000
0000
1030
0000
0010
0000
0001
0010
,  // measure 28
0001
0100
0001
0000
1000
0000
0100
0010
,  // measure 29
0200
0000
1300
0200
0300
0020
0031
0012
,  // measure 30
0000
0100
0103
0201
0000
0000
0301
0100
,  // measure 31
0010
0000
1000
0000
0000
0000
1000
0000
0001
0000
1000
0000
0100
0000
0010
0100
,  // measure 32
1000
0010
1000
0000
0001
0010
1000
0010
,  // measure 33
0002
0000
0103
0002
0000
1003
0010
0100
,  // measure 34
0001
0010
0100
0000
1000
0000
0010
1000
,  // measure 35
0200
0000
0310
0200
0000
0000
0300
1000
,  // measure 36
1000
0100
0010
0000
0001
0000
0100
0001
,  // measure 37
0200
0000
1300
0200
0310
0200
0301
0100
,  // measure 38
0010
1000
0001
1000
0100
1000
0001
1001
,  // measure 39
0000
0000
0100
0000
0100
0000
0100
0010
0200
0000
0000
0000
0320
0000
0000
0000
,  // measure 40
2030
0000
3000
2000
0001
0000
0010
0000
,  // measure 41
0001
0000
0010
0000
0001
0000
3010
1000
,  // measure 42
0100
0000
1000
0000
0010
0000
1000
0001
,  // measure 43
0100
0000
0001
0010
0200
0000
2300
0000
,  // measure 44
3020
0000
0000
0230
0010
0000
1000
0000
,  // measure 45
0010
0000
1000
0000
0010
0000
0301
0100
,  // measure 46
0001
0000
0010
0000
0100
1000
0010
1000
,  // measure 47
0100
0000
0010
0000
0001
0100
0001
0100
,  // measure 48
0002
0000
0000
0023
0001
0000
1000
0000
,  // measure 49
0001
0000
1000
0000
0001
0100
0130
0010
,  // measure 50
0001
1000
0001
1000
0100
0010
0100
0010
,  // measure 51
0001
1000
0001
1000
0010
0100
0010
0100
,  // measure 52
0020
0000
0000
1030
0010
0001
0010
1000
,  // measure 53
0000
0010
1000
0100
0010
0001
0101
0101
,  // measure 54
0000
1100
0000
1010
1010
0000
0011
0011
,  // measure 55
0000
0000
0000
0000
0000
0000
0000
0000
0100
0000
0000
0000
0100
0000
0010
0100
,  // measure 56
0010
0100
1000
0100
0001
0010
0000
0100
,  // measure 57
0000
0000
1000
0000
0000
0000
0010
0000
0000
0000
1000
0010
1000
0000
0100
0000
,  // measure 58
0010
0000
0001
0000
0000
0000
0100
0010
0100
0000
0010
0000
1000
0000
0001
0000
,  // measure 59
0000
1000
0100
1000
0100
0010
0001
0010
,  // measure 60
0001
0000
0100
0100
0100
0100
0100
0100
,  // measure 61
0000
0000
0001
0000
1000
0000
0100
0000
0100
0000
1000
0000
0100
0000
0100
0010
,  // measure 62
0001
0100
0100
0100
0100
0100
0001
0202
,  // measure 63
0303
0000
0000
0000
;

//---------------dance-single - i like doing this to myself----------------
#NOTES:
     dance-single:
     X-Scale 8:
     Medium:
     6:
     0.382095,0.439658,0.104889,0.367110,0.013111,306.000000,294.000000,12.000000,42.000000,0.000000,0.000000,0.382095,0.439658,0.104889,0.367110,0.013111,306.000000,294.000000,12.000000,42.000000,0.000000,0.000000:
0000
0000
0000
0000
,
0000
0000
0000
0000
,
0000
0000
0000
0000
,
0000
0000
0000
0000
,
1020
0000
0001
0000
0000
1000
0000
0000
,
2030
0010
3010
0000
1000
0000
0001
0010
,
0100
0000
0100
0000
1000
1000
0000
0001
,
0000
1000
0000
0010
0100
1000
0100
0010
,
0110
0000
0100
0001
1000
0001
0100
0000
,
0010
0000
0100
0000
0001
0100
0010
1000
,
0001
0000
1000
0010
0001
0010
1000
0000
,
0100
0000
0010
0000
0001
0010
0100
1000
,
0001
0000
0100
0010
0001
0010
0100
0000
,
0001
0000
1000
0000
0001
0100
0010
1000
,
0001
0000
1000
0010
0001
0010
1000
0000
,
0100
0010
0100
0010
0001
1000
0001
1000
,
1001
0000
0001
0200
0300
0200
0010
0300
,
0100
0000
0001
0000
1000
0000
0100
0010
,
0100
0000
1000
0020
0030
0020
0001
0030
,
0010
0100
0010
0000
1000
0100
0010
0001
,
0100
0000
0001
0020
0030
0020
0230
0000
,
1300
0000
0010
0000
1000
0000
0100
0010
,
0002
0000
0000
0203
0000
0000
0302
0000
,
0000
0000
0000
0000
0000
0000
0000
0000
0000
0000
0000
0000
0013
0000
0001
0010
,
0001
0000
0100
0000
0010
0000
1000
0100
,
0010
0000
0100
1000
0000
0001
0100
0001
,
0100
0000
0010
0000
1000
0000
0100
0010
,
0001
0000
0000
0000
1000
0000
0001
0000
0000
0000
1000
0000
0100
0000
1000
0100
,
1000
0000
0010
0000
0100
0000
0001
0010
,
0100
0000
0010
0100
0000
1000
0001
2001
,
0000
0000
3000
0120
0000
0000
0130
0010
,
1000
0000
0001
0000
0000
0000
1000
0000
1000
0000
0000
0000
0010
0000
0100
0010
,
0100
0000
0001
0010
1000
0010
0001
0000
,
0100
0000
0001
1000
0000
0001
0010
0100
,
1000
0000
0010
0000
1000
0100
0010
0100
,
1000
0000
0001
0100
0000
0001
0100
0010
,
1000
1000
1000
0000
0001
0000
0100
0010
,
0001
0010
0100
0002
0003
2000
3000
0002
,
0023
0000
0030
0200
0000
2300
0000
3002
,
0000
0103
0001
0000
2000
0000
3200
0000
,
0320
0000
0000
0032
0000
0000
0000
2000
,
0000
0000
0000
0000
3000
0000
0000
0013
,
0200
0000
1000
0000
0001
0000
1300
2000
,
0000
3001
2000
3200
,
0320
0000
0000
0032
0000
0000
0000
2000
,
0000
0000
0000
0000
3000
0000
0000
0003
,
0020
0000
1000
0000
0100
0000
0031
0002
,
0000
1003
0020
2030
,
3002
0000
0013
0000
0100
1000
0001
1000
,
0100
0000
0010
0001
0010
0000
0100
1000
,
0001
0000
1000
0000
0010
0000
0100
0001
,
1000
0000
0001
0010
0200
0000
2300
0000
,
3002
0000
0000
0203
0001
0000
0000
1000
,
0000
0000
0001
0000
0000
0301
0101
0100
,
0000
0110
0000
1000
1100
0000
0001
1001
,
0000
0000
0000
0000
,
1100
1000
0100
0010
0001
1000
0000
0001
,
0000
1000
0000
0100
0000
0010
0001
1000
,
0001
0100
0000
0010
0100
0001
0000
1000
,
0000
0100
0010
0001
,
0011
0000
1000
0001
1000
0001
1000
0001
,
0000
0010
0000
0100
1000
0001
0100
0000
,
0010
1000
0001
1000
0001
1000
0000
1001
;

//---------------dance-single - iiiiiiiiii liiike... relax-ing----------------
#NOTES:
     dance-single:
     X-Scale 6:
     Easy:
     4:
     0.355872,0.412180,0.078667,0.227259,0.000000,285.000000,276.000000,9.000000,26.000000,0.000000,0.000000,0.355872,0.412180,0.078667,0.227259,0.000000,285.000000,276.000000,9.000000,26.000000,0.000000,0.000000:
0000
0000
0000
0000
,
0000
0000
0000
0000
,
0000
0000
0000
0000
,
0000
0000
0000
0000
,
2000
0000
0001
0000
,
3002
0000
1003
0000
0001
0000
1000
0100
,
0010
0000
0001
0000
0100
0000
0001
0010
,
0000
0001
0010
0000
0100
1000
0200
0000
,
1300
0100
0010
0001
,
2000
0000
3200
0000
0320
0000
0031
0010
,
0001
0100
0010
1000
,
0002
0000
0203
0000
0320
0000
1030
0010
,
1000
0100
0010
0001
,
2000
0000
3200
0000
0320
0000
0031
0010
,
0001
0100
0010
1000
,
0002
0000
0203
0000
0320
0000
1030
0010
,
1010
1000
0001
1000
,
0100
0000
0010
0000
0001
0100
0010
0100
,
0001
1000
0001
0010
,
0100
0000
1000
0000
0001
0100
0010
0100
,
0001
1000
0010
0100
,
0001
0000
1000
0000
0001
0000
0010
0100
,
2000
0000
3001
2000
0000
3000
0200
0000
,
0000
0000
0000
0000
0000
0000
0310
0100
,
0110
0000
2000
0000
3002
0000
1003
0100
,
0010
0000
0000
0001
0000
0010
0000
0000
,
0001
0100
0020
0000
2030
0000
3000
0000
,
0020
0000
0030
0200
0000
0300
0001
0000
,
1000
0100
0020
0000
0032
0000
1003
0001
,
0100
0000
0010
0100
0000
0001
1000
1001
,
0000
1000
0100
1100
0000
0000
1000
0100
,
0010
0001
0000
0100
0010
1000
0000
0000
,
1010
1000
0001
1000
,
0100
0010
0100
1000
,
0001
0100
0010
1000
,
0001
0010
0001
0010
0000
0000
0100
0000
,
1000
0010
1000
0000
0001
0000
0100
0010
,
0100
0000
0001
1000
0000
0100
0000
1000
,
0100
0000
0010
0001
1000
0001
0000
0011
,
0000
1000
0010
0000
1000
0000
0001
0000
,
0010
0000
0100
1000
,
0001
1000
0100
1000
,
0001
1000
0100
1000
,
0001
1000
0100
0010
,
0001
0000
0100
0010
,
1000
0010
0100
0010
,
1000
0010
0100
0010
,
1000
0000
0010
0000
0100
0010
0001
0010
,
1000
0001
0100
0001
,
1000
0001
0100
0001
,
1000
0100
1000
0000
0001
0100
0001
0000
,
1000
0100
1000
0000
0001
0000
0100
0000
,
0010
0000
0000
0000
1000
0100
0010
0001
,
0000
1000
0001
0100
0001
1000
0001
1000
,
0000
0010
0000
0100
0010
0000
1000
0100
,
0000
0000
1000
1000
,
1001
0000
0100
0001
1000
0001
0000
0100
,
0000
0010
0000
1000
0000
0001
0100
0010
,
0100
0001
0000
1000
0100
0010
0100
1000
,
0000
0001
0000
0100
0001
1000
0001
0000
,
1001
0000
1000
0100
1000
0100
1000
0100
,
0000
0010
0001
1000
0001
0000
1000
0001
,
1000
0100
0010
0100
0010
0100
0000
1100
;

//---------------dance-single - i like spending time with myself----------------
#NOTES:
     dance-single:
     X-Scale 4:
     Beginner:
     2:
     0.196042,0.274787,0.061185,0.131111,0.000000,157.000000,150.000000,7.000000,15.000000,0.000000,0.000000,0.196042,0.274787,0.061185,0.131111,0.000000,157.000000,150.000000,7.000000,15.000000,0.000000,0.000000:
0000
0000
0000
0000
,
0000
0000
0000
0000
,
0000
0000
0000
0000
,
0000
0000
0000
0000
,
1000
0000
0100
0000
,
0010
0000
0001
0000
,
1000
0100
1000
0000
,
0001
0000
0000
0100
0000
0010
0200
0000
,
0301
0000
0100
0000
,
0001
0010
0100
0000
,
1000
0000
0001
0000
,
1000
0100
0010
0000
,
0001
0000
0100
0000
,
0001
0010
0100
0000
,
1000
0000
0010
0000
,
1000
0100
0010
0000
,
0001
0000
0100
0000
,
0010
0100
0001
0000
,
1000
0000
0100
0000
,
0010
0100
1000
0000
,
0001
0000
0100
0000
,
0010
0100
0001
0000
,
0202
0000
0303
0220
0000
0330
2200
0000
,
0000
0000
0000
3300
,
1100
0000
0001
0000
,
1000
0000
0100
0000
,
1000
0000
0001
0000
,
0010
0000
0100
0000
,
0010
0000
0001
0000
,
1000
0000
0000
0100
0000
1000
0000
0002
,
0000
0000
0003
0020
0000
0000
0031
0000
,
0000
1000
0000
0000
0100
0000
0000
0000
,
1000
0000
0001
0000
,
0100
0000
0001
0000
,
1000
0000
0100
0000
,
0010
0000
0100
0000
,
1000
0000
0001
0000
,
0100
0000
0001
0200
0300
0020
0030
0100
,
0002
0000
0003
2000
3000
0200
0300
0020
,
0000
0030
0000
0000
0001
0000
1000
0000
,
0001
0000
1000
0000
,
0100
0000
1000
0000
,
0001
0000
0010
0000
,
0001
0000
0100
0010
,
1000
0000
0001
0000
,
1000
0000
0100
0000
,
0010
0000
0001
0000
,
1000
0000
0001
0010
,
0100
0000
1000
0000
,
0001
0000
1000
0000
,
0100
0000
1000
0000
,
0001
0000
0100
0010
,
1000
0000
0000
0000
0001
0000
0000
1000
,
0000
0001
0100
0001
,
0000
1000
0000
0000
0001
0000
0000
1000
,
0000
0000
0000
0000
,
1001
0000
0000
0000
1000
0100
0000
1000
,
0000
0001
0000
1000
0000
0100
0010
0000
,
0001
0000
1000
0000
0001
0010
0000
0001
,
0000
0000
0000
0100
0000
0000
0010
0000
,
0110
0000
0000
0000
1000
0000
0000
0001
,
0000
0100
0000
0010
0000
1000
0000
0010
,
1000
0000
0001
0000
0010
0000
0000
0011
;

//---------------dance-single - i like making nonsense, i guess...----------------
#NOTES:
     dance-single:
     X-Scale 11:
     Challenge:
     8:
     0.546920,0.605732,0.209777,0.437036,0.043704,438.000000,414.000000,24.000000,50.000000,0.000000,0.000000,0.546920,0.605732,0.209777,0.437036,0.043704,438.000000,414.000000,24.000000,50.000000,0.000000,0.000000:
// measure 0
0000
0000
0000
0000
,  // measure 1
0000
0000
0000
0000
,  // measure 2
0000
0000
0000
0000
,  // measure 3
0000
0000
0000
0000
,  // measure 4
0001
0010
1000
0010
0100
1000
0001
0100
,  // measure 5
0010
1000
0100
0000
0100
0000
0010
0000
0001
0000
1000
0000
0010
0000
0100
0000
,  // measure 6
1000
0100
0001
1000
0001
0010
0100
0100
,  // measure 7
1000
0001
0001
0100
0010
0100
0002
0000
,  // measure 8
1003
0001
0010
1000
0010
0002
0000
0103
,  // measure 9
0001
0010
1000
0010
0100
1000
0001
0100
,  // measure 10
0010
1000
0100
0010
0100
2000
0000
3001
,  // measure 11
1000
0100
0010
0001
1000
0200
2300
3002
,  // measure 12
1003
0001
1000
0100
0010
0002
0000
1003
,  // measure 13
0001
0010
0001
0100
1000
0100
0001
0010
,  // measure 14
0100
0000
1000
0000
0001
0000
0100
0000
0010
0000
2000
0000
0000
0000
3010
1000
,  // measure 15
0010
0100
0001
1000
0001
0020
0230
2300
,  // measure 16
3200
1000
0300
0100
1000
0002
0010
0013
,  // measure 17
0001
1000
0100
1000
0010
0001
0010
0100
,  // measure 18
0001
1000
0010
0100
0010
2000
0001
3000
,  // measure 19
1000
0100
0001
1000
0010
0001
0100
0001
,  // measure 20
0011
0010
0100
1000
0010
1000
0002
0000
,  // measure 21
0203
0000
0320
0000
0230
0000
0301
0100
,  // measure 22
0102
0000
1003
2100
0000
3000
1002
0000
,  // measure 23
0000
0000
0000
0000
0000
0000
0000
0000
0000
0000
1000
0000
1003
0000
1000
0100
,  // measure 24
0010
0001
1000
0001
0010
0100
0010
0001
,  // measure 25
2000
0000
3010
2000
0000
3100
1000
0001
,  // measure 26
1000
0100
0010
0100
0010
0001
1000
0001
,  // measure 27
0200
0000
0000
0000
0310
0000
0200
0000
0000
0000
0301
0000
1000
0000
0100
0010
,  // measure 28
0001
1000
0001
0100
0010
0001
0010
1000
,  // measure 29
1020
0000
0130
0210
0000
0302
1000
2003
,  // measure 30
0000
3100
1000
0002
0000
0003
0002
0203
,  // measure 31
0320
0000
0001
0000
0000
0000
0100
0000
0130
0000
0010
0000
1000
0000
0001
1000
,  // measure 32
0100
1000
0001
0010
0100
0010
0100
1000
,  // measure 33
0002
0000
0013
0200
0000
2300
0001
3001
,  // measure 34
0001
1000
0100
0010
0100
1000
0001
0100
,  // measure 35
0020
0000
0031
0020
1000
0030
1000
0001
,  // measure 36
1001
1000
0001
0000
0010
0100
1000
0001
,  // measure 37
1002
0000
0013
2000
0000
3020
0000
0031
,  // measure 38
0010
0100
1000
0002
1000
2003
0100
3200
,  // measure 39
0000
0000
1300
0000
0100
0000
1000
0100
0010
0000
0001
0000
1000
0000
0001
0000
,  // measure 40
0200
0000
0000
0310
0001
0010
0100
0001
,  // measure 41
1000
0000
0100
1000
0001
1000
0100
0010
,  // measure 42
0001
0000
1000
0010
0001
0010
0100
0010
,  // measure 43
1000
0000
0001
0010
0100
1000
0001
0100
,  // measure 44
0020
0000
0000
1030
0010
0001
0010
0100
,  // measure 45
0010
0000
1000
0100
0001
0100
0010
0001
,  // measure 46
1000
0000
0001
0100
0010
0001
0010
0100
,  // measure 47
0001
0000
1001
0000
1000
0100
0001
0100
,  // measure 48
2000
0000
0000
3001
1000
0100
1000
0100
,  // measure 49
0001
0100
0001
0100
0010
0100
0010
0100
,  // measure 50
1000
0001
1000
0001
0010
0001
0010
0001
,  // measure 51
0100
0001
0100
0001
1000
1000
0001
0001
,  // measure 52
2001
0000
0000
3100
1000
0001
0100
0101
,  // measure 53
0000
1000
0100
1000
0001
0010
1100
1100
,  // measure 54
0000
0001
0000
0110
0110
0000
1100
1100
,  // measure 55
0000
0000
0000
0000
1000
0000
0000
0000
0001
0000
0000
0000
1000
0000
0010
0100
,  // measure 56
0001
1000
0100
0010
0001
1000
0000
0001
,  // measure 57
0010
0000
0100
0000
0010
0000
0001
0000
0000
0000
1000
0100
0010
0000
0001
0000
,  // measure 58
1000
0000
0001
0000
0100
0000
0010
0100
0001
0000
0010
0000
0100
0000
1000
0000
,  // measure 59
0000
4000
0100
0000
3001
1000
0001
0010
,  // measure 60
0011
0000
1000
1000
1001
1000
1000
1100
,  // measure 61
0000
0000
0101
0000
0001
0000
0010
0000
0110
0000
0100
0000
1000
0000
0001
1000
,  // measure 62
0001
0010
0010
0010
0110
0100
1000
2002
,  // measure 63
3003
0000
0000
0000
;
