#VERSION:0.83;
#TITLE:harvest sky;
#SUBTITLE:;
#ARTIST:Oklou ft. underscores;
#TITLETRANSLIT:;
#SUBTITLETRANSLIT:;
#ARTISTTRANSLIT:;
#GENRE:Alternative Pop;
#ORIGIN:;
#CREDIT:;
#BANNER:harvest sky-bn.png;
#BACKGROUND:harvest sky-bg.png;
#PREVIEWVID:;
#JACKET:harvest sky-jacket.png;
#CDIMAGE:;
#DISCIMAGE:;
#LYRICSPATH:;
#CDTITLE:cdtitle.png;
#MUSIC:harvest sky.ogg;
#OFFSET:-0.005000;
#SAMPLESTART:28.549999;
#SAMPLELENGTH:14.272000;
#SELECTABLE:YES;
#BPMS:0.000=134.526;
#STOPS:;
#DELAYS:;
#WARPS:;
#TIMESIGNATURES:0.000=4=4;
#TICKCOUNTS:0.000=4;
#COMBOS:0.000=1;
#SPEEDS:0.000=1.000=0.000=0;
#SCROLLS:0.000=1.000;
#FAKES:;
#LABELS:0.000=Song Start;
#BGCHANGES:0.000=harvest sky.avi=1.000=1=0=0=StretchNoLoop==CrossFade==,
99999=-nosongbg-=1.000=0=0=0 // don't automatically add -songbackground-
;
#KEYSOUNDS:;
#ATTACKS:
;

//---------------dance-single - ----------------
#NOTEDATA:;
#CHARTNAME:X-Scale 6;
#STEPSTYPE:dance-single;
#DESCRIPTION:;
#CHARTSTYLE:;
#DIFFICULTY:Easy;
#METER:4;
#RADARVALUES:0.257749,0.349384,0.112765,0.097730,0.000000,240.000000,225.000000,15.000000,13.000000,0.000000,0.000000,0.000000,0.000000,0.000000,0.257749,0.349384,0.112765,0.097730,0.000000,240.000000,225.000000,15.000000,13.000000,0.000000,0.000000,0.000000,0.000000,0.000000;
#CREDIT:iamthek3n;
#NOTES:
// measure 0
0000
0000
0000
0000
,  // measure 1
0000
0000
0000
0000
,  // measure 2
0000
0000
0000
0000
,  // measure 3
0000
0000
0000
0000
,  // measure 4
0000
0000
0000
0000
,  // measure 5
0000
0000
0000
0000
,  // measure 6
0000
0000
0000
0000
,  // measure 7
0000
0000
0000
0000
,  // measure 8
1001
0000
2000
0001
,  // measure 9
0000
0000
3001
0000
0010
0100
1000
0000
,  // measure 10
0001
0100
0001
1000
,  // measure 11
0001
0000
0100
0000
0001
0010
0100
0000
,  // measure 12
1100
0000
1000
0010
0200
0000
0001
0000
,  // measure 13
0000
0000
0301
0000
0000
0000
1000
0001
,  // measure 14
0100
0001
1000
0001
,  // measure 15
0010
0100
1000
0000
,  // measure 16
0000
0000
0001
0100
0001
0000
0101
0000
,  // measure 17
1000
0000
0100
0010
0100
0000
1100
0000
,  // measure 18
1000
0000
0001
0100
0001
0000
1000
0000
,  // measure 19
0100
0000
0010
0001
0010
0000
0100
0000
,  // measure 20
1000
0000
0001
0010
0100
0000
1100
0000
,  // measure 21
0001
0000
1000
0100
0010
0000
0011
0000
,  // measure 22
1000
0000
0001
0100
0010
0000
1000
0000
,  // measure 23
0010
0000
0100
0010
1000
0000
0100
0000
,  // measure 24
0010
0000
0001
0010
0100
0000
1100
0000
,  // measure 25
0001
0000
1000
0001
0100
0000
0101
0000
,  // measure 26
0001
0000
1000
0100
0010
0000
0100
0000
,  // measure 27
1000
0000
0001
1000
0010
0000
1000
0000
,  // measure 28
0001
0000
0010
0001
1000
0000
1001
0000
,  // measure 29
0100
0000
1000
0100
0010
0000
0011
0000
,  // measure 30
0001
0000
0010
0100
1000
0000
0010
0000
,  // measure 31
1000
0000
0100
0010
0001
0000
1000
0000
,  // measure 32
0002
0000
0023
0000
,  // measure 33
0230
1000
0000
1300
,  // measure 34
1100
1000
0001
1000
,  // measure 35
0100
1000
0001
1000
,  // measure 36
0200
0000
0320
0000
,  // measure 37
0032
0100
0000
0103
,  // measure 38
0101
0001
1000
0010
,  // measure 39
1000
0001
1000
0010
,  // measure 40
1000
0000
0001
0000
,  // measure 41
0010
0000
0100
0000
,  // measure 42
1000
0000
0100
0000
,  // measure 43
0010
0000
0001
0000
,  // measure 44
2000
0000
3002
0000
,  // measure 45
0203
0001
0000
0300
,  // measure 46
0000
0000
0000
0000
,  // measure 47
0000
0000
0000
0000
,  // measure 48
1001
0000
0010
0000
,  // measure 49
1010
0000
1000
0000
,  // measure 50
1001
0001
0100
0001
,  // measure 51
1000
0001
0010
0100
,  // measure 52
0010
0001
1000
0100
,  // measure 53
0010
0100
1000
0001
,  // measure 54
0100
0010
0100
0001
,  // measure 55
1000
0100
0010
0100
,  // measure 56
1000
0000
0001
1000
0001
0000
0010
0000
,  // measure 57
0100
0000
1000
0100
1000
0000
0001
0000
,  // measure 58
1000
0000
0100
0010
0001
0000
1000
0000
,  // measure 59
0001
0000
0100
0010
1000
0000
0001
0000
,  // measure 60
0010
0100
0010
0001
,  // measure 61
1000
0000
0001
1000
0010
0000
1000
0000
,  // measure 62
0000
0100
0000
0010
,  // measure 63
0000
0100
0000
0020
,  // measure 64
0032
0003
1000
0000
,  // measure 65
0001
0000
0100
0000
,  // measure 66
0001
0000
0010
0000
,  // measure 67
0100
0000
1000
0000
,  // measure 68
0001
0000
1000
0000
,  // measure 69
0100
0000
1000
0000
,  // measure 70
0001
0000
0010
0000
,  // measure 71
0100
0000
1000
0000
;

//---------------dance-single - ----------------
#NOTEDATA:;
#CHARTNAME:X-Scale 10;
#STEPSTYPE:dance-single;
#DESCRIPTION:;
#CHARTSTYLE:;
#DIFFICULTY:Medium;
#METER:7;
#RADARVALUES:0.372661,0.459282,0.135318,0.345813,0.120283,347.000000,329.000000,18.000000,46.000000,0.000000,0.000000,0.000000,0.000000,0.000000,0.372661,0.459282,0.135318,0.345813,0.120283,347.000000,329.000000,18.000000,46.000000,0.000000,0.000000,0.000000,0.000000,0.000000;
#CREDIT:iamthek3n;
#NOTES:
0000
0000
0000
0000
,
0000
0000
0000
0000
,
0000
0000
0000
0000
,
0000
0000
0000
0000
,
0000
0000
0000
0000
,
0000
0000
0000
0000
,
0000
0000
0000
0000
,
0000
0000
0000
0000
,
0110
1000
0001
1000
,
0000
0000
0100
0000
0010
0100
1000
0000
,
0001
0000
0010
0100
1000
0000
0100
0010
,
0001
0000
1000
0010
0100
0000
0001
0100
,
0010
0100
0010
1000
,
0000
0000
0001
0000
0000
0000
1000
0001
,
0001
0000
1000
0100
0001
0000
1000
0010
,
0001
0000
0100
0010
2000
0000
0002
0000
,
3000
0003
0001
1000
0001
0000
1100
0000
,
0100
0000
0000
0000
1000
0000
0100
0000
1000
0000
0000
0000
0001
0000
0000
0200
,
0000
0000
0301
0010
2000
0000
3001
0100
,
2000
0000
3001
0010
2000
0000
3001
0100
,
2000
0000
3100
0010
0001
0000
1001
0000
,
0100
0000
0000
0000
0001
0000
1000
0000
0010
0000
0000
0000
1000
0000
0000
0200
,
0000
0000
1300
0010
0002
0000
1003
0100
,
0002
0000
1003
0010
0002
0000
1003
0100
,
0002
0000
0103
0010
1000
0000
1001
0000
,
0100
0000
0000
0000
1000
0000
0100
0000
0020
0000
0000
0000
0230
0000
0000
2300
,
0000
0000
3000
0001
0100
0000
0001
0000
1000
0000
0000
0000
0010
0000
1000
0000
,
0001
0000
0000
1000
0001
0000
0100
0000
0001
0000
0000
0000
0100
0000
0010
0000
,
0001
0000
1000
0100
0010
0000
1001
0000
,
0100
0000
0000
0000
1000
0000
0001
0000
0200
0000
0000
0000
0302
0000
0000
0023
,
0000
0000
0030
0000
0100
0000
0010
0000
0001
0000
0000
1000
0001
0000
0100
0000
,
1000
0000
0000
0000
0001
0000
0010
0000
1000
0000
0000
0000
0001
1000
0001
1000
,
0001
0000
0000
1000
0000
0000
0001
0000
0200
0000
0000
0000
0010
0000
0000
0000
,
0302
1000
0000
1003
,
0001
0100
1000
0000
0001
0010
1000
0000
,
0100
0010
0001
0000
1000
0010
0100
0000
,
0001
0000
0000
0100
0000
0000
0001
0000
2000
0000
0000
0000
0010
0000
0000
0000
,
3002
0100
0000
0103
,
0001
0010
1000
0000
0001
0100
1000
0000
,
0010
0100
0001
0000
1000
0001
0100
0000
,
0201
0302
2003
3200
,
0302
0000
2003
0000
3020
0000
0130
1000
,
0001
0100
0020
0000
0031
0010
2000
0000
,
3001
0100
0020
0000
0031
0010
1000
0001
,
2000
0000
3000
0100
0020
0000
0001
0000
,
0000
0000
0031
0010
0100
2000
0000
0000
,
3000
0000
0000
0000
,
0000
0000
0000
0000
,
0101
0000
0000
1000
0000
0000
0001
0000
1001
0000
0000
0000
0000
0000
0000
0000
,
1100
0000
0000
0100
0000
0000
1000
0000
1010
0000
0000
0000
0000
0000
1000
0001
,
2000
0000
3100
0010
0002
0000
1003
0010
,
0002
0000
1003
0100
0002
0000
0013
0100
,
1000
0000
0001
0010
0100
0000
1100
0000
,
1000
0000
0000
0000
0001
0000
1000
0000
0010
0000
0000
0100
0000
0000
0001
0100
,
0002
0000
0013
0100
2000
0000
3001
0010
,
2000
0000
3001
0100
2000
0000
3010
1000
,
0001
0000
0000
0001
1000
0000
0100
0000
1000
0000
0000
0000
1100
0000
0000
0000
,
0001
0000
0000
1000
0001
0000
0100
0000
0001
0000
0000
0000
0101
0000
0100
0001
,
1000
0000
0000
0000
0100
0000
1000
0000
0001
0000
0000
1000
0100
0000
1000
0000
,
0001
0000
0000
0000
0010
0000
0100
0000
1000
0000
0000
0001
0100
0000
0001
0000
,
1000
0000
0100
0010
0001
0000
1000
0000
,
1001
0000
0000
0000
0100
0000
1000
0000
0002
0000
0000
0000
0023
0000
0000
0230
,
0000
0300
1100
0000
0000
0000
0101
0000
,
0000
0011
0000
1010
,
1000
0000
0000
0001
1000
0000
0000
0000
,
0100
0000
0000
0000
0000
0000
0010
0000
0001
0000
0000
0000
0000
0000
1000
0001
,
1000
0000
0000
0100
0000
0000
1000
0000
0001
0000
0000
0010
0000
0000
0100
0000
,
1000
0000
0000
0001
0000
0000
0100
0000
0001
0000
0000
1000
0000
0000
0100
0000
,
0010
0000
0000
0100
1000
0000
0000
0000
,
0001
0000
0000
0000
0000
0000
0100
0000
0001
0000
0000
0000
0000
0000
0010
0100
,
0010
0000
0000
0001
0000
0000
1000
0000
0001
0000
0000
0010
0000
0000
0100
0000
,
1000
0000
0000
0001
0000
0000
1000
0000
0100
0000
0000
0010
0000
0000
0001
0000
;

//---------------dance-single - ----------------
#NOTEDATA:;
#CHARTNAME:X-Scale 12;
#STEPSTYPE:dance-single;
#DESCRIPTION:;
#CHARTSTYLE:;
#DIFFICULTY:Hard;
#METER:8;
#RADARVALUES:0.490796,0.567349,0.202977,0.202977,0.349571,457.000000,430.000000,27.000000,27.000000,0.000000,0.000000,3.000000,0.000000,0.000000,0.490796,0.567349,0.202977,0.202977,0.349571,457.000000,430.000000,27.000000,27.000000,0.000000,0.000000,3.000000,0.000000,0.000000;
#CREDIT:iamthek3n;
#NOTES:
0000
0000
0000
0000
,
0000
0000
0000
0000
,
0000
0000
0000
0000
,
0000
0000
0000
0000
,
0000
0000
0000
0000
,
0000
0000
0000
0000
,
0000
0000
0000
0000
,
0000
0000
0000
0000
,
1001
0000
0000
0000
2000
0000
0000
0000
3020
0000
0000
0000
0230
0000
0000
0302
,
0000
0000
0103
0000
0001
0100
0001
0000
,
1000
0100
0010
1000
0001
0100
0010
0002
,
0000
0203
0000
0000
0000
0000
0301
0000
0100
0000
1000
0000
0001
0000
0020
0000
,
1000
0230
0320
2030
,
3002
0000
0103
0000
0001
0000
1000
0001
,
0001
0010
0100
0001
1000
0010
0100
1000
,
0000
0001
0100
0000
0000
0001
0010
0000
0100
0000
1000
0000
0001
1000
0004
4000
,
0000
3003
0110
0100
0001
0000
1001
0000
,
0100
0000
0000
0001
0000
0000
1000
0000
0001
0000
0000
0000
0010
0000
0100
0010
,
0100
0000
0000
1000
0001
0000
1000
0000
0100
0000
0000
0010
0001
0000
1000
0000
,
0010
0000
0000
0100
0010
0000
1000
0000
0001
0000
0000
0010
0100
0000
0010
0000
,
0001
0000
0000
1000
0000
0000
0010
0000
1000
0000
0000
0000
1001
0000
0000
0000
,
0100
0000
0000
0001
0000
0000
1000
0000
0100
0000
0000
0000
1000
0000
0001
0100
,
0001
0000
0000
0010
0100
0000
1000
0000
0001
0000
0000
1000
0010
0000
1000
0000
,
0001
0000
0000
0010
0100
0000
1000
0000
0001
0000
0010
0000
0010
0100
0000
0100
,
1000
0000
0001
1000
0001
0000
0100
0000
0010
0000
0000
0000
1001
0000
0000
0000
,
0100
0000
0000
1000
0100
0000
1000
0000
0001
0000
0000
0000
0011
0000
0010
0100
,
0010
0000
0000
0001
1000
0000
0001
0000
0100
0000
0000
0100
0010
0000
1000
0000
,
0100
0000
0000
1000
0001
0000
0010
0000
0100
0000
0000
0100
1000
0000
0001
0000
,
1000
0000
0100
1000
0100
0000
0010
0000
0001
0000
0000
0000
1010
0000
0000
0000
,
1000
0000
0000
0001
1000
0000
0001
0000
0010
0000
0000
0000
0110
0000
0100
1000
,
0100
0000
0000
1000
0001
0000
0100
0000
0001
0000
0000
0010
0100
0000
0010
0000
,
0001
0000
0000
0100
0001
0000
1000
0000
0001
0100
0010
1000
0001
0100
0010
1000
,
0001
0000
0000
1000
0000
0000
0001
0000
0020
0000
0000
0000
0000
0000
0000
0000
,
2030
0000
3010
0100
2000
0002
0000
3003
,
1001
0000
0000
0000
0010
0000
0000
0010
1000
0000
0100
0000
0010
0000
2000
0000
,
0000
3002
0000
0103
0010
0001
1000
0001
,
0100
0000
0000
0010
0000
0000
1000
0000
0200
0000
0000
0000
0000
0000
0000
0000
,
0301
0100
0010
0100
2000
0002
0000
3003
,
1001
0000
0000
0000
1000
0000
0000
0001
0100
0000
0010
0000
1000
0000
0200
0000
,
0000
0302
0000
1003
0010
0001
1000
0000
,
1001
0000
0100
1000
0000
0000
0001
0100
0000
0000
1000
0100
0000
0000
0010
0100
,
0000
0000
0001
0010
0000
0000
0100
1000
0000
0000
0100
0001
0000
0000
0100
0010
,
0001
0000
1000
0000
0001
0000
0100
0001
1000
0000
0001
0000
0100
0000
0010
0100
,
0001
0000
1000
0000
0001
0000
0100
0001
1000
0000
0100
0000
0001
0000
0100
0000
,
1100
0000
0000
1000
0000
0000
0001
0000
0200
0000
0000
0000
0300
0000
0010
0000
,
0100
1000
0001
0010
0100
0002
0000
0000
,
0003
0000
0000
0000
,
2000
0000
0000
0000
0000
0000
0004
3003
,
0110
0000
0000
0100
0000
0000
0001
0000
0101
0000
0000
0000
1000
0000
0000
0000
,
1100
0000
0000
0001
0000
0000
0100
0000
0101
0000
0000
0000
0100
0000
0001
1000
,
0001
0000
0000
0010
0100
0000
1000
0000
0001
0000
0000
0100
0001
0000
1000
0000
,
0010
0000
0000
1000
0001
0000
0010
0000
0100
0000
0000
1000
0100
0000
1000
0000
,
0001
0000
0000
0100
1000
0000
0100
0000
0001
0000
0000
0000
1001
0000
0000
0000
,
0100
0000
0000
1000
0001
0000
0100
0000
0001
0000
0000
0000
0101
0000
0100
0001
,
1000
0000
0000
1000
0100
0000
1000
0000
0001
0000
0000
0100
0010
0000
0100
0000
,
0001
0000
0000
0010
0100
0000
1000
0000
0001
0000
0000
0100
0001
0000
1000
0000
,
0001
0000
0010
0100
1000
0000
0001
0000
1000
0000
0001
0000
0100
0000
0001
0000
,
1000
0000
0000
0100
0001
0000
0100
0000
1000
0000
0001
0000
1000
0000
0001
0100
,
0010
0000
0000
1000
0001
0000
0100
0000
0010
0000
0000
0100
0001
0000
1000
0000
,
0001
0000
0000
0010
0100
0000
1000
0000
0010
0000
0000
0100
0001
0000
1000
0000
,
0001
0000
0100
0010
1000
0000
0001
0000
1000
0000
0100
0000
0001
0000
0100
0000
,
1000
0000
0000
0001
0100
0000
0001
0000
1000
0000
0010
0000
1000
0000
0100
0010
,
0001
0000
0000
1000
0000
0000
0100
0000
0010
0000
0000
0000
0001
0000
0100
0000
,
0010
0000
0000
1000
0000
0000
0001
0000
0100
0000
0000
0000
0001
0000
1000
0000
,
2002
0000
0000
3003
,
0100
0000
0000
1000
0000
0000
0001
0000
1000
0000
0000
0000
0001
0100
0001
0100
,
0001
0000
0000
0101
0000
0000
1000
0000
0001
0000
0000
1001
0000
0000
0100
0000
,
1000
0000
0000
1100
0000
0000
1000
0000
0001
0000
0000
1001
0000
0000
0010
0000
,
0001
0000
0000
1000
0000
0000
0100
0000
0010
0000
0000
0000
0000
0000
0000
0000
,
0001
0000
0000
0100
0000
0000
0010
0000
1000
0000
0000
0000
0000
0000
0001
0100
,
0001
0000
0000
0101
0000
0000
1000
0000
0001
0000
0000
1001
0000
0000
0100
0000
,
1000
0000
0000
1100
0000
0000
0001
0000
1000
0000
0000
1001
0000
0000
0001
0000
;

//---------------dance-single - ----------------
#NOTEDATA:;
#CHARTNAME:X-Scale 2;
#STEPSTYPE:dance-single;
#DESCRIPTION:;
#CHARTSTYLE:;
#DIFFICULTY:Beginner;
#METER:1;
#RADARVALUES:0.099878,0.135083,0.000000,0.000000,0.000000,93.000000,93.000000,0.000000,0.000000,0.000000,0.000000,0.000000,0.000000,0.000000,0.099878,0.135083,0.000000,0.000000,0.000000,93.000000,93.000000,0.000000,0.000000,0.000000,0.000000,0.000000,0.000000,0.000000;
#CREDIT:iamthek3n;
#NOTES:
0000
0000
0000
0000
,
0000
0000
0000
0000
,
0000
0000
0000
0000
,
0000
0000
0000
0000
,
0000
0000
0000
0000
,
0000
0000
0000
0000
,
0000
0000
0000
0000
,
0000
0000
0000
0000
,
1000
0000
0000
0000
,
0000
0000
0000
0000
,
0001
0000
0000
0000
,
0100
0000
0000
0000
,
0001
0000
0000
0000
,
0000
0000
0000
0000
,
1000
0000
0000
0000
,
0100
0000
0000
0000
,
0000
1000
0000
0001
,
0000
0100
0000
0001
,
0000
1000
0000
0001
,
0000
0100
0000
0001
,
0000
1000
0000
0100
,
0000
0010
0000
0100
,
0000
1000
0000
0100
,
0000
0010
0000
0100
,
0000
1000
0000
0001
,
0000
0100
0000
0010
,
0000
1000
0000
0100
,
0000
0010
0000
0001
,
0000
0010
0000
0100
,
0000
1000
0000
0010
,
0000
0100
0000
0001
,
0000
1000
0000
0000
,
0010
0000
0000
0000
,
1000
0000
0000
0000
,
0001
0000
1000
0000
,
0001
0000
1000
0000
,
0001
0000
0000
0000
,
0010
0000
0000
0000
,
0100
0000
0010
0000
,
0100
0000
0010
0000
,
0100
0000
0000
0000
,
1000
0000
0000
0000
,
0001
0000
1000
0000
,
0001
0000
1000
0000
,
0100
0000
0000
0000
,
0010
0000
0000
0000
,
0000
0000
0000
0000
,
0000
0000
0000
0000
,
0001
0000
0000
0000
,
1000
0000
0000
0000
,
0000
0001
0000
1000
,
0000
0010
0000
1000
,
0000
0001
0000
1000
,
0000
0010
0000
1000
,
0000
0001
0000
0010
,
0000
0100
0000
0010
,
0000
0001
0000
0010
,
0000
0100
0000
0010
,
0000
0001
0000
1000
,
0000
0010
0000
1000
,
0000
0001
0000
0010
,
0000
0100
0000
1000
,
0000
0010
0000
0100
,
0000
0001
0000
0000
,
1000
0000
0000
0000
,
0000
0000
0000
0000
,
0001
0000
0000
0000
,
0100
0000
0000
0000
,
0001
0000
0000
0000
,
0000
0000
0000
0000
,
1000
0000
0000
0000
,
0100
0000
0000
0000
0000
0000
0000
1000
;
