#VERSION:0.83;
#TITLE:f_ck you;
#SUBTITLE:;
#ARTIST:Eliminate;
#TITLETRANSLIT:;
#SUBTITLETRANSLIT:;
#ARTISTTRANSLIT:;
#GENRE:Synthpop;
#ORIGIN:;
#CREDIT:;
#BANNER:f_ck you-bn.png;
#BACKGROUND:f_ck you-bg.png;
#PREVIEWVID:;
#JACKET:f_ck you-jacket.png;
#CDIMAGE:;
#DISCIMAGE:;
#LYRICSPATH:;
#CDTITLE:cdtitle.png;
#MUSIC:f_ck you.ogg;
#OFFSET:-0.049000;
#SAMPLESTART:24.417999;
#SAMPLELENGTH:23.278000;
#SELECTABLE:YES;
#BPMS:0.000=164.963;
#STOPS:;
#DELAYS:;
#WARPS:;
#TIMESIGNATURES:0.000=4=4;
#TICKCOUNTS:0.000=4;
#COMBOS:0.000=1;
#SPEEDS:0.000=1.000=0.000=0;
#SCROLLS:0.000=1.000;
#FAKES:;
#LABELS:0.000=Song Start;
#BGCHANGES:0.000=f_ck you.avi=1.000=0=0=0=StretchNoLoop====,
99999=-nosongbg-=1.000=0=0=0 // don't automatically add -songbackground-
;
#KEYSOUNDS:;
#ATTACKS:
;

//---------------dance-single - ----------------
#NOTEDATA:;
#CHARTNAME:X-Scale 6;
#STEPSTYPE:dance-single;
#DESCRIPTION:;
#CHARTSTYLE:;
#DIFFICULTY:Easy;
#METER:4;
#RADARVALUES:0.243773,0.410505,0.053661,0.085857,0.000000,159.000000,154.000000,5.000000,8.000000,0.000000,0.000000,0.000000,0.000000,0.000000,0.243773,0.410505,0.053661,0.085857,0.000000,159.000000,154.000000,5.000000,8.000000,0.000000,0.000000,0.000000,0.000000,0.000000;
#CREDIT:stupid_id10t;
#NOTES:
// measure 0
0000
0000
0000
0000
,  // measure 1
0000
0000
0000
0000
,  // measure 2
0000
0000
0000
0000
,  // measure 3
0000
0000
0000
0000
,  // measure 4
0000
0000
0000
0000
,  // measure 5
0000
0000
0000
0000
,  // measure 6
0000
0000
0000
0000
,  // measure 7
0000
0000
0000
0000
,  // measure 8
0000
0000
0000
1000
,  // measure 9
0000
0000
0000
0001
,  // measure 10
0000
0000
0100
0000
,  // measure 11
0000
0000
0000
0000
,  // measure 12
0000
0000
0000
0001
,  // measure 13
0000
0000
0000
0010
,  // measure 14
0000
0000
0100
0000
,  // measure 15
0000
0000
0000
0000
,  // measure 16
0000
1100
0000
0001
,  // measure 17
0000
0100
0001
1000
,  // measure 18
0001
0000
0100
0000
0000
0000
0001
0010
,  // measure 19
0100
0000
0010
0000
0100
0010
0001
0000
,  // measure 20
0000
1000
0000
0010
,  // measure 21
0000
1000
0100
0010
,  // measure 22
0100
0000
1000
0000
0000
0000
1000
0001
,  // measure 23
0100
0000
0001
0000
0100
0010
1000
0000
,  // measure 24
0000
0001
0000
0100
,  // measure 25
0000
0001
0010
0100
,  // measure 26
0010
0000
0001
0000
0000
0000
1000
0001
,  // measure 27
0100
0000
0001
0000
1000
0010
0100
0000
,  // measure 28
0000
0010
0000
1001
,  // measure 29
0000
0000
0000
0100
,  // measure 30
0002
0000
2000
0000
,  // measure 31
0000
0000
0000
3003
,  // measure 32
0000
1100
0000
0100
,  // measure 33
0000
1000
0001
0100
,  // measure 34
0001
0000
1000
0000
0001
0000
0100
0010
,  // measure 35
1000
0000
0001
0000
0100
0001
0010
0000
,  // measure 36
0100
0000
1000
0001
1000
0000
0010
0000
,  // measure 37
0000
0100
0001
1000
,  // measure 38
0001
0000
0100
0000
0001
1000
0010
0000
,  // measure 39
0100
0000
0001
0010
0100
0000
1000
0000
,  // measure 40
0010
1000
0000
0001
,  // measure 41
0000
0100
0010
1000
,  // measure 42
0010
0000
0100
0000
0010
0000
1000
0001
,  // measure 43
0100
0000
0001
0000
0010
0100
1000
0000
,  // measure 44
0001
0010
0000
0101
,  // measure 45
0000
0100
0000
0000
0100
0000
0001
0000
,  // measure 46
2000
0000
3200
0010
,  // measure 47
0000
1000
0000
0000
0010
0000
0000
1000
,  // measure 48
0000
0310
0000
1001
,  // measure 49
0000
0100
0000
0001
,  // measure 50
0010
0100
1000
0000
,  // measure 51
0010
0000
1000
0010
0000
0000
1000
0000
,  // measure 52
0000
0001
0000
0100
,  // measure 53
0000
0010
0000
1000
,  // measure 54
0001
0100
0001
0000
,  // measure 55
1000
0000
0010
1000
0000
0000
0001
0000
,  // measure 56
0010
0100
0000
1000
,  // measure 57
0000
0100
0000
1000
,  // measure 58
0001
0100
0010
0000
,  // measure 59
0100
0000
0001
0100
0000
0000
0010
0000
,  // measure 60
0000
1000
0001
0200
,  // measure 61
0000
0000
0000
0302
,  // measure 62
0023
0000
0200
0000
,  // measure 63
0000
0000
0000
0330
;

//---------------dance-single - ----------------
#NOTEDATA:;
#CHARTNAME:X-Scale 9;
#STEPSTYPE:dance-single;
#DESCRIPTION:;
#CHARTSTYLE:;
#DIFFICULTY:Medium;
#METER:6;
#RADARVALUES:0.341896,0.478922,0.096589,0.332697,0.005366,223.000000,214.000000,9.000000,31.000000,0.000000,0.000000,0.000000,0.000000,0.000000,0.341896,0.478922,0.096589,0.332697,0.005366,223.000000,214.000000,9.000000,31.000000,0.000000,0.000000,0.000000,0.000000,0.000000;
#CREDIT:stupid_id10t;
#NOTES:
// measure 0
0000
0000
0000
0000
,  // measure 1
0000
0000
0000
0000
,  // measure 2
0000
0000
0000
0000
,  // measure 3
0000
0000
0000
0000
,  // measure 4
0000
0000
0000
0000
,  // measure 5
0000
0000
0000
0000
,  // measure 6
0000
0000
0000
0000
,  // measure 7
0000
0000
0000
0000
,  // measure 8
0000
0000
0000
2000
,  // measure 9
0000
0000
0000
3020
,  // measure 10
0230
0302
2003
0000
,  // measure 11
0000
0000
0000
0000
0000
0000
0000
3000
,  // measure 12
0000
0020
0230
0302
,  // measure 13
0000
0000
0000
2003
,  // measure 14
3020
0000
0200
0000
,  // measure 15
0000
0000
0000
0330
,  // measure 16
0000
1001
0000
1100
,  // measure 17
1000
0001
0100
0010
,  // measure 18
0100
0001
0010
0100
,  // measure 19
0010
0100
1000
0000
0010
1000
0001
0000
,  // measure 20
0100
0000
0002
1000
1003
0000
1001
0000
,  // measure 21
0010
1000
0100
0001
,  // measure 22
0100
0010
0001
1000
,  // measure 23
0001
0100
0010
0000
1000
0100
0010
0000
,  // measure 24
0100
2000
0010
3001
,  // measure 25
0100
0101
0001
0010
,  // measure 26
0100
1000
0010
1000
,  // measure 27
0001
0100
0010
0000
1000
0100
0010
0000
,  // measure 28
0100
1000
0000
1002
,  // measure 29
0000
0000
0000
0203
,  // measure 30
0320
0000
2000
0000
,  // measure 31
0000
0000
0000
3030
,  // measure 32
0000
0110
0000
1001
,  // measure 33
0001
0100
0000
0100
0010
0000
1000
0010
,  // measure 34
0100
0001
0000
0001
0010
0000
0100
0010
,  // measure 35
0100
0000
0010
0000
0100
0000
0000
0100
0000
0000
0100
0000
1000
0000
0000
0000
,  // measure 36
0001
0000
0100
0010
0100
0000
0001
0000
,  // measure 37
0010
0100
0000
0100
1000
0000
0001
1000
,  // measure 38
0010
1000
0000
1000
0001
0000
0100
0001
,  // measure 39
1000
0001
0100
0000
1000
0100
0001
0000
,  // measure 40
0010
0002
0100
1003
,  // measure 41
0100
0010
0000
0010
0001
0000
1000
0001
,  // measure 42
0100
0001
0000
0010
0100
0000
1000
0010
,  // measure 43
0001
0010
1000
0000
0010
0100
0001
0000
,  // measure 44
1000
0100
0010
0000
0000
0000
0102
0000
,  // measure 45
0000
1000
0000
0000
0000
0000
0103
0000
,  // measure 46
0002
0000
1003
0010
,  // measure 47
0100
0010
0000
0010
1000
0000
0001
0100
,  // measure 48
0001
0100
0001
0000
0000
0000
1200
0000
,  // measure 49
0000
0010
0000
1300
,  // measure 50
0001
0000
0100
0000
0001
0010
0100
0000
,  // measure 51
0010
0100
1000
0000
0010
1000
0001
0000
,  // measure 52
0100
0001
2000
0000
0100
0000
3020
0000
,  // measure 53
0000
0001
0000
1030
,  // measure 54
0010
0000
1000
0000
0001
0100
0001
0000
,  // measure 55
1000
0010
1000
0000
0001
0010
0001
0000
,  // measure 56
1000
0010
2000
0000
0100
0000
3020
0000
,  // measure 57
0000
0001
0000
0130
,  // measure 58
0010
0000
1000
0000
0001
0100
0010
0000
,  // measure 59
1000
0100
0010
0000
0001
0100
0010
0000
,  // measure 60
1000
0010
2000
0000
3200
0000
0320
0000
,  // measure 61
0000
0001
0001
0032
,  // measure 62
0203
0010
0020
0000
,  // measure 63
0000
0000
0000
0330
;

//---------------dance-single - ----------------
#NOTEDATA:;
#CHARTNAME:X-Scale 11;
#STEPSTYPE:dance-single;
#DESCRIPTION:;
#CHARTSTYLE:;
#DIFFICULTY:Hard;
#METER:8;
#RADARVALUES:0.407822,0.581548,0.203911,0.558072,0.021464,266.000000,247.000000,19.000000,52.000000,12.000000,0.000000,0.000000,0.000000,0.000000,0.407822,0.581548,0.203911,0.558072,0.021464,266.000000,247.000000,19.000000,52.000000,12.000000,0.000000,0.000000,0.000000,0.000000;
#CREDIT:stupid_id10t;
#NOTES:
// measure 0
0000
0000
0000
0000
,  // measure 1
0000
0000
0000
0000
,  // measure 2
0000
0000
0000
0000
,  // measure 3
0000
0000
0000
0000
,  // measure 4
0000
0000
0000
0000
,  // measure 5
0000
0000
0000
0000
,  // measure 6
0000
0000
0000
0000
,  // measure 7
0000
0000
0000
0000
,  // measure 8
0000
0002
0000
0203
,  // measure 9
0000
0000
0000
2300
,  // measure 10
3200
0302
2003
0000
,  // measure 11
0000
0000
0000
0000
0000
0000
0000
3000
,  // measure 12
0000
0002
0023
0230
,  // measure 13
0000
0000
0000
2300
,  // measure 14
3002
0000
0200
0000
,  // measure 15
0000
0000
0000
0000
0000
0303
0M0M
0000
,  // measure 16
0000
0000
2002
0000
0000
3003
0110
0000
,  // measure 17
1000
1001
0002
0103
,  // measure 18
0010
0000
1000
0000
1100
0000
0100
1000
,  // measure 19
0001
0000
1000
0000
0100
0000
0000
0100
0000
0000
0100
0000
0020
0000
0000
0000
,  // measure 20
0100
0000
0031
0010
0001
0000
0011
0000
,  // measure 21
1000
0000
1001
0001
2000
0000
3010
0000
,  // measure 22
0100
0000
0001
0000
0101
0000
0001
0100
,  // measure 23
1000
0100
0001
0000
0100
0001
2000
0000
,  // measure 24
3020
0030
0200
0000
1000
0000
0301
0000
,  // measure 25
0100
1001
2000
0100
,  // measure 26
3001
0000
1000
0000
1100
0000
1000
0100
,  // measure 27
0001
0100
1000
0000
0001
0100
0020
0000
,  // measure 28
0001
1030
0001
0012
,  // measure 29
0000
2000
0000
0000
0000
3000
2003
0000
,  // measure 30
3020
0000
0200
0000
,  // measure 31
0000
0000
0000
0000
0000
0330
0MM0
0000
,  // measure 32
0000
0000
2020
0000
0000
3030
1001
0000
,  // measure 33
1000
0100
00M0
0100
0002
0000
1003
0001
,  // measure 34
0100
0001
1000
0000
1001
0000
0001
0100
,  // measure 35
1000
0000
0100
0000
0001
0000
0000
0001
1000
0000
0001
0000
0100
0000
0010
0000
,  // measure 36
0001
0010
1000
0001
1000
0000
1001
0000
,  // measure 37
0001
0100
00M0
0100
1000
0000
0001
0100
,  // measure 38
0010
0100
0001
0000
1100
0000
1000
0100
,  // measure 39
0001
0000
0100
0000
1000
0000
0000
1000
0001
0000
0100
0000
0001
0000
0010
0000
,  // measure 40
1000
0010
0200
0000
0310
0100
1100
0000
,  // measure 41
1000
0100
00M0
0100
0002
0000
1003
0000
,  // measure 42
0001
0100
1000
0100
0001
0000
1000
0010
,  // measure 43
0100
0000
0001
0000
0010
0000
0000
0010
0100
0000
1000
0000
0002
0000
0000
0000
,  // measure 44
0103
0001
1000
0000
0100
0000
1200
0000
,  // measure 45
0000
0020
0000
0000
0030
0000
0310
0000
,  // measure 46
0001
0100
0001
0000
1000
0000
0001
0010
,  // measure 47
1000
0001
0100
0010
0001
1000
0010
1000
,  // measure 48
0001
0100
0202
0000
0000
0303
1200
0000
,  // measure 49
2300
3020
0001
1030
,  // measure 50
0100
0010
0001
0000
1000
0001
0100
0000
,  // measure 51
0001
1000
0100
00M0
0100
0001
1000
0000
,  // measure 52
0001
0010
0200
0000
1000
0000
0320
0000
,  // measure 53
0032
0203
1000
0301
,  // measure 54
0010
0100
1000
0000
0001
0100
0010
0000
,  // measure 55
1000
0001
0100
00M0
0100
1000
0001
0000
,  // measure 56
0100
0010
0200
0000
0001
0000
2300
0000
,  // measure 57
3200
0320
0100
1030
,  // measure 58
0001
1000
0100
0000
0010
0100
1000
0000
,  // measure 59
0010
1000
0100
00M0
0100
0001
1000
0000
,  // measure 60
0001
0100
0020
0000
2030
0000
3100
0000
,  // measure 61
1000
0100
0001
0000
0100
0000
1000
0000
,  // measure 62
0010
0100
0002
0000
2000
0000
0000
0000
,  // measure 63
0000
0000
0000
0000
0000
3003
M00M
0000
;
