#TITLE:fReAkY 4 Life;
#SUBTITLE:;
#ARTIST:Dorian Electra;
#TITLETRANSLIT:;
#SUBTITLETRANSLIT:;
#ARTISTTRANSLIT:;
#GENRE:Bubblegum Bass;
#CREDIT:;
#BANNER:fReAkY 4 Life-bn.png;
#BACKGROUND:fReAkY 4 Life-bg.png;
#LYRICSPATH:;
#CDTITLE:cdtitle.png;
#MUSIC:fReAkY 4 Life.ogg;
#OFFSET:-0.002000;
#SAMPLESTART:50.910999;
#SAMPLELENGTH:14.545000;
#SELECTABLE:YES;
#BPMS:0.000000=132.000000
;
#STOPS:
;
#BGCHANGES:;
#KEYSOUNDS:;
#ATTACKS:;

//---------------dance-single - ----------------
#NOTES:
     dance-single:
     X-Scale 12:
     Hard:
     8:
     0.525517,0.652331,0.319541,0.327335,0.179255,472.000000,431.000000,41.000000,42.000000,0.000000,0.000000,0.525517,0.652331,0.319541,0.327335,0.179255,472.000000,431.000000,41.000000,42.000000,0.000000,0.000000:
// measure 0
0000
0000
0000
0000
,  // measure 1
0000
0000
0000
0000
,  // measure 2
0000
0000
0000
0000
,  // measure 3
0000
0000
0000
0000
,  // measure 4
2001
0000
3010
1000
0001
1000
0100
0100
,  // measure 5
0010
0000
0001
0101
0000
0000
0110
0010
,  // measure 6
1000
0001
1000
0001
0010
0100
0010
0100
,  // measure 7
1000
0100
0020
0001
0030
0001
1000
1000
,  // measure 8
0001
0010
0100
2000
0000
3000
0000
0001
,  // measure 9
0100
1000
0100
0002
0000
0003
0000
1000
,  // measure 10
1100
0100
0001
0010
1000
0100
0001
0010
,  // measure 11
1000
0000
0001
0101
0000
0000
1100
1000
,  // measure 12
0100
0001
0100
1000
0000
1000
0001
0010
,  // measure 13
0100
0010
0001
0100
0000
0000
1010
0001
,  // measure 14
0010
0100
1000
0010
0100
0001
1000
0001
,  // measure 15
0000
0001
0100
0000
0000
0010
1000
0000
,  // measure 16
0001
0010
0100
2000
0000
0001
0001
3001
,  // measure 17
1000
0000
1000
0100
0010
0000
0100
0000
,  // measure 18
0010
0001
1000
0020
0000
0100
0100
0130
,  // measure 19
0010
0000
1000
0100
1000
0000
0001
0000
,  // measure 20
0010
0100
1000
0001
0002
0000
1000
1000
,  // measure 21
1003
0000
0001
0100
0010
0000
1000
0100
,  // measure 22
0001
1000
0010
0001
0010
0001
0010
0100
,  // measure 23
0000
1000
0002
0000
0000
0013
0100
0100
,  // measure 24
1100
0000
1000
0000
0001
0000
0010
0100
,  // measure 25
0020
0000
0031
2000
3000
0002
0010
0003
,  // measure 26
0010
0000
0100
1000
0001
1000
0100
0100
,  // measure 27
0020
0000
0000
0000
0000
0000
0000
0000
0031
0010
0001
0010
0001
0000
0001
0000
,  // measure 28
0011
0010
0100
1000
0100
1000
0001
1000
,  // measure 29
0001
0000
0010
0100
0001
0100
1000
0100
,  // measure 30
0001
0100
1000
0010
0100
0010
0100
0001
,  // measure 31
1000
0000
0000
0000
0001
0000
0010
0000
0100
0000
1000
0100
1000
0000
0000
0000
,  // measure 32
1001
0001
0100
0010
0100
0010
0100
0010
,  // measure 33
1000
0000
0000
0000
0001
0000
1001
0000
0000
0001
1000
0001
1000
0000
0100
0000
,  // measure 34
0110
0110
0000
1001
1001
0000
0110
0110
,  // measure 35
0000
1001
2001
0000
0000
0004
3000
0000
,  // measure 36
0023
0000
0000
0100
0230
0000
2300
0000
,  // measure 37
3002
0000
0013
0200
0000
0000
2300
0000
,  // measure 38
0010
0000
3000
0001
0002
0000
0023
0000
,  // measure 39
0230
0000
1300
0100
0001
0100
1000
0100
,  // measure 40
2100
0000
0000
0001
3002
0000
0203
0000
,  // measure 41
0320
0000
1030
0002
0000
0000
0023
0000
,  // measure 42
0230
0000
0300
1000
0002
0000
0203
0000
,  // measure 43
0310
0010
0010
0010
1000
1000
1000
1000
,  // measure 44
1001
0000
0000
0000
0001
0100
0010
0100
0001
0000
0000
0000
1000
0100
0010
0100
,  // measure 45
1000
0000
0000
0000
0010
0100
0001
0100
0010
0000
0000
0000
1000
0100
0010
0100
,  // measure 46
1000
0000
0000
0000
0001
1000
0010
1000
0001
0000
0000
0000
0010
0100
1000
0100
,  // measure 47
0010
0000
0000
0000
0001
1000
0100
1000
0001
0000
0000
0000
0011
0000
0000
0000
,  // measure 48
1010
0000
0000
0000
0001
0010
0100
1000
0001
0000
0000
0000
1000
0010
0100
0001
,  // measure 49
1000
0000
0000
0000
0001
0010
0100
1000
0001
0000
0000
0000
1000
0010
0100
0001
,  // measure 50
1000
0000
0000
0000
0001
0100
0010
1000
0001
0000
0000
0000
1000
0100
0010
0001
,  // measure 51
1000
0000
0000
0000
0001
0100
0010
1000
0001
0000
0001
0000
1000
0000
1000
0000
,  // measure 52
1001
0000
0001
0100
1010
0000
1000
0100
,  // measure 53
0010
0000
0000
0001
1000
0000
0001
0000
1001
0000
0000
0000
0100
0000
1000
0000
,  // measure 54
0001
1000
0001
1000
0001
1000
0001
1000
0002
0000
0000
0000
0000
0003
0010
0100
,  // measure 55
1000
0000
0000
0100
1000
0000
0001
0000
1001
0000
0000
0000
0110
0000
0000
0000
,  // measure 56
1001
0000
0000
0000
1000
0000
0100
0000
1010
0000
0000
0000
0001
0100
0001
0000
,  // measure 57
0010
0000
0000
0100
0010
0000
0001
1000
0001
0000
0010
0000
0100
0000
2000
0000
,  // measure 58
0000
0000
3001
0000
2000
0000
0000
0000
3100
0000
1000
0100
0010
0000
0002
0000
,  // measure 59
0000
0000
1003
0020
0000
0100
0130
0010
,  // measure 60
0110
0100
0101
1000
0001
1000
0001
0010
,  // measure 61
0200
0000
1300
0001
0010
1000
0010
0001
,  // measure 62
0100
0010
1000
0100
1000
0100
1000
0100
,  // measure 63
0020
0000
0000
0000
0031
0000
0010
0000
0001
0000
0010
0100
1000
0000
0000
0000
,  // measure 64
1001
0001
0100
0010
0100
0010
0100
0010
,  // measure 65
2000
0000
3001
2000
0000
3000
0100
0000
,  // measure 66
1100
1100
0000
0101
0101
0000
0011
0011
,  // measure 67
0000
0000
1010
0000
1010
0000
0000
0000
0000
0000
0001
0100
0002
0000
0000
0000
,  // measure 68
2003
0000
0000
0000
,  // measure 69
0000
0000
0000
3000
;

//---------------dance-single - ----------------
#NOTES:
     dance-single:
     X-Scale 14:
     Challenge:
     9:
     0.423086,0.582968,0.366303,0.561145,0.136389,380.000000,333.000000,47.000000,72.000000,136.000000,0.000000,0.423086,0.582968,0.366303,0.561145,0.136389,380.000000,333.000000,47.000000,72.000000,136.000000,0.000000:
// measure 0
0000
0000
0000
0000
,  // measure 1
0000
0000
0000
0000
,  // measure 2
0000
0000
0000
0000
,  // measure 3
0000
0000
0000
0000
,  // measure 4
0011
0000
1000
MMMM
1000
MMMM
1000
MMMM
,  // measure 5
0220
0000
0330
2002
0000
3003
1100
0000
,  // measure 6
0001
MMMM
0001
MMMM
0001
MMMM
0001
MMMM
,  // measure 7
0002
0000
0003
0020
0000
0130
0010
0010
,  // measure 8
0001
1000
0010
1000
0000
0000
0000
0001
,  // measure 9
0010
1000
0010
0001
0000
0000
0000
0000
,  // measure 10
1000
0100
1000
0010
MMMM
0010
0001
1000
,  // measure 11
0001
0000
MMMM
0200
0000
0300
MMMM
0000
,  // measure 12
1000
0001
1000
0100
MMMM
0100
0001
1000
,  // measure 13
0100
0001
0100
2000
0000
3000
MMMM
0000
,  // measure 14
0001
0010
1000
0010
0100
1000
0001
0100
,  // measure 15
MMMM
0100
2000
0000
0000
3001
L00L
0000
,  // measure 16
1001
1000
0100
0020
0000
0100
0100
0000
,  // measure 17
0031
0000
0010
0100
2000
0000
3002
0000
,  // measure 18
0013
1000
0010
0200
0000
0001
0001
0000
,  // measure 19
1300
0000
0100
0010
0002
0000
2003
0000
,  // measure 20
3010
0100
0001
0010
0200
0000
0001
0000
,  // measure 21
1300
0000
0100
0010
0002
0000
2003
3000
,  // measure 22
0101
0000
MMMM
0110
0000
1100
MMMM
0101
,  // measure 23
0000
0011
MMMM
0000
0000
1000
0001
0001
,  // measure 24
1002
0103
0001
0010
,  // measure 25
0100
0000
1000
0002
0000
2003
0010
0000
,  // measure 26
3002
0013
0100
1000
,  // measure 27
1020
0000
0000
0000
0000
0000
0100
0130
,  // measure 28
0110
0000
1000
MMMM
1000
MMMM
1000
MMMM
,  // measure 29
2200
0000
3300
0202
0000
0303
0L0L
0000
,  // measure 30
0110
0000
0001
MMMM
0001
MMMM
0001
MMMM
,  // measure 31
0022
0000
0033
2200
0000
3300
LL00
0000
,  // measure 32
0101
0000
1000
MMMM
1000
MMMM
1000
MMMM
,  // measure 33
2020
0000
3030
0220
0000
0330
0LL0
0000
,  // measure 34
1000
0100
0000
1000
0010
0000
1000
0100
,  // measure 35
0000
0010
0002
0000
0003
0000
00LL
0000
,  // measure 36
0001
0000
2001
3200
,  // measure 37
0302
0000
0013
2000
0000
0000
3002
0000
,  // measure 38
0100
0003
2001
3200
,  // measure 39
0302
0000
1003
0020
0100
0000
0001
0000
,  // measure 40
0031
0000
0021
0230
,  // measure 41
2300
0000
3001
0020
0000
0000
0230
0000
,  // measure 42
0001
0300
1100
1000
,  // measure 43
0001
0100
0010
1000
0001
0100
0010
1000
,  // measure 44
1001
0000
0000
0000
0001
1000
0100
1000
0001
0000
0000
0000
1000
0010
0100
0010
,  // measure 45
1000
0000
0000
0000
0001
1000
0010
1000
0001
0000
0000
0000
1000
0001
0010
0001
,  // measure 46
1000
0000
0000
0000
0100
0010
0001
1000
0001
0000
0000
0000
0010
0100
1000
0001
,  // measure 47
1000
0000
0000
0000
0100
0010
0001
1000
0002
0000
0000
0000
0203
0000
0000
0000
,  // measure 48
0320
0000
0000
0000
1030
0010
0100
0010
1000
0000
0000
0000
0001
0010
0100
0010
,  // measure 49
0001
0000
0000
0000
1000
0001
0100
0001
1000
0000
0000
0000
0100
0010
0001
1000
,  // measure 50
0010
0000
0000
0000
0100
0010
1000
0001
0100
0000
0000
0000
0010
0100
0001
0010
,  // measure 51
0100
0000
0000
0000
1000
0100
0010
0100
1000
0000
0001
0000
0100
0000
0010
0000
,  // measure 52
1000
0000
0001
0010
0101
0000
1000
0100
,  // measure 53
0001
0000
0000
0100
0000
0000
0010
0000
0001
0000
0000
0000
1000
0000
0001
0000
,  // measure 54
0100
0000
0000
0000
0010
0100
0000
0000
0110
0000
0000
0000
1000
0001
1000
0000
,  // measure 55
0100
0000
0000
0001
0000
0000
0100
0000
1000
0000
0000
0000
1001
0000
0000
0000
,  // measure 56
0002
0000
0000
0000
0000
0000
0100
0000
0100
0000
0000
0000
1003
0001
1000
0000
,  // measure 57
0100
0000
0000
0010
0100
0000
0010
0000
0001
0000
0100
0000
1000
0000
0100
0000
,  // measure 58
0002
0000
0000
0000
0023
0000
0000
0000
0130
0000
0010
0100
1000
0000
0020
0000
,  // measure 59
0000
0000
0130
0002
0000
0000
1003
1000
,  // measure 60
1001
0000
0001
MMMM
0001
MMMM
0001
MMMM
,  // measure 61
0202
0000
0303
2200
0000
3300
LL00
0000
,  // measure 62
1001
0000
1000
MMMM
1000
MMMM
1000
MMMM
,  // measure 63
2020
0000
3030
0202
0000
0303
0L0L
0000
,  // measure 64
1001
0000
0001
MMMM
0001
MMMM
0001
MMMM
,  // measure 65
0022
0000
0033
2200
0000
3300
LL00
0000
,  // measure 66
0001
0010
0000
0001
0100
0000
0001
0010
,  // measure 67
0000
0100
2000
0000
0000
0000
0002
3003
,  // measure 68
L00L
0000
0000
0000
;

//---------------dance-single - ----------------
#NOTES:
     dance-single:
     X-Scale 9:
     Medium:
     6:
     0.416405,0.529971,0.272779,0.436446,0.007794,374.000000,339.000000,35.000000,56.000000,0.000000,0.000000,0.416405,0.529971,0.272779,0.436446,0.007794,374.000000,339.000000,35.000000,56.000000,0.000000,0.000000:
// measure 0
0000
0000
0000
0000
,  // measure 1
0000
0000
0000
0000
,  // measure 2
0000
0000
0000
0000
,  // measure 3
0000
0000
0000
0000
,  // measure 4
1001
1000
0100
1000
,  // measure 5
1001
0000
0000
1001
0000
0000
1000
0100
,  // measure 6
0010
0001
0000
0100
0001
0000
0010
0001
,  // measure 7
0000
0100
0020
1000
0030
1000
0001
0001
,  // measure 8
0100
1000
0100
0001
0000
0000
0000
1000
,  // measure 9
0010
0001
0010
1000
0000
0000
0000
0001
,  // measure 10
0010
1000
0010
0001
0010
1000
0010
0002
,  // measure 11
0100
0003
0000
0101
0000
0000
1001
1000
,  // measure 12
0100
0001
0100
1000
0000
0000
0001
0010
,  // measure 13
1000
0010
0100
1000
0000
0000
0010
1000
,  // measure 14
0100
0001
0100
1000
0001
0100
0010
2000
,  // measure 15
0000
3001
1001
0000
0000
1000
1100
0000
,  // measure 16
1001
0001
0010
0200
0000
0000
1000
1000
,  // measure 17
1300
0000
0100
0010
0001
0000
0010
0000
,  // measure 18
0001
0100
0010
2000
0000
0000
0010
0010
,  // measure 19
3010
0000
1000
0001
0100
0000
0010
0000
,  // measure 20
1000
0100
0010
0001
0002
0000
0010
0010
,  // measure 21
0013
0000
0100
0010
0001
0000
1000
0010
,  // measure 22
0100
0010
1000
0100
0010
0100
0010
0001
,  // measure 23
0000
1000
0002
0000
0000
0103
0101
0000
,  // measure 24
1001
1000
0010
1000
,  // measure 25
0001
0000
0010
0200
0000
0320
0001
0000
,  // measure 26
0031
0010
0100
1000
,  // measure 27
1001
0000
0001
0200
0000
0320
0100
0030
,  // measure 28
0110
0000
1000
0000
0001
0000
1000
0001
,  // measure 29
1000
0000
0001
0010
1000
0001
1000
0010
,  // measure 30
0001
0000
0100
0000
0010
0000
0100
0010
,  // measure 31
0100
0000
0001
1000
0010
1000
0001
0000
,  // measure 32
1000
0001
1000
0000
0001
0000
1000
0001
,  // measure 33
1000
0000
0100
0020
0000
0031
0011
0000
,  // measure 34
0001
0010
0000
0001
0100
0000
0001
0010
,  // measure 35
0000
0100
2000
0000
3000
0000
0000
0000
,  // measure 36
1100
0000
0000
0010
2000
0000
3020
0000
,  // measure 37
0032
0000
0103
0200
0000
0000
0320
0000
,  // measure 38
0001
0030
0000
0001
2000
0000
3200
0000
,  // measure 39
0302
0000
0013
0020
1000
0000
2030
0000
,  // measure 40
3002
0000
0003
1000
2000
0000
3200
0000
,  // measure 41
0302
0000
0013
0020
0000
0000
2030
0000
,  // measure 42
0001
0000
3000
1000
0001
0000
0100
0000
,  // measure 43
0001
0010
0001
0010
0100
1000
0100
1000
,  // measure 44
1100
0000
0100
0010
0002
0000
2003
0000
,  // measure 45
3200
0000
0310
0200
1000
0000
2300
0000
,  // measure 46
3002
0000
0103
0001
2000
0000
3020
0000
,  // measure 47
0032
0000
0013
2000
0001
0000
3200
0000
,  // measure 48
0320
0000
0031
0010
0200
0000
2300
0000
,  // measure 49
3002
0000
0103
0020
0001
0000
2030
0000
,  // measure 50
3002
0000
0103
0001
2000
0000
3200
0000
,  // measure 51
0320
0000
0130
1000
0001
0100
0001
1000
,  // measure 52
1001
0000
1000
0100
0010
0000
0100
0010
,  // measure 53
0001
0000
1000
0010
0100
0000
0010
0100
,  // measure 54
0001
0000
1000
0100
0010
0000
0100
0010
,  // measure 55
0001
0000
0000
1000
0000
0000
0001
0000
1001
0000
0000
0000
0110
0000
0000
0000
,  // measure 56
1001
0000
0001
0100
0010
0000
0100
0010
,  // measure 57
1000
0000
0000
0000
0001
0000
0000
0010
0100
0000
0010
0000
0001
0000
1000
0000
,  // measure 58
0002
0000
0000
0000
,  // measure 59
0203
0000
0310
2000
0000
0100
0001
3001
,  // measure 60
1001
0000
1100
0000
0101
0000
1100
0100
,  // measure 61
1010
0000
0001
0011
0010
1000
0010
0001
,  // measure 62
0011
0000
0110
0000
0011
0000
0110
1000
,  // measure 63
1010
0000
0001
0010
1000
0100
0001
0000
,  // measure 64
0011
0010
0100
1000
0001
1000
0100
0010
,  // measure 65
0011
0000
0001
0011
0000
0000
0110
0000
,  // measure 66
1000
0100
0000
1000
0001
0000
1000
0100
,  // measure 67
0000
0010
0002
0000
0003
0000
0202
0000
,  // measure 68
0303
0000
0000
0000
;

//---------------dance-single - ----------------
#NOTES:
     dance-single:
     X-Scale 5:
     Easy:
     3:
     0.247171,0.333570,0.226017,0.202636,0.000000,222.000000,193.000000,29.000000,26.000000,0.000000,0.000000,0.247171,0.333570,0.226017,0.202636,0.000000,222.000000,193.000000,29.000000,26.000000,0.000000,0.000000:
0000
0000
0000
0000
,
0000
0000
0000
0000
,
0000
0000
0000
0000
,
0000
0000
0000
0000
,
0001
0010
0001
0010
,
0100
0000
0000
0100
0000
0000
0100
0000
,
1000
0001
1000
0001
,
1000
0000
0000
1000
0000
0000
1000
1000
,
1000
0000
0100
0010
,
0100
0000
0000
2000
0000
0000
0000
3000
,
1001
0001
0100
0010
,
1000
0000
0000
0100
0000
0000
1000
0000
,
0001
0100
0001
1000
,
0100
0000
0000
0010
0000
0000
0100
0000
,
1000
0001
1000
0100
,
0000
0010
0000
0100
,
1000
0000
0100
0020
0000
0000
0001
0000
,
0030
0000
0001
0100
0002
0000
0023
0000
,
0130
0000
1000
0200
0000
0000
1000
0000
,
0300
0000
0100
1000
0002
0000
0023
0000
,
0130
0000
0010
0001
0002
0000
0010
0000
,
0003
0000
0001
1000
0020
0000
0230
0300
,
0110
0000
0000
1001
0000
0000
1100
0100
,
0000
1000
0002
0000
0000
0000
0013
0010
,
0010
0100
1000
0001
,
0100
0000
0010
0200
0000
0302
0000
0000
,
1003
0100
0010
0100
,
1000
0000
0001
0200
0000
0320
0000
0030
,
0110
0100
0010
0100
,
0110
0000
0000
1001
0000
0000
1000
0000
,
1100
0100
0010
0001
,
0011
0000
0000
1001
0000
0000
0010
0000
,
1010
1000
0001
1000
,
1100
0000
0000
1001
0000
0000
0001
0000
,
0011
0000
0000
0110
0000
0000
0011
0000
,
0000
0110
0000
0000
0000
0000
0002
0000
,
0000
0000
1003
0001
,
0010
0000
0100
2000
0000
0000
3002
0000
,
0000
0003
0011
0010
,
0001
0000
1000
0020
0000
0000
0230
0000
,
0302
0003
1001
1000
,
0001
0000
0010
0200
0000
0000
2300
0000
,
0000
3000
1100
0100
,
0010
0000
0001
0200
0000
0000
0320
0000
,
0230
0000
0301
0100
0010
0000
0100
0010
,
1000
0000
0001
0100
0101
0000
1000
0000
,
1010
0000
0001
0010
0100
0000
0010
0100
,
1000
0000
0001
1000
1100
0000
1001
0000
,
0011
0000
0010
0100
1000
0000
0001
1000
,
0010
0000
0100
0010
0110
0000
1000
0000
,
1010
0000
0001
0010
0100
0000
0010
0001
,
1000
0000
0001
1000
0010
1000
0001
1000
,
0010
0000
0000
0100
0110
0000
0010
0000
,
1000
0001
1001
0000
;

//---------------dance-single - ----------------
#NOTES:
     dance-single:
     X-Scale 2:
     Beginner:
     1:
     0.050102,0.065467,0.007794,0.000000,0.000000,45.000000,44.000000,1.000000,0.000000,0.000000,0.000000,0.050102,0.065467,0.007794,0.000000,0.000000,45.000000,44.000000,1.000000,0.000000,0.000000,0.000000:
0000
0000
0000
0000
,
0000
0000
0000
0000
,
0000
0000
0000
0000
,
0000
0000
0000
0000
,
0000
1000
0000
0100
,
0000
1000
0000
0100
,
0000
0010
0001
0010
,
0001
0000
0000
0000
,
1000
0000
0000
0000
,
0100
0000
0000
0000
,
1000
0000
0000
0000
,
0000
0001
0000
0010
,
0000
0001
0000
0010
,
0000
0100
0000
1000
,
0000
0100
0000
1000
,
0000
0001
0000
0100
,
0000
0001
0000
0100
,
0000
0010
0000
1000
,
0000
0010
0000
1000
,
0000
0100
0000
0010
,
0000
0001
0000
0100
,
0000
0010
0000
1000
,
0000
0100
0000
1000
,
0000
0001
0000
0100
,
0000
0010
0000
0100
,
0000
0001
0000
1000
,
0000
0010
0000
1000
,
0000
0000
0000
0000
,
1001
0000
0000
0000
;
