#TITLE:dolfijn;
#SUBTITLE:;
#ARTIST:gladde paling;
#TITLETRANSLIT:;
#SUBTITLETRANSLIT:;
#ARTISTTRANSLIT:;
#GENRE:Dutch Hardcore;
#CREDIT:;
#BANNER:dolfijn-bn.png;
#BACKGROUND:dolfijn-bg.png;
#LYRICSPATH:;
#CDTITLE:cdtitle.png;
#MUSIC:dolfijn.ogg;
#OFFSET:-0.004000;
#SAMPLESTART:21.337000;
#SAMPLELENGTH:10.667000;
#SELECTABLE:YES;
#BPMS:0.000000=180.000000
;
#STOPS:
;
#BGCHANGES:0.000=dolfijn.avi=1.000=0=0=0=StretchNoLoop====,
99999=-nosongbg-=1.000=0=0=0 // don't automatically add -songbackground-
;
#KEYSOUNDS:;
#ATTACKS:;

//---------------dance-single - ----------------
#NOTES:
     dance-single:
     X-Scale 8:
     Beginner:
     6:
     0.360906,0.513418,0.221200,0.209558,0.000000,217.000000,198.000000,19.000000,18.000000,0.000000,0.000000,0.360906,0.513418,0.221200,0.209558,0.000000,217.000000,198.000000,19.000000,18.000000,0.000000,0.000000:
// measure 0
0000
0000
0000
0000
,  // measure 1
0000
0000
0000
0000
,  // measure 2
0000
0000
0000
0000
,  // measure 3
0000
0000
0000
0000
,  // measure 4
0000
0001
0000
1000
,  // measure 5
0000
0001
0000
1000
,  // measure 6
0000
0001
0000
1000
,  // measure 7
0000
0000
0000
0000
,  // measure 8
2001
0000
3200
0000
,  // measure 9
0320
0000
0032
0000
,  // measure 10
0203
0000
0320
0000
,  // measure 11
2030
0000
3002
0003
,  // measure 12
0010
0100
0010
0100
,  // measure 13
1000
0001
1000
0001
,  // measure 14
0100
0010
1000
0001
,  // measure 15
1001
0000
0000
0000
,  // measure 16
1000
0001
0100
0001
,  // measure 17
1000
0010
1000
0001
,  // measure 18
0010
0100
0010
0001
,  // measure 19
0010
0100
1000
0000
,  // measure 20
0001
0100
0010
0100
,  // measure 21
0001
1000
0100
0010
,  // measure 22
0100
1000
0001
1000
,  // measure 23
0000
0000
0000
0000
,  // measure 24
0110
0000
0010
1000
0000
0001
0010
0000
,  // measure 25
0001
0000
1000
0010
0000
0100
0001
0000
,  // measure 26
1000
0000
0010
1000
0000
0001
0100
0000
,  // measure 27
0000
0101
1010
0000
,  // measure 28
1000
0001
1000
0100
,  // measure 29
1000
0001
1000
0010
,  // measure 30
0100
0001
0010
0100
,  // measure 31
1100
0000
0000
0000
,  // measure 32
1100
0000
0000
0000
,  // measure 33
1001
0000
0000
0000
,  // measure 34
0101
0000
0000
0000
,  // measure 35
0110
0110
1001
0000
,  // measure 36
0001
1000
0001
0000
1000
0010
1000
0000
,  // measure 37
0001
0010
0001
0000
0100
0010
0100
0000
,  // measure 38
0001
0100
0001
0000
1000
0100
1000
0000
,  // measure 39
1100
0000
0000
0000
,  // measure 40
1001
1000
0001
1000
,  // measure 41
0100
0000
0010
0100
1000
0000
0001
0000
,  // measure 42
1000
0001
0100
0010
,  // measure 43
0100
0000
0001
0010
0100
0000
0000
0000
,  // measure 44
1000
0001
0100
0001
,  // measure 45
0010
0000
0100
0010
0001
0000
1000
0000
,  // measure 46
0001
0100
0001
1000
,  // measure 47
0001
0000
0000
0000
,  // measure 48
2001
0000
3100
0000
0000
1000
0001
0000
,  // measure 49
0020
0000
0130
0000
0000
0010
0001
0000
,  // measure 50
2000
0000
3001
0000
0000
0100
0010
0000
,  // measure 51
0000
1001
1001
0000
,  // measure 52
0000
0000
0001
0000
1000
0100
0010
0000
,  // measure 53
0100
0000
1000
0000
0001
0100
0010
0000
,  // measure 54
0100
0000
0001
0000
0010
0100
1000
0000
,  // measure 55
0000
0000
0000
0000
,  // measure 56
1001
0000
1000
0000
0000
0001
0100
0000
,  // measure 57
0002
0000
1003
0000
0000
0100
0010
0000
,  // measure 58
0200
0000
1300
0000
0000
0001
1000
0000
,  // measure 59
0020
0000
0030
0200
0000
0002
0303
0000
,  // measure 60
0000
0000
0001
0000
0010
0100
1000
0000
,  // measure 61
0002
0000
1003
0000
0010
0100
0001
0000
,  // measure 62
2000
0000
3100
0000
0010
0100
1000
0000
,  // measure 63
1100
0000
0000
0000
;

//---------------dance-single - ----------------
#NOTES:
     dance-single:
     X-Scale 12:
     Easy:
     8:
     0.562148,0.623436,0.442401,0.023284,0.034926,338.000000,300.000000,38.000000,2.000000,0.000000,0.000000,0.562148,0.623436,0.442401,0.023284,0.034926,338.000000,300.000000,38.000000,2.000000,0.000000,0.000000:
// measure 0
0000
0000
0000
0000
,  // measure 1
0000
0000
0000
0000
,  // measure 2
0000
0000
0000
0000
,  // measure 3
0000
0000
0000
0000
,  // measure 4
1000
0010
0000
0100
0000
0000
0001
0000
1000
0000
1001
0000
0001
0000
0000
0000
,  // measure 5
0011
0000
1000
0000
0000
0110
0001
0000
,  // measure 6
0011
0000
0100
0000
1000
1010
0001
0000
,  // measure 7
1001
0000
0000
0000
,  // measure 8
1000
0010
0100
0001
,  // measure 9
1000
0100
0010
0001
,  // measure 10
0100
0010
1000
0001
,  // measure 11
0010
0100
1000
0002
,  // measure 12
1003
0100
0010
0100
1000
0001
1000
0000
,  // measure 13
0001
0100
0010
0100
0001
1000
0001
0000
,  // measure 14
1000
0010
0100
0001
0010
0100
1000
0001
,  // measure 15
2000
0000
0000
0000
,  // measure 16
3001
0100
1000
0000
0100
0001
1000
0000
,  // measure 17
0001
0010
1000
0000
0010
0001
1000
0000
,  // measure 18
0001
0100
0010
0000
1000
0100
0010
0000
,  // measure 19
0001
1000
0001
1001
,  // measure 20
1100
0000
0010
0000
0001
0100
0010
0000
,  // measure 21
1000
0100
0001
0000
0100
1000
0001
0000
,  // measure 22
1000
0010
0001
0000
0010
1000
0001
0000
,  // measure 23
0000
0000
0000
0000
,  // measure 24
1001
0000
0001
0000
0100
0001
0100
0000
,  // measure 25
0011
0000
0100
0000
1000
0100
1000
0000
,  // measure 26
1010
0000
0010
0000
0100
0001
1000
0000
,  // measure 27
0001
1001
1001
1000
,  // measure 28
1001
0000
0001
0000
1000
0010
0001
0000
,  // measure 29
0010
0000
1000
0000
0001
0010
1000
0000
,  // measure 30
0010
0001
0100
0000
0010
1000
0100
0000
,  // measure 31
0110
0000
0000
0000
,  // measure 32
0011
0001
1000
0010
,  // measure 33
0110
0100
0001
1000
,  // measure 34
1100
0100
0010
0001
,  // measure 35
0101
0000
0101
0000
0100
0001
1000
0000
,  // measure 36
0100
0010
0001
0000
0100
0010
1000
0000
,  // measure 37
0001
0010
0100
0000
1000
0010
0100
0000
,  // measure 38
0001
0100
0001
0100
0001
1000
0001
1000
,  // measure 39
1001
0000
0000
0000
,  // measure 40
0001
0010
0100
1000
0001
0010
0100
1000
,  // measure 41
0001
0000
0100
0000
1000
0100
0001
0000
,  // measure 42
1000
0010
0100
0001
1000
0010
0100
0001
,  // measure 43
1000
0100
0001
0100
1000
0000
0001
0000
,  // measure 44
1000
0010
0100
0001
1000
0010
0100
0001
,  // measure 45
1000
0000
0010
0000
0001
0010
1000
0000
,  // measure 46
0001
0010
0100
1000
0001
0010
0100
1000
,  // measure 47
0001
0000
0000
0000
,  // measure 48
1010
0000
1000
0000
0010
0100
0001
0000
,  // measure 49
0011
0000
0010
0000
0001
0010
0100
1000
,  // measure 50
1010
0000
0010
0000
0100
0001
1000
0000
,  // measure 51
0001
1000
1001
0000
1001
0000
0001
0000
,  // measure 52
1000
0100
1000
0001
0100
0001
1000
0000
,  // measure 53
0010
0100
0010
0000
1000
0100
0010
0001
,  // measure 54
1000
0100
1000
0001
0100
0001
1000
0001
,  // measure 55
0000
0000
0000
0000
,  // measure 56
1000
0010
0000
0100
0000
0000
0001
0000
1000
0000
1001
0000
0001
0000
0000
0000
,  // measure 57
0011
0000
1000
0000
0000
0110
0001
0000
,  // measure 58
0011
0000
0100
0000
1000
1010
0001
0000
,  // measure 59
1001
0001
1000
0000
0100
1000
0001
0000
,  // measure 60
1000
0100
0000
0010
0000
0000
0001
0000
1000
0000
1001
0000
0001
0000
0000
0000
,  // measure 61
0101
0000
1000
0000
0000
0110
0001
0000
,  // measure 62
0101
0000
0010
0000
1000
1100
0001
0000
,  // measure 63
1001
0000
0000
0000
;

//---------------dance-single - ----------------
#NOTES:
     dance-single:
     X-Scale 15:
     Medium:
     10:
     0.761727,0.990162,0.488969,0.314337,0.430759,458.000000,416.000000,42.000000,27.000000,0.000000,0.000000,0.761727,0.990162,0.488969,0.314337,0.430759,458.000000,416.000000,42.000000,27.000000,0.000000,0.000000:
// measure 0
0000
0000
0000
0000
,  // measure 1
0000
0000
0000
0000
,  // measure 2
0000
0000
0000
0000
,  // measure 3
0000
0000
0000
0000
,  // measure 4
0001
1000
0000
0010
0000
0000
0100
0000
0001
0000
0200
0000
0310
0000
0000
0000
,  // measure 5
1001
0000
0000
0000
0001
1000
0001
1000
0000
0000
2100
0000
3001
0000
0000
0000
,  // measure 6
0101
0000
0000
0000
1000
0000
0001
0000
0000
0001
0000
0000
1001
0000
0000
0000
,  // measure 7
0110
0000
0000
0000
,  // measure 8
0012
0100
2003
0010
,  // measure 9
3002
0010
0203
1000
,  // measure 10
0302
0010
2003
0010
,  // measure 11
3200
0000
0001
0000
1300
0000
2200
3300
,  // measure 12
1000
0010
0001
0000
1000
0100
0001
0000
,  // measure 13
1000
0001
0100
0000
0010
0100
0001
0000
,  // measure 14
1000
0000
0001
0000
1000
0000
0001
0000
1000
0001
1000
0001
1000
0001
1000
0001
,  // measure 15
1000
0000
0000
0000
,  // measure 16
0001
0100
1000
0100
0001
0010
0100
1000
,  // measure 17
0001
0000
0100
0000
1000
0000
0100
0000
0001
0000
0010
0000
0100
1000
0001
0000
,  // measure 18
1000
0100
0001
0100
1000
0010
0100
0001
,  // measure 19
1000
0100
1000
0000
0001
0100
0001
0000
1000
0001
1000
0000
1010
0000
0000
0000
,  // measure 20
1001
0000
0000
0000
0001
0010
0001
0000
0010
0000
0100
0000
1000
0010
1000
0000
,  // measure 21
0001
0000
0010
0000
1000
0000
0010
0000
0001
0000
1000
0000
0010
0100
0001
0000
,  // measure 22
1000
0000
0010
0000
0001
0000
0010
0000
1000
0000
0001
0000
0010
0100
1000
0001
,  // measure 23
1000
0000
0000
0000
,  // measure 24
1100
0000
0000
0000
0100
0000
0100
0000
0100
1000
0001
0000
0100
0001
0000
0000
,  // measure 25
0101
0000
0000
0000
1000
0000
1000
0000
1000
0001
0100
0000
0001
0010
0000
0000
,  // measure 26
1100
0000
0000
0000
0001
0000
0001
0000
0001
1000
0100
0000
1100
0000
0000
1000
,  // measure 27
0001
1000
0000
0000
1001
0000
0001
0000
0110
0000
1000
0000
0002
0000
0000
0000
,  // measure 28
1003
0000
0100
0000
0001
0000
0100
0000
1000
0000
0010
0000
0100
0001
0100
0000
,  // measure 29
0001
0000
0100
0000
1000
0000
0100
0000
0001
0000
0010
0000
0100
1000
0100
0000
,  // measure 30
0010
0000
0001
0000
1000
0000
0010
0000
0100
0001
1000
0000
0100
1000
0001
0000
,  // measure 31
1001
0000
0000
0000
,  // measure 32
0011
1000
0001
0100
,  // measure 33
1010
0001
1000
0100
,  // measure 34
0011
1000
0001
0010
,  // measure 35
0022
0033
0022
0033
1001
0000
0000
0000
,  // measure 36
1000
0000
0100
0000
0010
0100
0010
0000
0001
0000
1000
0000
0010
1000
0010
0000
,  // measure 37
0100
0000
0001
0000
1000
0001
1000
0000
0010
0000
0100
0000
0001
0100
0001
0000
,  // measure 38
1000
0001
1000
0001
1000
0001
1000
0001
0010
0100
0010
0100
0010
0100
0010
0100
,  // measure 39
0010
0000
0000
0000
,  // measure 40
1001
0000
0100
0000
1000
0001
1000
0000
0010
0000
0100
0000
0001
1000
0001
0000
,  // measure 41
0010
0000
1000
0000
0010
0000
0001
0000
1000
0010
0100
0000
0010
0100
0001
1000
,  // measure 42
0001
0000
0100
0000
0001
1000
0001
0000
0010
0000
0100
0000
1000
0001
1000
0000
,  // measure 43
0001
0000
0010
0000
1000
0000
0010
0000
0001
0010
0100
0000
1000
0000
0001
0000
,  // measure 44
1000
0000
0010
0000
0100
1000
0100
0000
0010
0000
1000
0000
0001
0010
0001
0000
,  // measure 45
1000
0000
0100
0000
0001
0000
1000
0000
0010
0001
1000
0000
0010
1000
0010
0100
,  // measure 46
0001
0000
0010
0000
0100
0001
0100
0000
0010
0000
0001
0000
1000
0001
1000
0000
,  // measure 47
0000
0000
0000
0000
,  // measure 48
0101
0000
0001
0000
1000
0000
0100
0000
0010
0001
0010
0000
0001
0000
1000
0000
,  // measure 49
1001
0001
0100
0010
0100
0001
0010
0100
,  // measure 50
1100
0000
1000
0000
0001
0000
0100
0000
0010
1000
0010
0000
1000
0000
0001
0000
,  // measure 51
0010
0001
0011
0100
1100
0001
2000
3002
,  // measure 52
1003
0100
1000
0000
0001
0000
1000
0010
1000
0000
1001
0000
0001
0000
0010
0000
,  // measure 53
0001
0010
0100
0000
1000
0000
0000
0000
0010
0100
0001
0000
0010
0000
0100
0000
,  // measure 54
1000
0000
0001
1000
0001
0000
1000
0000
0001
1000
0001
0000
1000
0010
0100
0001
,  // measure 55
1000
0000
0000
0000
,  // measure 56
0011
0000
0001
0000
1000
0200
0310
0000
,  // measure 57
1001
0000
0000
0000
0001
1000
0001
1000
0000
0000
2100
0000
3001
0000
0000
0000
,  // measure 58
0101
0000
0000
0000
1000
0000
0001
0000
0000
0001
0000
0000
1001
0000
0000
0000
,  // measure 59
2200
3300
0001
2002
3003
0012
1003
0000
,  // measure 60
0001
1000
0000
0010
0000
0000
0100
0000
0001
0000
0200
0000
0310
0000
0000
0000
,  // measure 61
1001
0000
0000
0000
0001
1000
0001
1000
0000
0000
2100
0000
3001
0000
0000
0000
,  // measure 62
0101
0000
0000
0000
1000
0000
0001
0000
0000
0001
0000
0000
1001
0000
0000
0000
,  // measure 63
0110
0000
0000
0000
;

//---------------dance-single - ----------------
#NOTES:
     dance-single:
     X-Scale 18:
     Hard:
     13:
     1.041138,1.210199,0.384190,0.279411,1.397055,626.000000,593.000000,33.000000,24.000000,0.000000,1.000000,1.041138,1.210199,0.384190,0.279411,1.397055,626.000000,593.000000,33.000000,24.000000,0.000000,1.000000:
// measure 0
0000
0000
0000
0000
,  // measure 1
0000
0000
0000
0000
,  // measure 2
0000
0000
0000
0000
,  // measure 3
0000
0000
0000
0000
,  // measure 4
0001
0100
0000
0001
0000
0000
1000
0000
0000
0000
2100
0000
0001
0000
3000
0000
,  // measure 5
2002
0000
3003
0000
0001
1000
0001
1000
0000
0000
1100
0000
0100
0010
0000
0000
,  // measure 6
0001
0100
0010
1000
0000
0001
0100
0000
0001
0100
0102
0000
1000
0000
0003
0000
,  // measure 7
1001
0000
0000
0000
,  // measure 8
1100
0000
0010
0000
0001
0000
1000
0010
,  // measure 9
1010
0000
0100
0000
0001
0000
0010
0100
,  // measure 10
0110
1000
0010
0000
0100
0001
0010
0100
,  // measure 11
1000
0010
1000
0000
0001
0010
0001
0000
1000
0100
0010
0001
2000
0000
0000
0000
,  // measure 12
3001
0010
0000
0001
1000
0010
0000
1000
0001
0100
0000
0001
1000
0100
0000
0010
,  // measure 13
0001
0100
0000
0010
1000
0100
0000
1000
0010
0100
0000
0001
0010
0100
1000
0001
,  // measure 14
1000
0010
1000
0001
0100
0001
0010
0001
0010
0100
0010
0100
1000
0001
1000
0001
,  // measure 15
1000
0000
0000
0000
,  // measure 16
0001
1000
0100
0000
0010
0001
1000
0000
0010
0100
1000
0000
0100
0010
1000
0001
,  // measure 17
0010
0100
0001
0000
0100
1000
0001
0000
0100
0001
1000
0100
0010
0001
0000
1000
,  // measure 18
0010
0100
1000
0000
0100
0010
1000
0000
0100
0010
0001
0000
0100
0010
1000
0001
,  // measure 19
0010
0100
0001
0000
0100
1000
0001
0000
0100
0001
1000
0001
0020
0000
0000
0000
,  // measure 20
1031
0000
0000
0000
0010
1000
0001
0000
0010
0100
0001
0000
0100
0010
0001
1000
,  // measure 21
0010
0100
1000
0000
0100
0001
1000
0000
0100
1000
0001
0100
0010
1000
0000
0001
,  // measure 22
0010
0100
0001
0000
0100
0010
0001
0000
0100
0010
1000
0000
0100
0010
0001
1000
,  // measure 23
0001
0000
0000
0000
1000
0000
0000
0000
0001
0000
0000
0000
0000
1000
0000
0000
0001
0000
0000
0000
0000
0000
0000
0000
,  // measure 24
1001
0000
1000
0000
0001
0010
0001
0100
0000
0010
1000
0000
0010
0100
0001
0000
,  // measure 25
0011
0000
0010
0000
0100
1000
0100
0010
0000
0001
0100
0000
0010
1000
0001
0000
,  // measure 26
2002
0000
3003
0000
1000
0010
0100
0001
1000
0100
0010
0001
1000
0100
1000
0001
,  // measure 27
1000
0010
0000
0100
0001
0010
0100
0000
1000
0010
0100
0000
0002
0000
0003
0000
,  // measure 28
1000
0001
0010
0000
0100
1000
0001
0000
0100
0010
0001
0000
0010
0100
0001
1000
,  // measure 29
0100
0010
1000
0000
0010
0001
1000
0000
0010
1000
0001
0010
0100
1000
0000
0001
,  // measure 30
0100
0010
0001
0000
0010
0100
0001
0000
0010
0100
1000
0000
0010
0100
0001
1000
,  // measure 31
0001
0000
0000
0000
,  // measure 32
0011
1000
0001
0100
,  // measure 33
1010
0001
1000
0100
,  // measure 34
0011
1000
0001
0010
,  // measure 35
0022
0033
0022
0033
1001
0000
0000
0000
,  // measure 36
1000
0010
0100
0001
1000
0100
0010
0100
1000
0001
0100
0010
1000
0001
0010
0001
,  // measure 37
1000
0010
0100
0001
1000
0100
0010
0100
1000
0001
0100
0010
1000
0100
0010
0001
,  // measure 38
0100
0010
0100
0010
1000
0010
1000
0010
1000
0001
1000
0001
0010
0001
0010
0001
,  // measure 39
1000
0000
0000
0000
,  // measure 40
0001
0100
0010
1000
0100
0010
0100
0010
0001
0100
0010
1000
0100
0010
1000
0010
,  // measure 41
0001
0000
1000
0010
0001
0010
1000
0001
0100
0010
0100
0010
1000
0001
1000
0001
,  // measure 42
1000
0100
0010
0001
0100
0010
0100
0010
1000
0100
0010
0001
0100
0010
0100
0010
,  // measure 43
1000
0100
1000
0100
0010
0001
0010
0001
0100
0010
1000
0001
1000
0000
0000
0000
,  // measure 44
0001
0010
0100
1000
0010
0100
0010
0100
0001
0010
0100
1000
0010
0100
1000
0100
,  // measure 45
0001
0000
1000
0100
0001
0100
1000
0001
0010
0100
0010
0100
1000
0001
1000
0001
,  // measure 46
1000
0010
0100
0001
0010
0100
0010
0100
1000
0010
0100
0001
0010
0100
0010
0100
,  // measure 47
1000
0000
0000
0000
0001
0000
0000
0000
1000
0000
0000
0000
0000
0001
0000
0000
1000
0000
0000
0000
0000
0000
0000
0000
,  // measure 48
2001
0000
3001
0000
1000
0010
1000
0001
0010
0100
1000
0001
1000
0001
0100
0000
,  // measure 49
0102
0000
1003
0100
0010
0100
1000
0010
0100
0010
1000
0001
0010
0100
1000
0000
,  // measure 50
2010
0000
3001
0000
0010
0100
1000
0001
0100
0010
1000
0100
1000
0001
0100
0001
,  // measure 51
0010
0001
0010
0001
0100
0010
1000
0000
0100
0010
0001
0000
2000
0000
3002
0000
,  // measure 52
1003
0010
0100
0001
1000
0000
0001
0010
0100
1000
0001
0000
1000
0000
0001
0000
,  // measure 53
0101
0000
0100
0010
1000
0000
0100
0000
0010
0001
1000
0000
1100
0000
0001
0000
,  // measure 54
0011
0000
0010
0001
1000
0000
0010
0000
0010
1000
0001
0000
1000
0100
0010
0001
,  // measure 55
1000
0000
0000
0000
,  // measure 56
0001
1000
0000
0010
0000
0000
0100
0000
0000
0000
0102
0000
1000
0000
0003
0000
,  // measure 57
1001
0000
1000
0000
0010
1000
0001
0010
0000
0000
0110
0000
0010
0001
0000
0000
,  // measure 58
0011
1000
0000
0001
0000
0000
0100
0010
0000
0100
0010
0000
0100
0000
0001
1000
,  // measure 59
0001
0010
1000
0010
0001
2000
3001
0000
,  // measure 60
1000
0010
0000
1000
0000
0000
0001
0000
0000
0000
0012
0000
1000
0000
0003
0000
,  // measure 61
2002
0000
3003
0000
1000
0001
1000
0001
0000
0000
0011
0000
0010
0100
0000
0000
,  // measure 62
1000
0010
0100
0001
0000
1000
0010
0000
1000
0010
2010
0000
0001
0000
3000
0000
,  // measure 63
1001
0000
0000
0000
;
