#TITLE:claws;
#SUBTITLE:;
#ARTIST:Charli XCX;
#TITLETRANSLIT:;
#SUBTITLETRANSLIT:;
#ARTISTTRANSLIT:;
#GENRE:Hyper Pop;
#CREDIT:;
#BANNER:claws-bn.png;
#BACKGROUND:claws-bg.png;
#LYRICSPATH:;
#CDTITLE:cdtitle.png;
#MUSIC:claws.ogg;
#OFFSET:-0.002000;
#SAMPLESTART:42.659000;
#SAMPLELENGTH:14.231000;
#SELECTABLE:YES;
#DISPLAYBPM:68.000000:135.000000;
#BPMS:0.000000=67.500000
,16.000000=135.000000
,80.000000=67.500000
,96.000000=135.000000
,123.000000=270.000000
,124.000000=135.000000
;
#STOPS:117.500000=0.889000,
123.000000=0.056000,
123.250000=0.056000,
123.500000=0.056000,
123.750000=0.056000
;
#BGCHANGES:;
#KEYSOUNDS:;
#ATTACKS:;

//---------------dance-single - ----------------
#NOTES:
     dance-single:
     X-Scale 14:
     Hard:
     9:
     0.595881,0.939313,0.189599,0.322318,0.488216,440.000000,420.000000,20.000000,34.000000,0.000000,0.000000,0.595881,0.939313,0.189599,0.322318,0.488216,440.000000,420.000000,20.000000,34.000000,0.000000,0.000000:
// measure 0
0000
0000
0000
0000
,  // measure 1
0000
0000
0000
0000
,  // measure 2
2000
3200
2300
3200
0300
0000
2000
3200
0300
0000
0010
0000
0100
0000
1000
0001
,  // measure 3
0100
0000
0000
0000
0010
0000
0100
0000
0001
0000
0000
0000
0010
0000
0200
0000
0000
0000
0000
0000
0300
0000
0100
0000
0040
0000
0000
0000
0004
0003
0004
0033
,  // measure 4
0011
0010
0100
0000
1010
1000
0001
0100
,  // measure 5
0010
0100
0001
0000
0010
0100
1000
0000
,  // measure 6
0001
0100
1000
0001
0010
1000
0001
0000
,  // measure 7
1000
0010
0100
0010
1000
0001
1000
0000
,  // measure 8
0110
0010
1000
0000
0001
0010
0100
0010
,  // measure 9
0001
1000
0001
0000
1000
0010
0001
0100
,  // measure 10
1000
0000
0001
1000
0010
0000
0100
0010
,  // measure 11
1000
0000
1100
0000
0100
0010
0001
0000
,  // measure 12
1001
0000
0000
1000
0000
0000
0001
1000
0001
1000
0000
0000
0001
0000
0000
0100
0000
0000
0001
0000
0000
1000
0000
0000
,  // measure 13
0100
0000
0010
0000
0001
0100
0001
0000
1000
0000
0100
0000
0001
0000
1000
0000
,  // measure 14
0010
0000
0000
0001
0000
0000
0100
0001
0100
0001
0000
0000
0010
0000
0000
0001
0000
0000
1000
0000
0000
0100
0000
0000
,  // measure 15
0001
0000
0100
0000
1000
0001
1000
0000
0010
0000
0100
0000
0010
0000
0000
0000
,  // measure 16
1001
0000
0000
0001
0000
0000
0010
0100
0010
0100
0000
0000
1010
0000
0000
1000
0000
0000
0001
0000
0000
0010
0000
0000
,  // measure 17
0001
0000
1000
0000
0100
0010
0100
0000
1000
0000
0010
0000
0001
0000
0100
0000
,  // measure 18
1000
0000
0000
0001
0000
0000
0100
0010
0100
0010
0000
0000
0101
0000
0000
0001
0000
0000
1000
0000
0000
0001
0000
0000
,  // measure 19
0010
0000
1000
0000
0010
0100
1000
0000
0100
0000
0010
0000
0100
0000
0000
0000
,  // measure 20
1200
0000
0000
0000
0001
0000
0000
0000
0010
0000
0300
0000
1010
0010
1000
0001
,  // measure 21
0010
0000
0100
0010
0001
0000
1000
0001
0100
0000
0010
0100
0001
0010
1000
0010
,  // measure 22
0001
0000
0000
0100
0000
0000
0010
0000
0000
0100
0000
0000
0001
0100
0001
0100
0000
0000
0010
0000
0000
0001
0000
0000
0010
0000
0000
1000
0000
0000
0100
0000
0000
1000
0000
0000
1001
0000
0000
1000
0000
0000
0100
0000
0000
0010
0000
0000
,  // measure 23
0001
0000
0000
0000
0000
0000
0000
0000
0000
0000
0000
0000
0010
0000
0000
0000
0000
0000
0000
0000
0000
0000
0000
0000
0100
0000
0000
0000
0000
0000
0000
0000
0000
0000
0000
0000
1000
0000
0000
0000
0000
0000
0000
0000
0000
0000
0000
0000
0001
0000
0000
0000
1000
0000
0000
0000
0001
0000
0000
0000
1000
0000
0000
0000
0000
0000
0000
0000
0000
0000
0000
0000
0010
0000
0000
0000
0000
0000
0000
0000
0000
0000
0000
0000
0001
0000
0000
0000
0000
0000
0000
0000
0000
0000
0000
0000
1000
0000
0000
0000
0000
0000
0000
0000
0000
0000
0000
0000
0100
0000
0000
0000
0000
0000
0000
0000
0000
0000
0000
0000
0010
0000
0000
0000
0000
0000
0000
0000
0000
0000
0000
0000
0001
0000
0000
0000
0000
0000
0000
0000
0000
0000
0000
0000
0020
0000
0000
0000
0000
0000
0030
0000
0000
0000
0000
0000
0200
0000
0000
0000
0000
0000
0300
0000
0000
0000
0000
0000
0020
0000
0000
0000
0000
0000
0030
0000
0000
0000
0000
0000
0200
0000
0000
0000
0000
0000
0300
0000
0000
0000
0000
0000
,  // measure 24
0110
0000
0000
0100
0000
0000
1000
0100
1000
0100
0000
0000
1000
0000
0000
0010
0000
0000
0001
0000
0000
0010
0000
0000
,  // measure 25
1000
0000
0001
0000
1000
0100
0010
0000
0001
0000
0100
0000
0010
0000
0100
0000
,  // measure 26
0001
0000
0000
1000
0000
0000
0100
0010
0100
0010
0000
0000
0001
0000
0000
0010
0000
0000
1000
0000
0000
0010
0000
0000
,  // measure 27
0100
0000
1000
0000
0001
0100
0001
0000
1000
0000
0010
0000
1000
0000
0001
0000
,  // measure 28
0101
0000
0000
0100
0000
0000
0001
1000
0001
1000
0000
0000
0010
0000
0000
0100
0000
0000
0110
0000
0000
0010
0000
0000
,  // measure 29
0100
0000
0000
0000
0000
0000
0001
0000
0000
0000
0000
0000
1000
0000
0000
0100
0000
0000
0010
0000
0000
0000
0000
0000
0011
0000
0000
0000
0000
0000
0001
0000
0000
0000
0000
0000
0001
0000
1000
0000
0001
0000
1000
0000
0000
0000
0000
0000
,  // measure 30
1001
0000
1000
0000
0010
0000
0001
0000
0010
0000
1000
0000
0100
0010
0100
0010
,  // measure 31
0200
0000
0000
0000
1300
0000
0000
0000
1001
0000
1000
0000
0001
0100
0000
0010
,  // measure 32
0100
0000
0001
0010
0000
0100
1000
0000
0001
1000
0001
0000
0100
0010
0000
1000
,  // measure 33
0001
0000
0010
0100
0000
0010
0001
0000
1000
0010
1000
0000
0001
0010
0000
0100
,  // measure 34
1000
0000
0100
0010
0000
0001
0010
0000
0100
0010
0100
0000
1000
0001
0000
0100
,  // measure 35
0010
0000
0100
1000
0000
0100
0001
0000
1000
0001
1000
0000
0100
0010
0000
0001
,  // measure 36
0100
0000
0010
0100
0000
0001
1000
0000
0100
0010
0001
0000
1000
0010
0000
0001
,  // measure 37
0010
0000
0100
0010
0000
1000
0001
0000
0100
0001
1000
0000
0010
0100
0000
0010
,  // measure 38
0001
0000
0010
1000
0000
0100
0010
0000
0001
0010
0100
0000
1000
0010
0000
0100
,  // measure 39
0001
0000
0010
0100
0000
0010
0001
0000
0011
0000
0001
0000
0000
1000
0000
0000
,  // measure 40
1000
0100
0001
1000
0010
0001
0000
0200
,  // measure 41
0000
0320
0000
2030
0001
3002
0000
0003
,  // measure 42
1000
0100
0001
1000
0010
0002
0000
0023
,  // measure 43
0000
0000
0230
0000
2300
0000
3000
0000
1100
0000
0100
0000
0000
1000
0000
0000
,  // measure 44
1000
0100
0001
1000
0010
0001
0100
0002
,  // measure 45
0000
0023
0000
0230
1000
2300
0000
3000
,  // measure 46
1000
0000
0100
0000
0001
0000
1000
0000
0010
0000
0002
0000
1000
0000
0000
0100
,  // measure 47
0000
0000
0010
0000
0000
0100
0003
0000
0101
0000
0100
0000
0002
0000
0000
0000
,  // measure 48
0000
0000
0040
0003
0000
0000
0000
0000
,  // measure 49
0400
0000
0000
0300
,  // measure 50
0032
0003
0002
0003
0002
0003
0002
0003
0002
0003
0002
0003
0002
0003
0000
0000
;

//---------------dance-single - ----------------
#NOTES:
     dance-single:
     X-Scale 11:
     Medium:
     8:
     0.464517,0.649494,0.218038,0.227518,0.194339,343.000000,320.000000,23.000000,24.000000,0.000000,0.000000,0.464517,0.649494,0.218038,0.227518,0.194339,343.000000,320.000000,23.000000,24.000000,0.000000,0.000000:
// measure 0
0000
0000
0000
0000
,  // measure 1
0000
0000
0000
0000
,  // measure 2
0001
0000
0010
0100
1000
0000
0001
1000
0010
0000
0100
0000
0010
0000
1000
0100
,  // measure 3
0010
0000
0100
0000
1000
0000
0001
0200
0000
0000
0300
0200
0302
0000
0000
0003
,  // measure 4
1001
1000
0010
0000
0110
0000
1001
0000
,  // measure 5
1100
1000
0001
0000
0011
0010
0100
0000
,  // measure 6
1010
0000
1000
0001
1001
0000
0001
0000
,  // measure 7
0010
0100
1000
0000
0002
0000
0100
0000
,  // measure 8
1003
0001
0100
0000
0101
0001
1000
0001
,  // measure 9
0010
0100
1000
0000
1100
1000
0100
0010
,  // measure 10
0011
0000
0001
0100
0101
0000
1000
0100
,  // measure 11
1000
0001
0020
0100
,  // measure 12
0031
0000
1000
0010
0001
0010
1000
0010
,  // measure 13
0001
0010
1000
0010
0001
0010
0100
0001
,  // measure 14
1000
0100
0010
0001
1000
0001
0010
0001
,  // measure 15
1000
0001
0010
0001
2000
0000
0100
0000
,  // measure 16
3001
1000
0100
0001
0100
1000
0100
0001
,  // measure 17
0100
1000
0100
0001
0100
0010
0001
1000
,  // measure 18
0010
0100
0001
0010
1000
0010
0001
0010
,  // measure 19
1000
0010
0001
0010
1000
0010
0100
1000
,  // measure 20
1001
0000
0001
0000
1000
0000
0010
0000
1000
0000
0001
0000
1000
0000
0100
0010
,  // measure 21
0001
0000
1000
0000
1100
0000
0100
1000
0001
0000
0100
0000
0120
0000
0001
0000
,  // measure 22
1030
0010
0100
0010
1000
0000
0001
0010
0100
0010
0001
1000
0001
0000
0100
0010
,  // measure 23
1000
0000
0001
0010
0100
0000
0010
0001
2000
0000
0000
0000
3010
0000
1000
0000
,  // measure 24
1001
0000
0001
0010
1000
0010
0001
0010
,  // measure 25
1000
0010
0001
0010
1000
0100
0010
0100
,  // measure 26
0001
0010
0100
1000
0001
1000
0100
1000
,  // measure 27
0001
1000
0100
1000
0002
0000
0010
0000
,  // measure 28
0103
0000
0002
0000
1003
0100
0010
0100
,  // measure 29
1000
0001
1001
0000
0110
0000
0100
0010
,  // measure 30
0101
0000
0001
1000
0100
1000
0002
0000
,  // measure 31
0010
1003
0120
0001
,  // measure 32
0100
0000
0000
0000
1000
0000
0000
0000
0130
0000
0010
0000
0000
1000
0000
0000
,  // measure 33
0001
0000
0000
0010
0000
0000
0100
0000
1000
0000
0001
0000
0000
1000
0000
0000
,  // measure 34
0100
0000
0000
0010
0000
0000
0001
0000
0100
0000
0001
0000
0000
0010
0000
0000
,  // measure 35
1000
0000
0000
0100
0000
0000
0001
0000
1000
0000
0001
0000
0000
0100
0000
0000
,  // measure 36
0010
0000
0000
0100
0000
0000
0001
0000
1000
0000
0100
0000
0000
0001
0000
0000
,  // measure 37
0100
0000
0000
0010
0000
0000
0001
0000
0100
0000
0001
0000
0000
1000
0000
0000
,  // measure 38
0010
0000
0000
0001
0000
0000
0010
0000
0100
0000
0010
0000
0000
1000
0000
0000
,  // measure 39
0001
0000
0000
0100
0000
0000
0010
0000
0101
0000
0001
0000
0100
0010
0000
0100
,  // measure 40
0001
1000
0010
0100
0001
1000
0000
0200
,  // measure 41
0000
0000
0320
0000
0000
0000
0032
0000
0000
0000
2003
0000
0000
0010
0000
0000
,  // measure 42
0100
0000
0000
0001
0000
0000
3010
0000
1010
0000
2000
0000
0000
0000
3200
0000
,  // measure 43
0000
0000
0301
0000
0200
0000
0000
0000
1300
0000
0001
0000
0100
0010
0000
1000
,  // measure 44
0001
0100
0010
0100
0001
0010
0100
2000
,  // measure 45
0000
0000
3200
0000
0000
0000
0320
0000
0000
0000
0032
0000
0000
1000
0000
0000
,  // measure 46
0010
0000
0000
0100
0000
0000
1003
0000
1001
0000
0001
0000
0100
0010
0000
1000
,  // measure 47
0100
0000
0010
0100
0000
1000
0001
0000
2001
0000
0000
0000
0000
0000
0000
0000
,  // measure 48
0000
0040
0000
0000
,  // measure 49
0000
0000
0000
0000
0000
0000
0000
0030
,  // measure 50
0010
0001
0010
3001
;

//---------------dance-single - ----------------
#NOTES:
     dance-single:
     X-Scale 6:
     Easy:
     4:
     0.297941,0.366873,0.161159,0.180119,0.000000,220.000000,203.000000,17.000000,19.000000,0.000000,0.000000,0.297941,0.366873,0.161159,0.180119,0.000000,220.000000,203.000000,17.000000,19.000000,0.000000,0.000000:
// measure 0
0000
0000
0000
0000
,  // measure 1
0000
0000
0000
0000
,  // measure 2
1000
0001
0100
0010
1000
0001
0010
0100
,  // measure 3
1000
0010
0100
0020
0000
0030
1010
0000
,  // measure 4
1001
0000
0001
1001
,  // measure 5
0000
0000
1000
0000
1100
0100
0000
0000
,  // measure 6
0010
0000
0000
0001
0011
0000
1000
0000
,  // measure 7
0000
0010
2000
0100
,  // measure 8
3001
0000
0000
0000
0101
0000
0100
0010
,  // measure 9
0000
0000
1000
0000
1010
0010
0000
0000
,  // measure 10
0100
0000
0000
0001
0101
0000
1000
0000
,  // measure 11
0000
1100
0200
0010
,  // measure 12
1300
0000
0001
0010
0100
0000
0010
0100
,  // measure 13
1000
0000
0001
0010
0100
0010
0001
1000
,  // measure 14
0010
0100
0001
0000
1000
0001
0100
0000
,  // measure 15
0010
0100
0001
0000
2000
0000
0010
0000
,  // measure 16
3001
0000
0010
0100
1000
0000
0001
1000
,  // measure 17
0010
0000
0100
0010
1000
0100
0001
0100
,  // measure 18
0010
0001
0100
0000
0010
0100
0001
0000
,  // measure 19
0010
0100
1000
0000
0002
0000
0010
0000
,  // measure 20
2003
0000
0100
0000
0001
3000
1010
0000
,  // measure 21
0001
0000
0010
0000
0100
0000
2100
0010
,  // measure 22
3002
0000
0010
0000
0100
0003
0101
0000
,  // measure 23
0001
0000
1000
0000
0010
1000
0100
0010
,  // measure 24
0011
0000
0001
0000
0100
0000
0001
1000
,  // measure 25
0010
0000
0100
0000
0001
0010
0100
1000
,  // measure 26
0010
0100
0001
0000
1000
0000
0001
0000
,  // measure 27
1000
0100
0010
0000
0100
1000
0001
0100
,  // measure 28
0001
1000
0020
0000
0130
0010
0100
0000
,  // measure 29
0001
0000
1000
0000
0110
0000
0000
1000
,  // measure 30
1001
0000
0001
0000
0010
0100
2000
0000
,  // measure 31
0100
3001
1001
0000
,  // measure 32
0100
0000
0010
0000
,  // measure 33
0001
0000
1000
0000
,  // measure 34
0100
0000
0010
0000
,  // measure 35
0001
0000
0000
0000
1000
0100
0010
0000
,  // measure 36
0100
0010
0001
0000
1000
0010
0100
0000
,  // measure 37
0010
0100
0001
0000
0010
0100
1000
0000
,  // measure 38
0001
0010
0100
0000
1000
0010
0100
0000
,  // measure 39
0010
0100
0001
0000
0201
0000
0000
0000
,  // measure 40
0000
0000
0000
0000
0320
0000
0000
1000
,  // measure 41
0000
0100
0000
1000
2030
0001
0000
0000
,  // measure 42
0000
0000
0000
0000
3020
0100
0000
0001
,  // measure 43
0000
0100
0100
0000
2030
0000
0000
0000
,  // measure 44
0000
0000
0000
0000
3200
0000
0010
0010
,  // measure 45
0000
0001
0000
0010
0320
0001
0000
0000
,  // measure 46
0000
0000
0032
0000
,  // measure 47
0000
0000
0000
0000
1003
0001
0200
0000
,  // measure 48
0000
0000
0000
0300
0000
0000
0000
0000
;

//---------------dance-single - ----------------
#NOTES:
     dance-single:
     X-Scale 2:
     Beginner:
     2:
     0.112405,0.202634,0.056880,0.000000,0.000000,83.000000,77.000000,6.000000,0.000000,0.000000,0.000000,0.112405,0.202634,0.056880,0.000000,0.000000,83.000000,77.000000,6.000000,0.000000,0.000000,0.000000:
// measure 0
0000
0000
0000
0000
,  // measure 1
0000
0000
0000
0000
,  // measure 2
0001
0010
0100
1000
,  // measure 3
0010
0100
0001
0000
,  // measure 4
1001
0000
1000
0000
,  // measure 5
0000
0000
0100
0000
,  // measure 6
0000
0000
0010
0000
,  // measure 7
0000
0000
0001
0000
,  // measure 8
1001
0000
1000
0000
,  // measure 9
0000
0000
0100
0000
,  // measure 10
0000
0000
0010
0000
,  // measure 11
0000
0000
0001
0000
,  // measure 12
1001
0000
1000
0000
,  // measure 13
0001
0000
1000
0000
,  // measure 14
0010
0000
0100
0000
,  // measure 15
0010
0000
1000
0000
,  // measure 16
0001
0000
0010
0000
,  // measure 17
0001
0000
1000
0000
,  // measure 18
0100
0000
0010
0000
,  // measure 19
0100
0000
1000
0000
,  // measure 20
0001
0000
0010
0000
,  // measure 21
0100
0000
1000
0000
,  // measure 22
0001
0100
0010
1000
,  // measure 23
0100
0010
0001
0000
,  // measure 24
1001
0000
1000
0000
,  // measure 25
0100
0000
1000
0001
,  // measure 26
1000
0000
0010
0000
,  // measure 27
0100
0000
0010
1000
,  // measure 28
0010
0000
0000
1000
,  // measure 29
0000
1000
1001
0000
,  // measure 30
0001
0000
0000
0000
,  // measure 31
1000
0000
1001
0000
,  // measure 32
0000
0000
0100
0000
,  // measure 33
0000
0000
1000
0000
,  // measure 34
0000
0000
0001
0000
,  // measure 35
0000
0000
0100
0000
,  // measure 36
0000
0000
0010
0000
,  // measure 37
0000
0000
0100
0000
,  // measure 38
0000
0000
0001
0000
,  // measure 39
0000
0000
0010
0000
,  // measure 40
0000
0000
0100
0000
,  // measure 41
0000
0000
1000
0000
,  // measure 42
0000
0000
0001
0000
,  // measure 43
0000
0000
1000
0000
,  // measure 44
0000
0000
0010
0000
,  // measure 45
0000
0000
0100
0000
,  // measure 46
0000
0000
0010
0000
,  // measure 47
0000
0000
1000
0000
;
