#TITLE:brighter days;
#SUBTITLE:;
#ARTIST:San Holo ft. Bipolar Sunshine;
#TITLETRANSLIT:;
#SUBTITLETRANSLIT:;
#ARTISTTRANSLIT:;
#GENRE:Lo-fi House;
#CREDIT:;
#BANNER:brighter days-bn.png;
#BACKGROUND:brighter days-bg.png;
#LYRICSPATH:;
#CDTITLE:cdtitle.png;
#MUSIC:brighter days.ogg;
#OFFSET:-0.006000;
#SAMPLESTART:67.505997;
#SAMPLELENGTH:15.000000;
#SELECTABLE:YES;
#BPMS:0.000000=64.000000
,24.000000=128.000000
,56.000000=64.000000
,72.000000=128.000000
,100.000000=64.000000
,102.000000=128.000000
,166.000000=64.000000
;
#STOPS:
;
#BGCHANGES:0.000=brighter days.avi=1.000=1=0=1===CrossFade==,
99999=-nosongbg-=1.000=0=0=0 // don't automatically add -songbackground-
;
#KEYSOUNDS:;
#ATTACKS:;

//---------------dance-single - ----------------
#NOTES:
     dance-single:
     X-Scale 11:
     Hard:
     8:
     0.437354,0.534269,0.158929,0.485153,0.305312,366.000000,347.000000,19.000000,58.000000,0.000000,0.000000,0.437354,0.534269,0.158929,0.485153,0.305312,366.000000,347.000000,19.000000,58.000000,0.000000,0.000000:
// measure 0
0000
0000
0000
0000
,  // measure 1
0000
0000
0000
0000
,  // measure 2
0001
0000
0200
0000
0000
0000
0000
0000
0301
0000
2000
0000
0000
0000
0000
0000
3001
0000
0020
0000
0000
0000
0000
0000
0230
0000
0300
2000
0000
3000
0010
0000
,  // measure 3
0001
0010
1000
0100
0000
1000
0001
2000
0000
0000
0000
0000
0000
0000
0000
0000
,  // measure 4
3001
0000
0020
0000
0000
0000
0000
0000
0130
0000
2000
0000
0000
0000
0000
0000
3100
0000
0000
0020
0000
0000
0000
0000
0031
0000
0000
0001
0000
0000
0100
0000
,  // measure 5
0001
0010
0001
0100
0000
0001
0010
0200
0000
0000
0000
0000
0000
1000
0010
1300
,  // measure 6
1100
0000
0000
0000
1000
0000
0100
0000
0010
0000
0100
0010
0001
0000
1000
0000
,  // measure 7
0001
0000
0000
0000
0100
0000
0010
0000
1000
0000
0001
0100
0001
0000
0010
0000
,  // measure 8
0100
0000
0000
0000
1000
0000
0001
0000
1000
0000
0010
0100
0001
0000
1000
0000
,  // measure 9
0001
0000
0000
0000
0100
0000
0010
0000
1000
0000
0001
0010
0001
0000
1000
0000
,  // measure 10
0100
0000
0000
0000
1000
0000
0001
0000
0010
0000
0100
0010
0001
0000
0100
0000
,  // measure 11
0001
0000
0000
0000
1000
0000
0010
0000
0001
0000
0010
0100
0010
0000
1000
0000
,  // measure 12
0001
0000
0000
0000
1000
0000
0001
0000
0100
0000
0010
1000
0100
0000
1000
0000
,  // measure 13
0001
0000
0000
0000
1000
0000
0100
0000
0010
0000
0001
0100
0001
0000
0010
0000
,  // measure 14
0102
0000
1003
0200
0000
0000
0310
0002
2000
0000
0000
0000
0000
0000
3003
0000
,  // measure 15
0100
0010
0001
0010
2000
0000
3200
0000
0310
0010
0001
1000
0020
0000
0230
0000
,  // measure 16
0302
0000
0013
0200
0000
0000
1300
0002
0020
0000
0000
0000
0000
0000
0033
0000
,  // measure 17
1000
0100
0001
0100
0020
0000
0032
0000
1003
1000
0010
0100
0002
0000
2003
0000
,  // measure 18
3010
0000
1001
0000
0001
0000
0010
0100
,  // measure 19
1000
0000
0011
0000
1000
0000
0010
1000
,  // measure 20
0001
0000
0101
0000
0001
0000
1000
0001
,  // measure 21
0010
0000
0101
0000
0010
0000
0001
1000
,  // measure 22
0001
0010
0001
0010
0100
1000
0100
1000
,  // measure 23
0001
0100
0001
0100
0010
1000
0010
1000
,  // measure 24
0001
1000
0001
1000
0001
1000
0001
1000
0100
0010
0100
0010
0100
0010
0100
0010
,  // measure 25
0000
0000
0001
0000
0010
0000
0100
0000
2000
0000
0000
3000
0002
0000
0000
0003
1001
0000
0000
0000
0000
0000
0000
0000
0001
0000
0000
0000
0200
0000
0000
0000
,  // measure 26
0000
1300
0100
0002
0000
1003
0001
0200
,  // measure 27
0010
0000
0300
0000
0010
0000
0100
0010
0100
0000
0000
0000
0001
0000
0020
0000
,  // measure 28
0000
1030
0010
0002
0000
0013
0100
2000
,  // measure 29
0001
0000
3000
0000
0001
0000
0010
0100
0010
0000
0000
0000
0001
0000
0200
0000
,  // measure 30
0000
1300
0100
0020
0000
0031
0010
2000
,  // measure 31
0001
0000
3000
0000
0001
0000
1000
0100
1000
0000
0000
0000
0001
0000
0020
0000
,  // measure 32
1000
0030
0010
0002
0000
1003
0010
0100
,  // measure 33
0001
0000
0101
0000
1010
0000
1000
0100
,  // measure 34
0001
0100
0010
0001
0100
1000
0100
0001
,  // measure 35
0010
0000
0000
0000
0011
0000
0010
0100
0010
0000
0000
0000
0001
0000
0100
0000
,  // measure 36
0010
0100
0001
1000
0100
1000
0001
0100
,  // measure 37
0010
0000
1000
0000
1000
0000
0001
0100
0001
0000
0000
0000
1000
0000
0001
0000
,  // measure 38
0100
0010
0100
1000
0100
0010
0100
0001
,  // measure 39
0010
0000
0000
0000
1001
0000
0001
0010
0001
0000
0000
0000
0010
0000
0100
0000
,  // measure 40
1000
0001
1000
0100
0010
0011
0000
0001
,  // measure 41
1001
0000
1000
0000
1100
0000
0000
0000
1010
0000
1000
0200
0010
0300
1000
0200
,  // measure 42
0010
0300
1000
0200
0010
0300
0002
0000
1003
0000
0001
0200
0010
0300
0001
0200
,  // measure 43
0010
0300
0001
0200
0010
0300
2000
0000
3001
0000
1000
0200
0010
0300
1000
0200
,  // measure 44
0000
0000
0300
0000
1100
0000
2000
0000
0000
3000
1010
0000
0000
0110
0000
0000
1001
0000
0000
0000
1000
0000
0200
0000
0000
0000
0300
0000
0010
0000
0002
0000
,  // measure 45
0000
0000
1003
0002
0000
0000
0013
0100
2000
0000
0000
0000
0000
0000
0000
0000
,  // measure 46
0000
0000
0000
0000
0000
0000
0000
0000
0000
0000
0000
0000
0000
0000
0000
3000
,  // measure 47
2000
3200
0300
2000
3200
0300
0000
0000
0000
0000
0000
0000
0000
0000
0000
0000
;

//---------------dance-single - ----------------
#NOTES:
     dance-single:
     X-Scale 8:
     Medium:
     6:
     0.339368,0.395232,0.033459,0.284400,0.188206,284.000000,280.000000,4.000000,34.000000,0.000000,0.000000,0.339368,0.395232,0.033459,0.284400,0.188206,284.000000,280.000000,4.000000,34.000000,0.000000,0.000000:
// measure 0
0000
0000
0000
0000
,  // measure 1
0000
0000
0000
0000
,  // measure 2
1000
0000
0000
0000
0010
0000
1000
0000
0000
0000
0001
0000
0010
0000
0002
0000
0000
0000
0000
0000
0000
0000
0000
0000
1003
0000
0000
0100
0000
0000
0000
2000
,  // measure 3
0000
0000
0000
0000
0010
0000
0010
3000
0000
0000
1000
0000
0100
0000
0020
0000
0000
0000
0000
0000
0000
0000
0000
0000
0000
0000
0000
0000
0000
0000
0030
0000
,  // measure 4
0001
0000
0000
0000
1000
0000
0100
0000
0000
0000
0010
0000
0100
0000
2000
0000
0000
0000
0000
0000
0000
0000
0000
0000
3001
0000
0000
0010
0000
0000
0000
0200
,  // measure 5
0000
0000
0000
0000
1000
0000
1000
0300
0000
0000
0100
0000
0010
0000
0002
0000
0000
0000
0000
0000
0000
0000
0000
0000
0000
0000
0000
0000
0000
0000
0000
0000
,  // measure 6
1003
0000
0001
0100
0000
0010
1000
0001
,  // measure 7
0000
0100
0000
0001
0000
1000
0000
0100
,  // measure 8
0010
0001
1000
0020
0000
0031
0010
2000
,  // measure 9
0001
0000
3100
1000
0100
0000
0010
0001
,  // measure 10
0010
0000
0100
1000
0000
0001
0000
1000
,  // measure 11
0010
0100
0000
0001
0000
1000
0000
0100
,  // measure 12
1000
0001
0100
0020
0000
0031
0010
2000
,  // measure 13
0001
0100
3001
0010
,  // measure 14
0110
0000
0010
0200
0000
0000
0310
0002
0000
0000
0000
0000
0000
0003
0000
0000
,  // measure 15
0000
1000
0010
0100
0001
0000
1000
0000
0000
0001
0010
0100
1000
0000
0001
0000
,  // measure 16
1000
0000
0001
0200
0000
0300
0010
2000
0000
0000
0000
0000
0000
0000
3000
0000
,  // measure 17
0000
1000
0010
0100
0001
0000
1000
0000
0000
0010
1000
0100
1000
0000
0001
0000
,  // measure 18
1001
0000
0001
0020
0000
0000
0130
0020
,  // measure 19
1000
0000
0100
0000
0001
0000
0130
0010
,  // measure 20
0200
0000
1300
0002
0010
0000
1003
0200
,  // measure 21
0001
0000
0010
0000
1300
0000
0001
1000
,  // measure 22
0001
0000
0010
0100
1000
0000
0001
0100
,  // measure 23
0010
1000
0001
0010
,  // measure 24
0001
0010
1000
0010
0001
0100
1000
0100
,  // measure 25
0001
0000
1000
0000
0100
0000
0010
0000
0002
0000
0000
0003
2000
0000
0000
3000
1001
0000
0000
0000
0000
0000
0000
0000
1000
0000
0000
0000
0100
0000
0000
0000
,  // measure 26
0001
0000
1000
0010
0001
0000
1000
0020
,  // measure 27
0100
0030
0200
0000
0310
0000
1000
0010
,  // measure 28
0001
0000
1000
0100
0001
0000
0010
0200
,  // measure 29
1000
0300
2000
0000
3001
0000
1000
0100
,  // measure 30
0001
0000
1000
0010
0001
0000
1000
0002
,  // measure 31
0100
0003
0200
0000
0310
0000
1000
0100
,  // measure 32
0001
0000
1000
0010
0001
1000
0100
1000
,  // measure 33
0002
0000
0023
0000
0130
0000
1000
0001
,  // measure 34
0010
0000
0100
1000
0001
0000
1000
0001
,  // measure 35
0010
0000
0100
0000
1000
0000
0010
0100
,  // measure 36
0001
0100
0010
0100
0001
0100
0010
0100
,  // measure 37
0001
1000
1000
0000
0010
0000
1000
0100
,  // measure 38
0010
0100
1000
0100
0010
0100
1000
0100
,  // measure 39
0010
0000
0001
0000
1000
0000
0010
0100
,  // measure 40
0001
0100
0010
0100
0001
1000
0001
1000
,  // measure 41
0100
0000
0010
0000
0100
0000
0000
0000
1001
0000
0001
0010
0000
0000
0010
0100
,  // measure 42
0000
0000
0100
1000
0000
0000
0001
0000
1000
0000
0100
0010
0000
0000
0010
0001
,  // measure 43
0000
0000
0001
1000
0000
0000
0100
0000
1000
0000
0001
0010
0100
0000
0010
0100
,  // measure 44
1000
0000
0000
0000
0001
0000
1000
0000
0000
0000
0001
0000
0000
1000
0000
0000
0001
0000
0000
0000
0010
0000
0100
0000
0000
0000
0000
0000
1000
0000
0002
0000
,  // measure 45
0000
0000
0000
0000
0003
0000
0000
0002
0000
0000
0000
0000
0000
0000
0003
0000
2000
0000
0000
0000
0000
0000
0000
0000
0000
0000
0000
0000
0000
0000
0000
0000
,  // measure 46
0000
0000
0000
0000
,  // measure 47
3200
0300
0000
0200
0300
0000
0000
0000
0000
0000
0000
0000
0000
0000
0000
0000
;

//---------------dance-single - ----------------
#NOTES:
     dance-single:
     X-Scale 5:
     Easy:
     3:
     0.222262,0.266416,0.033459,0.033459,0.050188,186.000000,182.000000,4.000000,4.000000,0.000000,0.000000,0.222262,0.266416,0.033459,0.033459,0.050188,186.000000,182.000000,4.000000,4.000000,0.000000,0.000000:
// measure 0
0000
0000
0000
0000
,  // measure 1
0000
0000
0000
0000
,  // measure 2
0001
0000
0000
0010
0000
0000
0000
0001
0000
0000
0000
0000
0000
0000
0000
0000
,  // measure 3
1000
0000
0000
0100
0000
0000
0000
1000
0000
0000
0000
0000
0000
0000
0000
0000
,  // measure 4
0010
0000
0000
0100
0000
0000
0000
0010
0000
0000
0000
0000
0000
0000
0000
0000
,  // measure 5
1000
0000
0000
0010
0000
0000
0000
1000
0000
0000
0000
0000
0000
0000
0000
0000
,  // measure 6
0100
0010
0001
1000
,  // measure 7
0001
0100
0001
1000
,  // measure 8
0010
1000
0001
0010
,  // measure 9
0100
0010
0001
1000
,  // measure 10
0001
0100
0001
1000
,  // measure 11
0100
0010
0001
1000
,  // measure 12
0001
0010
0100
0010
,  // measure 13
0001
1000
0010
1000
,  // measure 14
1001
0000
0001
0000
,  // measure 15
0010
0000
0100
0010
0100
0000
1000
0001
,  // measure 16
1000
0000
0100
0000
,  // measure 17
0010
0000
0001
0010
0001
0000
1000
0001
,  // measure 18
1000
0000
0100
1000
,  // measure 19
0001
0000
0010
0100
,  // measure 20
1000
0000
0001
1000
,  // measure 21
0010
0000
0100
0010
,  // measure 22
1000
0100
0010
0001
,  // measure 23
1000
0100
0010
0001
,  // measure 24
1000
0010
1000
0001
0020
0000
0230
0000
,  // measure 25
0300
0000
1000
0010
1010
0000
1000
0000
,  // measure 26
0001
0010
0001
1000
,  // measure 27
0010
0100
0010
1000
,  // measure 28
0001
0010
0001
1000
,  // measure 29
0001
1000
0010
1000
,  // measure 30
0001
0010
0001
1000
,  // measure 31
0010
0100
0010
1000
,  // measure 32
0001
0010
0001
1000
,  // measure 33
0100
0000
1100
0000
1000
0000
0001
0100
,  // measure 34
0000
0010
0100
0001
0000
1000
0100
0010
,  // measure 35
0000
0000
0100
0000
1000
0000
0001
0100
,  // measure 36
0000
0010
0100
0001
0000
0010
0100
1000
,  // measure 37
0000
0000
0001
0000
1000
0000
0010
1000
,  // measure 38
0000
0100
0010
0001
0000
1000
0001
0100
,  // measure 39
0000
0000
0001
0000
0010
0000
0100
2000
,  // measure 40
0000
0000
3001
0200
0000
0000
0301
0000
,  // measure 41
1000
0000
0000
0000
0001
0000
0000
0000
1001
0000
0000
0000
1000
0000
0000
0100
,  // measure 42
0000
0000
0010
0000
0001
0000
1000
0000
0001
0000
0000
0000
0100
0000
0000
0010
,  // measure 43
0000
0000
0100
0000
0001
0000
1000
0000
0001
0000
0000
0000
0010
0000
0000
0001
,  // measure 44
0000
0000
1000
0000
0000
0100
0000
0000
1000
0000
0000
0000
0001
0000
0000
0000
,  // measure 45
0010
0100
1000
0001
1000
0000
0000
0000
;

//---------------dance-single - ----------------
#NOTES:
     dance-single:
     X-Scale 1:
     Beginner:
     1:
     0.101571,0.114178,0.008365,0.000000,0.000000,85.000000,84.000000,1.000000,0.000000,0.000000,0.000000,0.101571,0.114178,0.008365,0.000000,0.000000,85.000000,84.000000,1.000000,0.000000,0.000000,0.000000:
// measure 0
0000
0000
0000
0000
,  // measure 1
0000
0000
0000
0000
,  // measure 2
1000
0000
0000
0000
,  // measure 3
0100
0000
0000
0000
,  // measure 4
0010
0000
0000
0000
,  // measure 5
0001
0000
0000
0000
,  // measure 6
1000
0000
0001
0000
,  // measure 7
1000
0000
0001
0000
,  // measure 8
0010
0000
0100
0000
,  // measure 9
0010
0000
0100
0000
,  // measure 10
1000
0000
0100
0000
,  // measure 11
1000
0000
0100
0000
,  // measure 12
0010
0000
0001
0000
,  // measure 13
0010
0000
0001
0000
,  // measure 14
1000
0000
0010
0000
,  // measure 15
0100
0000
0001
0000
,  // measure 16
1000
0000
0001
0000
,  // measure 17
0010
0000
0100
0000
,  // measure 18
1000
0000
0100
0000
,  // measure 19
0010
0000
0001
0000
,  // measure 20
1000
0000
0010
0000
,  // measure 21
0100
0000
0001
0000
,  // measure 22
1000
0000
0010
0000
,  // measure 23
1000
0000
0001
0000
,  // measure 24
0100
0000
0001
0000
,  // measure 25
0000
0000
1001
0000
,  // measure 26
1000
0000
0100
0000
,  // measure 27
1000
0000
0100
0000
,  // measure 28
0010
0000
0001
0000
,  // measure 29
0010
0000
0001
0000
,  // measure 30
0100
0000
0010
0000
,  // measure 31
0100
0000
0010
0000
,  // measure 32
1000
0000
0001
0000
,  // measure 33
1000
0000
0001
0000
,  // measure 34
0100
0000
0010
0000
,  // measure 35
0100
0000
0001
0000
,  // measure 36
1000
0000
0010
0000
,  // measure 37
1000
0000
0001
0000
,  // measure 38
0010
0000
0100
0000
,  // measure 39
0010
0000
0001
0000
,  // measure 40
1000
0000
0100
0000
,  // measure 41
0010
0000
0001
1000
,  // measure 42
0000
0001
0000
0000
0010
0000
0000
0000
,  // measure 43
0000
0100
0000
0000
1000
0000
0000
0000
,  // measure 44
0000
0001
0000
0000
0100
0000
0000
0000
,  // measure 45
0000
0010
0000
0000
0100
0000
0000
0000
;
